<?xml version="1.0" standalone="no"?>
<!DOCTYPE svg PUBLIC "-//W3C//DTD SVG 1.1//EN" "http://www.w3.org/Graphics/SVG/1.1/DTD/svg11.dtd" >
<svg xmlns="http://www.w3.org/2000/svg" xmlns:xlink="http://www.w3.org/1999/xlink" version="1.1">
<metadata>
Created by FontForge 20170910 at Sun Nov 20 16:02:42 2016
 By Jimmy Wärting
Copyright \(c\) 2016 by Jason Vandenberg. All rights reserved.
</metadata>
<defs>
<font id="Town40Stencil-Light" horiz-adv-x="790" >
  <font-face 
    font-family="Town 40 Stencil Light"
    font-weight="300"
    font-stretch="normal"
    units-per-em="1000"
    panose-1="0 0 4 0 0 0 0 0 0 0"
    ascent="750"
    descent="-250"
    x-height="700"
    cap-height="700"
    bbox="-558 -279 1002 920"
    underline-thickness="50"
    underline-position="-100"
    stemh="43"
    stemv="48"
    unicode-range="U+0020-2212"
  />
<missing-glyph horiz-adv-x="600" 
d="M0 0v740h600v-740h-600zM30 30h540v680h-540v-680zM92 75l-27 23l212 272l-213 273l28 21l208 -265l208 266l27 -22l-213 -273l214 -273l-29 -21l-207 265z" />
    <glyph glyph-name=".notdef" horiz-adv-x="600" 
d="M0 0v740h600v-740h-600zM30 30h540v680h-540v-680zM92 75l-27 23l212 272l-213 273l28 21l208 -265l208 266l27 -22l-213 -273l214 -273l-29 -21l-207 265z" />
    <glyph glyph-name="A" unicode="A" horiz-adv-x="648" 
d="M13 0l309 716h5l201 -466h-47l-156 374l-261 -624h-51zM585 0l-71 169h-338l16 40h354l89 -209h-50z" />
    <glyph glyph-name="Aacute" unicode="&#xc1;" horiz-adv-x="648" 
d="M311 749l82 161h66l-123 -161h-25zM13 0l309 716h5l201 -466h-47l-156 374l-261 -624h-51zM585 0l-71 169h-338l16 40h354l89 -209h-50z" />
    <glyph glyph-name="Abreve" unicode="&#x102;" horiz-adv-x="648" 
d="M324 752c-89 0 -151 81 -151 154h38c0 -52 45 -114 113 -114s113 62 113 114h38c0 -73 -62 -154 -151 -154zM13 0l309 716h5l201 -466h-47l-156 374l-261 -624h-51zM585 0l-71 169h-338l16 40h354l89 -209h-50z" />
    <glyph glyph-name="Acircumflex" unicode="&#xc2;" horiz-adv-x="648" 
d="M181 748l140 171h5l140 -171h-37l-105 117l-106 -117h-37zM13 0l309 716h5l201 -466h-47l-156 374l-261 -624h-51zM585 0l-71 169h-338l16 40h354l89 -209h-50z" />
    <glyph glyph-name="Adieresis" unicode="&#xc4;" horiz-adv-x="648" 
d="M249 796c-18 0 -33 15 -33 33c0 19 15 33 33 33c19 0 33 -14 33 -33c0 -18 -14 -33 -33 -33zM398 796c-18 0 -33 15 -33 33c0 19 15 33 33 33c19 0 33 -14 33 -33c0 -18 -14 -33 -33 -33zM13 0l309 716h5l201 -466h-47l-156 374l-261 -624h-51zM585 0l-71 169h-338l16 40
h354l89 -209h-50z" />
    <glyph glyph-name="Agrave" unicode="&#xc0;" horiz-adv-x="648" 
d="M311 749l-123 161h67l81 -161h-25zM13 0l309 716h5l201 -466h-47l-156 374l-261 -624h-51zM585 0l-71 169h-338l16 40h354l89 -209h-50z" />
    <glyph glyph-name="Amacron" unicode="&#x100;" horiz-adv-x="648" 
d="M152 809v41h343v-41h-343zM13 0l309 716h5l201 -466h-47l-156 374l-261 -624h-51zM585 0l-71 169h-338l16 40h354l89 -209h-50z" />
    <glyph glyph-name="Aogonek" unicode="&#x104;" horiz-adv-x="648" 
d="M481 250l-156 374l-261 -624h-51l309 716h5l201 -466h-47zM651 -179l1 -32c-13 -7 -33 -18 -59 -18c-52 0 -95 42 -95 88c0 29 18 55 37 74l66 67h-16l-71 169h-338l16 40h354l89 -209l-74 -92c-11 -13 -23 -29 -23 -48c0 -28 27 -53 62 -53c16 0 34 6 51 14z" />
    <glyph glyph-name="Aring" unicode="&#xc5;" horiz-adv-x="648" 
d="M344 743v27c24 9 42 32 42 60c0 27 -18 50 -42 59v27c39 -10 68 -45 68 -86c0 -43 -29 -78 -68 -87zM303 743c-39 10 -68 44 -68 87c0 41 29 76 68 85v-27c-24 -8 -41 -31 -41 -58c0 -28 17 -51 41 -59v-28zM13 0l309 716h5l201 -466h-47l-156 374l-261 -624h-51zM585 0
l-71 169h-338l16 40h354l89 -209h-50z" />
    <glyph glyph-name="Atilde" unicode="&#xc3;" horiz-adv-x="648" 
d="M142 763c0 68 26 129 96 129c43 0 71 -25 96 -50c21 -21 40 -40 69 -40c50 0 68 45 68 94h34c0 -70 -29 -133 -102 -133c-44 0 -72 26 -97 49c-21 21 -40 40 -68 40c-47 0 -62 -42 -62 -89h-34zM13 0l309 716h5l201 -466h-47l-156 374l-261 -624h-51zM585 0l-71 169h-338
l16 40h354l89 -209h-50z" />
    <glyph glyph-name="AE" unicode="&#xc6;" horiz-adv-x="957" 
d="M8 0l465 700h50v-342h337v-43h-337v-315h-48v169h-259l27 40h232v415l-412 -624h-55zM564 657v43h339v-43h-339zM564 0v43h349v-43h-349z" />
    <glyph glyph-name="B" unicode="B" horiz-adv-x="600" 
d="M167 0v41h142c122 0 195 58 195 156c0 96 -71 153 -195 153h-142v41h109c109 0 173 51 173 133s-65 135 -173 135h-198v41h198c141 0 221 -78 221 -175c0 -66 -38 -123 -113 -149c111 -21 168 -89 168 -180c0 -113 -88 -196 -243 -196h-142zM78 0v618h48v-618h-48z" />
    <glyph glyph-name="C" unicode="C" horiz-adv-x="688" 
d="M47 371c10 201 159 343 348 343c94 0 180 -35 245 -101l-24 -33c-60 58 -139 91 -222 91c-159 0 -289 -124 -298 -300h-49zM396 -12c-189 0 -339 142 -348 342h48c9 -176 138 -299 300 -299c99 0 179 48 233 106l24 -36c-64 -69 -151 -113 -257 -113z" />
    <glyph glyph-name="Cacute" unicode="&#x106;" horiz-adv-x="688" 
d="M375 750l82 161h66l-123 -161h-25zM47 371c10 201 159 343 348 343c94 0 180 -35 245 -101l-24 -33c-60 58 -139 91 -222 91c-159 0 -289 -124 -298 -300h-49zM396 -12c-189 0 -339 142 -348 342h48c9 -176 138 -299 300 -299c99 0 179 48 233 106l24 -36
c-64 -69 -151 -113 -257 -113z" />
    <glyph glyph-name="Ccaron" unicode="&#x10c;" horiz-adv-x="688" 
d="M385 741l-140 171h37l106 -117l105 117h37l-140 -171h-5zM47 371c10 201 159 343 348 343c94 0 180 -35 245 -101l-24 -33c-60 58 -139 91 -222 91c-159 0 -289 -124 -298 -300h-49zM396 -12c-189 0 -339 142 -348 342h48c9 -176 138 -299 300 -299c99 0 179 48 233 106
l24 -36c-64 -69 -151 -113 -257 -113z" />
    <glyph glyph-name="Ccedilla" unicode="&#xc7;" horiz-adv-x="688" 
d="M47 371c10 201 159 343 348 343c94 0 180 -35 245 -101l-24 -33c-60 58 -139 91 -222 91c-159 0 -289 -124 -298 -300h-49zM396 -12c-189 0 -339 142 -348 342h48c9 -176 138 -299 300 -299c99 0 179 48 233 106l24 -36c-64 -69 -151 -113 -257 -113zM395 -233
c-31 0 -65 9 -82 14l1 33c16 -5 47 -13 75 -13c57 0 89 31 89 64c0 34 -35 58 -89 58c-10 0 -17 0 -27 -2l-1 30c15 3 25 3 38 3c64 0 119 -35 119 -90c0 -53 -52 -97 -123 -97z" />
    <glyph glyph-name="Ccircumflex" unicode="&#x108;" horiz-adv-x="688" 
d="M245 749l140 171h5l140 -171h-37l-105 117l-106 -117h-37zM47 371c10 201 159 343 348 343c94 0 180 -35 245 -101l-24 -33c-60 58 -139 91 -222 91c-159 0 -289 -124 -298 -300h-49zM396 -12c-189 0 -339 142 -348 342h48c9 -176 138 -299 300 -299c99 0 179 48 233 106
l24 -36c-64 -69 -151 -113 -257 -113z" />
    <glyph glyph-name="Cdotaccent" unicode="&#x10a;" horiz-adv-x="688" 
d="M387 797c-18 0 -33 15 -33 33c0 19 15 33 33 33c19 0 33 -14 33 -33c0 -18 -14 -33 -33 -33zM47 371c10 201 159 343 348 343c94 0 180 -35 245 -101l-24 -33c-60 58 -139 91 -222 91c-159 0 -289 -124 -298 -300h-49zM396 -12c-189 0 -339 142 -348 342h48
c9 -176 138 -299 300 -299c99 0 179 48 233 106l24 -36c-64 -69 -151 -113 -257 -113z" />
    <glyph glyph-name="D" unicode="D" horiz-adv-x="670" 
d="M167 0v43h72c234 0 336 136 336 307s-101 307 -336 307h-161v43h161c261 0 384 -156 384 -350s-123 -350 -384 -350h-72zM78 0v616h48v-616h-48z" />
    <glyph glyph-name="Eth" unicode="&#xd0;" horiz-adv-x="670" 
d="M239 700c261 0 384 -156 384 -350s-123 -350 -384 -350h-72v43h72c234 0 336 136 336 307s-101 307 -336 307h-161v43h161zM284 330h-158v-330h-48v330h-79v41h79v245h48v-245h158v-41z" />
    <glyph glyph-name="Dcaron" unicode="&#x10e;" horiz-adv-x="670" 
d="M332 741l-140 171h37l106 -117l105 117h37l-140 -171h-5zM167 0v43h72c234 0 336 136 336 307s-101 307 -336 307h-161v43h161c261 0 384 -156 384 -350s-123 -350 -384 -350h-72zM78 0v616h48v-616h-48z" />
    <glyph glyph-name="Dcroat" unicode="&#x110;" horiz-adv-x="670" 
d="M239 700c261 0 384 -156 384 -350s-123 -350 -384 -350h-72v43h72c234 0 336 136 336 307s-101 307 -336 307h-161v43h161zM284 330h-158v-330h-48v330h-79v41h79v245h48v-245h158v-41z" />
    <glyph glyph-name="E" unicode="E" horiz-adv-x="560" 
d="M78 0v700h48v-342h338v-43h-338v-315h-48zM167 657v43h339v-43h-339zM167 0v43h349v-43h-349z" />
    <glyph glyph-name="Eacute" unicode="&#xc9;" horiz-adv-x="560" 
d="M296 750l82 161h66l-123 -161h-25zM78 0v700h48v-342h338v-43h-338v-315h-48zM167 657v43h339v-43h-339zM167 0v43h349v-43h-349z" />
    <glyph glyph-name="Ebreve" unicode="&#x114;" horiz-adv-x="560" 
d="M309 753c-89 0 -151 81 -151 154h38c0 -52 45 -114 113 -114s113 62 113 114h38c0 -73 -62 -154 -151 -154zM78 0v700h48v-342h338v-43h-338v-315h-48zM167 657v43h339v-43h-339zM167 0v43h349v-43h-349z" />
    <glyph glyph-name="Ecaron" unicode="&#x11a;" horiz-adv-x="560" 
d="M306 741l-140 171h37l106 -117l105 117h37l-140 -171h-5zM78 0v700h48v-342h338v-43h-338v-315h-48zM167 657v43h339v-43h-339zM167 0v43h349v-43h-349z" />
    <glyph glyph-name="Ecircumflex" unicode="&#xca;" horiz-adv-x="560" 
d="M166 749l140 171h5l140 -171h-37l-105 117l-106 -117h-37zM78 0v700h48v-342h338v-43h-338v-315h-48zM167 657v43h339v-43h-339zM167 0v43h349v-43h-349z" />
    <glyph glyph-name="Edieresis" unicode="&#xcb;" horiz-adv-x="560" 
d="M234 797c-18 0 -33 15 -33 33c0 19 15 33 33 33c19 0 33 -14 33 -33c0 -18 -14 -33 -33 -33zM383 797c-18 0 -33 15 -33 33c0 19 15 33 33 33c19 0 33 -14 33 -33c0 -18 -14 -33 -33 -33zM78 0v700h48v-342h338v-43h-338v-315h-48zM167 657v43h339v-43h-339zM167 0v43
h349v-43h-349z" />
    <glyph glyph-name="Edotaccent" unicode="&#x116;" horiz-adv-x="560" 
d="M308 797c-18 0 -33 15 -33 33c0 19 15 33 33 33c19 0 33 -14 33 -33c0 -18 -14 -33 -33 -33zM78 0v700h48v-342h338v-43h-338v-315h-48zM167 657v43h339v-43h-339zM167 0v43h349v-43h-349z" />
    <glyph glyph-name="Egrave" unicode="&#xc8;" horiz-adv-x="560" 
d="M296 750l-123 161h67l81 -161h-25zM78 0v700h48v-342h338v-43h-338v-315h-48zM167 657v43h339v-43h-339zM167 0v43h349v-43h-349z" />
    <glyph glyph-name="Emacron" unicode="&#x112;" horiz-adv-x="560" 
d="M137 810v41h343v-41h-343zM78 0v700h48v-342h338v-43h-338v-315h-48zM167 657v43h339v-43h-339zM167 0v43h349v-43h-349z" />
    <glyph glyph-name="Eogonek" unicode="&#x118;" horiz-adv-x="560" 
d="M464 358v-43h-338v-315h-48v700h48v-342h338zM506 700v-43h-339v43h339zM533 -179l1 -32c-13 -7 -33 -18 -59 -18c-52 0 -95 42 -95 88c0 29 18 55 37 74l66 67h-316v43h349v-43h1l-74 -92c-11 -13 -23 -29 -23 -48c0 -28 27 -53 62 -53c16 0 34 6 51 14z" />
    <glyph glyph-name="F" unicode="F" horiz-adv-x="555" 
d="M78 0v700h48v-342h326v-43h-326v-315h-48zM167 657v43h339v-43h-339z" />
    <glyph glyph-name="G" unicode="G" horiz-adv-x="742" 
d="M394 -12c-192 0 -347 152 -347 363s153 363 348 363c94 0 180 -35 245 -101l-24 -33c-60 58 -139 91 -222 91c-165 0 -299 -133 -299 -320s134 -320 299 -320c71 0 132 24 187 68v-55c-54 -38 -119 -56 -187 -56zM622 75v240h-248v43h296v-231c-14 -18 -29 -35 -48 -52z
" />
    <glyph glyph-name="Gbreve" unicode="&#x11e;" horiz-adv-x="742" 
d="M386 753c-89 0 -151 81 -151 154h38c0 -52 45 -114 113 -114s113 62 113 114h38c0 -73 -62 -154 -151 -154zM394 -12c-192 0 -347 152 -347 363s153 363 348 363c94 0 180 -35 245 -101l-24 -33c-60 58 -139 91 -222 91c-165 0 -299 -133 -299 -320s134 -320 299 -320
c71 0 132 24 187 68v-55c-54 -38 -119 -56 -187 -56zM622 75v240h-248v43h296v-231c-14 -18 -29 -35 -48 -52z" />
    <glyph glyph-name="Gcircumflex" unicode="&#x11c;" horiz-adv-x="742" 
d="M243 749l140 171h5l140 -171h-37l-105 117l-106 -117h-37zM394 -12c-192 0 -347 152 -347 363s153 363 348 363c94 0 180 -35 245 -101l-24 -33c-60 58 -139 91 -222 91c-165 0 -299 -133 -299 -320s134 -320 299 -320c71 0 132 24 187 68v-55c-54 -38 -119 -56 -187 -56
zM622 75v240h-248v43h296v-231c-14 -18 -29 -35 -48 -52z" />
    <glyph glyph-name="Gcommaaccent" unicode="&#x122;" horiz-adv-x="742" 
d="M394 -12c-192 0 -347 152 -347 363s153 363 348 363c94 0 180 -35 245 -101l-24 -33c-60 58 -139 91 -222 91c-165 0 -299 -133 -299 -320s134 -320 299 -320c71 0 132 24 187 68v-55c-54 -38 -119 -56 -187 -56zM622 75v240h-248v43h296v-231c-14 -18 -29 -35 -48 -52z
M350 -185l27 80c-13 5 -23 15 -23 30c0 18 17 31 36 31c20 0 37 -14 37 -30c0 -10 -5 -21 -15 -40l-34 -71h-28z" />
    <glyph glyph-name="Gdotaccent" unicode="&#x120;" horiz-adv-x="742" 
d="M385 797c-18 0 -33 15 -33 33c0 19 15 33 33 33c19 0 33 -14 33 -33c0 -18 -14 -33 -33 -33zM394 -12c-192 0 -347 152 -347 363s153 363 348 363c94 0 180 -35 245 -101l-24 -33c-60 58 -139 91 -222 91c-165 0 -299 -133 -299 -320s134 -320 299 -320
c71 0 132 24 187 68v-55c-54 -38 -119 -56 -187 -56zM622 75v240h-248v43h296v-231c-14 -18 -29 -35 -48 -52z" />
    <glyph glyph-name="H" unicode="H" horiz-adv-x="660" 
d="M78 0v358h456v342h48v-385h-456v-315h-48zM78 399v301h48v-301h-48zM534 0v274h48v-274h-48z" />
    <glyph glyph-name="Hbar" unicode="&#x126;" horiz-adv-x="676" 
d="M675 593v-36h-93v-242h-456v-315h-48v358h456v199h-408v-158h-48v158h-76v36h76v107h48v-107h408v107h48v-107h93zM534 0v274h48v-274h-48z" />
    <glyph glyph-name="Hcircumflex" unicode="&#x124;" horiz-adv-x="660" 
d="M187 749l140 171h5l140 -171h-37l-105 117l-106 -117h-37zM78 0v358h456v342h48v-385h-456v-315h-48zM78 399v301h48v-301h-48zM534 0v274h48v-274h-48z" />
    <glyph glyph-name="I" unicode="I" horiz-adv-x="234" 
d="M93 0v700h48v-700h-48z" />
    <glyph glyph-name="Iacute" unicode="&#xcd;" horiz-adv-x="234" 
d="M104 750l82 161h66l-123 -161h-25zM93 0v700h48v-700h-48z" />
    <glyph glyph-name="Ibreve" unicode="&#x12c;" horiz-adv-x="234" 
d="M117 753c-89 0 -151 81 -151 154h38c0 -52 45 -114 113 -114s113 62 113 114h38c0 -73 -62 -154 -151 -154zM93 0v700h48v-700h-48z" />
    <glyph glyph-name="Icircumflex" unicode="&#xce;" horiz-adv-x="234" 
d="M-26 749l140 171h5l140 -171h-37l-105 117l-106 -117h-37zM93 0v700h48v-700h-48z" />
    <glyph glyph-name="Idieresis" unicode="&#xcf;" horiz-adv-x="234" 
d="M42 797c-18 0 -33 15 -33 33c0 19 15 33 33 33c19 0 33 -14 33 -33c0 -18 -14 -33 -33 -33zM191 797c-18 0 -33 15 -33 33c0 19 15 33 33 33c19 0 33 -14 33 -33c0 -18 -14 -33 -33 -33zM93 0v700h48v-700h-48z" />
    <glyph glyph-name="Idotaccent" unicode="&#x130;" horiz-adv-x="234" 
d="M116 797c-18 0 -33 15 -33 33c0 19 15 33 33 33c19 0 33 -14 33 -33c0 -18 -14 -33 -33 -33zM93 0v700h48v-700h-48z" />
    <glyph glyph-name="Igrave" unicode="&#xcc;" horiz-adv-x="234" 
d="M104 750l-123 161h67l81 -161h-25zM93 0v700h48v-700h-48z" />
    <glyph glyph-name="Imacron" unicode="&#x12a;" horiz-adv-x="234" 
d="M46 810v41h141v-41h-141zM93 0v700h48v-700h-48z" />
    <glyph glyph-name="Iogonek" unicode="&#x12e;" horiz-adv-x="234" 
d="M157 -179l1 -32c-13 -7 -33 -18 -59 -18c-52 0 -95 42 -95 88c0 29 18 55 37 74l66 67h-14v700h48v-700l-74 -92c-11 -13 -23 -29 -23 -48c0 -28 27 -53 62 -53c16 0 34 6 51 14z" />
    <glyph glyph-name="Itilde" unicode="&#x128;" horiz-adv-x="234" 
d="M-65 764c0 68 26 129 96 129c43 0 71 -25 96 -50c21 -21 40 -40 69 -40c50 0 68 45 68 94h34c0 -70 -29 -133 -102 -133c-44 0 -72 26 -97 49c-21 21 -40 40 -68 40c-47 0 -62 -42 -62 -89h-34zM93 0v700h48v-700h-48z" />
    <glyph glyph-name="J" unicode="J" horiz-adv-x="473" 
d="M347 251v449h48v-449h-48zM177 -12c-54 0 -101 18 -139 47l22 35c31 -23 72 -39 117 -39c93 0 170 70 170 179h48c0 -131 -97 -222 -218 -222z" />
    <glyph glyph-name="Jcircumflex" unicode="&#x134;" horiz-adv-x="473" 
d="M228 749l140 171h5l140 -171h-37l-105 117l-106 -117h-37zM347 251v449h48v-449h-48zM177 -12c-54 0 -101 18 -139 47l22 35c31 -23 72 -39 117 -39c93 0 170 70 170 179h48c0 -131 -97 -222 -218 -222z" />
    <glyph glyph-name="K" unicode="K" horiz-adv-x="606" 
d="M78 0v700h48v-700h-48zM518 0l-353 361l342 339h65l-344 -339l358 -361h-68z" />
    <glyph glyph-name="Kcommaaccent" unicode="&#x136;" horiz-adv-x="606" 
d="M78 0v700h48v-700h-48zM518 0l-353 361l342 339h65l-344 -339l358 -361h-68zM281 -185l27 80c-13 5 -23 15 -23 30c0 18 17 31 36 31c20 0 37 -14 37 -30c0 -10 -5 -21 -15 -40l-34 -71h-28z" />
    <glyph glyph-name="L" unicode="L" horiz-adv-x="530" 
d="M78 0v700h48v-700h-48zM167 0v43h349v-43h-349z" />
    <glyph glyph-name="Lacute" unicode="&#x139;" horiz-adv-x="530" 
d="M89 750l82 161h66l-123 -161h-25zM78 0v700h48v-700h-48zM167 0v43h349v-43h-349z" />
    <glyph glyph-name="Lcaron" unicode="&#x13d;" horiz-adv-x="530" 
d="M78 0v700h48v-700h-48zM191 537v163h56l-31 -163h-25zM167 0v43h349v-43h-349z" />
    <glyph glyph-name="Lcommaaccent" unicode="&#x13b;" horiz-adv-x="530" 
d="M78 0v700h48v-700h-48zM167 0v43h349v-43h-349zM257 -185l27 80c-13 5 -23 15 -23 30c0 18 17 31 36 31c20 0 37 -14 37 -30c0 -10 -5 -21 -15 -40l-34 -71h-28z" />
    <glyph glyph-name="Ldot" unicode="&#x13f;" horiz-adv-x="530" 
d="M78 0v700h48v-700h-48zM296 300c-19 0 -36 16 -36 36c0 19 17 35 36 35c20 0 37 -16 37 -35c0 -20 -17 -36 -37 -36zM167 0v43h349v-43h-349z" />
    <glyph glyph-name="Lslash" unicode="&#x141;" horiz-adv-x="530" 
d="M291 457l-165 -89v-368h-48v342l-97 -52v43l97 52v315h48v-289l165 89v-43zM167 43h349v-43h-349v43z" />
    <glyph glyph-name="M" unicode="M" horiz-adv-x="755" 
d="M78 0v713h6l321 -429l-25 -33h-5l-249 330v-581h-48zM629 0v581l-197 -261l-29 36l268 357h6v-713h-48z" />
    <glyph glyph-name="N" unicode="N" horiz-adv-x="686" 
d="M602 -16l-524 664v68h5l476 -603v587h48v-716h-5zM78 0v581l48 -59v-522h-48z" />
    <glyph glyph-name="Nacute" unicode="&#x143;" horiz-adv-x="686" 
d="M330 750l82 161h66l-123 -161h-25zM602 -16l-524 664v68h5l476 -603v587h48v-716h-5zM78 0v581l48 -59v-522h-48z" />
    <glyph glyph-name="Ncaron" unicode="&#x147;" horiz-adv-x="686" 
d="M340 741l-140 171h37l106 -117l105 117h37l-140 -171h-5zM602 -16l-524 664v68h5l476 -603v587h48v-716h-5zM78 0v581l48 -59v-522h-48z" />
    <glyph glyph-name="Ncommaaccent" unicode="&#x145;" horiz-adv-x="686" 
d="M602 -16l-524 664v68h5l476 -603v587h48v-716h-5zM78 0v581l48 -59v-522h-48zM303 -185l27 80c-13 5 -23 15 -23 30c0 18 17 31 36 31c20 0 37 -14 37 -30c0 -10 -5 -21 -15 -40l-34 -71h-28z" />
    <glyph glyph-name="Eng" unicode="&#x14a;" horiz-adv-x="686" 
d="M608 700v-732c0 -73 -50 -134 -120 -134c-31 0 -61 10 -83 28l21 35c16 -13 39 -21 60 -21c48 0 75 39 75 92v68l-483 612v68h5l476 -603v587h49zM78 0v581l48 -59v-522h-48z" />
    <glyph glyph-name="Ntilde" unicode="&#xd1;" horiz-adv-x="686" 
d="M161 764c0 68 26 129 96 129c43 0 71 -25 96 -50c21 -21 40 -40 69 -40c50 0 68 45 68 94h34c0 -70 -29 -133 -102 -133c-44 0 -72 26 -97 49c-21 21 -40 40 -68 40c-47 0 -62 -42 -62 -89h-34zM602 -16l-524 664v68h5l476 -603v587h48v-716h-5zM78 0v581l48 -59v-522
h-48z" />
    <glyph glyph-name="O" unicode="O" 
d="M662 113l-33 33c41 54 66 125 66 205c0 187 -134 320 -300 320c-79 0 -152 -31 -206 -84l-32 32c62 60 146 95 238 95c193 0 348 -152 348 -363c0 -94 -30 -175 -81 -238zM395 -12c-192 0 -348 152 -348 363c0 93 31 175 81 238l33 -33c-41 -55 -66 -125 -66 -205
c0 -187 136 -320 300 -320c80 0 153 31 207 84l32 -32c-62 -60 -146 -95 -239 -95z" />
    <glyph glyph-name="Oacute" unicode="&#xd3;" 
d="M382 750l82 161h66l-123 -161h-25zM662 113l-33 33c41 54 66 125 66 205c0 187 -134 320 -300 320c-79 0 -152 -31 -206 -84l-32 32c62 60 146 95 238 95c193 0 348 -152 348 -363c0 -94 -30 -175 -81 -238zM395 -12c-192 0 -348 152 -348 363c0 93 31 175 81 238l33 -33
c-41 -55 -66 -125 -66 -205c0 -187 136 -320 300 -320c80 0 153 31 207 84l32 -32c-62 -60 -146 -95 -239 -95z" />
    <glyph glyph-name="Obreve" unicode="&#x14e;" 
d="M395 753c-89 0 -151 81 -151 154h38c0 -52 45 -114 113 -114s113 62 113 114h38c0 -73 -62 -154 -151 -154zM662 113l-33 33c41 54 66 125 66 205c0 187 -134 320 -300 320c-79 0 -152 -31 -206 -84l-32 32c62 60 146 95 238 95c193 0 348 -152 348 -363
c0 -94 -30 -175 -81 -238zM395 -12c-192 0 -348 152 -348 363c0 93 31 175 81 238l33 -33c-41 -55 -66 -125 -66 -205c0 -187 136 -320 300 -320c80 0 153 31 207 84l32 -32c-62 -60 -146 -95 -239 -95z" />
    <glyph glyph-name="Ocircumflex" unicode="&#xd4;" 
d="M252 749l140 171h5l140 -171h-37l-105 117l-106 -117h-37zM662 113l-33 33c41 54 66 125 66 205c0 187 -134 320 -300 320c-79 0 -152 -31 -206 -84l-32 32c62 60 146 95 238 95c193 0 348 -152 348 -363c0 -94 -30 -175 -81 -238zM395 -12c-192 0 -348 152 -348 363
c0 93 31 175 81 238l33 -33c-41 -55 -66 -125 -66 -205c0 -187 136 -320 300 -320c80 0 153 31 207 84l32 -32c-62 -60 -146 -95 -239 -95z" />
    <glyph glyph-name="Odieresis" unicode="&#xd6;" 
d="M320 797c-18 0 -33 15 -33 33c0 19 15 33 33 33c19 0 33 -14 33 -33c0 -18 -14 -33 -33 -33zM469 797c-18 0 -33 15 -33 33c0 19 15 33 33 33c19 0 33 -14 33 -33c0 -18 -14 -33 -33 -33zM662 113l-33 33c41 54 66 125 66 205c0 187 -134 320 -300 320
c-79 0 -152 -31 -206 -84l-32 32c62 60 146 95 238 95c193 0 348 -152 348 -363c0 -94 -30 -175 -81 -238zM395 -12c-192 0 -348 152 -348 363c0 93 31 175 81 238l33 -33c-41 -55 -66 -125 -66 -205c0 -187 136 -320 300 -320c80 0 153 31 207 84l32 -32
c-62 -60 -146 -95 -239 -95z" />
    <glyph glyph-name="Ograve" unicode="&#xd2;" 
d="M382 750l-123 161h67l81 -161h-25zM662 113l-33 33c41 54 66 125 66 205c0 187 -134 320 -300 320c-79 0 -152 -31 -206 -84l-32 32c62 60 146 95 238 95c193 0 348 -152 348 -363c0 -94 -30 -175 -81 -238zM395 -12c-192 0 -348 152 -348 363c0 93 31 175 81 238l33 -33
c-41 -55 -66 -125 -66 -205c0 -187 136 -320 300 -320c80 0 153 31 207 84l32 -32c-62 -60 -146 -95 -239 -95z" />
    <glyph glyph-name="Ohungarumlaut" unicode="&#x150;" 
d="M305 750l83 161h67l-125 -161h-25zM459 750l83 161h67l-125 -161h-25zM662 113l-33 33c41 54 66 125 66 205c0 187 -134 320 -300 320c-79 0 -152 -31 -206 -84l-32 32c62 60 146 95 238 95c193 0 348 -152 348 -363c0 -94 -30 -175 -81 -238zM395 -12
c-192 0 -348 152 -348 363c0 93 31 175 81 238l33 -33c-41 -55 -66 -125 -66 -205c0 -187 136 -320 300 -320c80 0 153 31 207 84l32 -32c-62 -60 -146 -95 -239 -95z" />
    <glyph glyph-name="Omacron" unicode="&#x14c;" 
d="M223 810v41h343v-41h-343zM662 113l-33 33c41 54 66 125 66 205c0 187 -134 320 -300 320c-79 0 -152 -31 -206 -84l-32 32c62 60 146 95 238 95c193 0 348 -152 348 -363c0 -94 -30 -175 -81 -238zM395 -12c-192 0 -348 152 -348 363c0 93 31 175 81 238l33 -33
c-41 -55 -66 -125 -66 -205c0 -187 136 -320 300 -320c80 0 153 31 207 84l32 -32c-62 -60 -146 -95 -239 -95z" />
    <glyph glyph-name="Oslash" unicode="&#xd8;" 
d="M662 113l-33 33c41 54 66 125 66 205c0 124 -59 224 -146 277l-267 -574c35 -15 73 -23 113 -23c80 0 153 31 207 84l32 -32c-62 -60 -146 -95 -239 -95c-47 0 -91 9 -132 26l-36 -78h-47l45 96c-106 60 -178 176 -178 319c0 93 31 175 81 238l33 -33
c-41 -55 -66 -125 -66 -205c0 -124 60 -225 149 -278l267 575c-36 15 -75 23 -116 23c-79 0 -152 -31 -206 -84l-32 32c62 60 146 95 238 95c48 0 93 -9 134 -26l36 76h47l-44 -95c105 -60 175 -176 175 -318c0 -94 -30 -175 -81 -238z" />
    <glyph glyph-name="Otilde" unicode="&#xd5;" 
d="M213 764c0 68 26 129 96 129c43 0 71 -25 96 -50c21 -21 40 -40 69 -40c50 0 68 45 68 94h34c0 -70 -29 -133 -102 -133c-44 0 -72 26 -97 49c-21 21 -40 40 -68 40c-47 0 -62 -42 -62 -89h-34zM662 113l-33 33c41 54 66 125 66 205c0 187 -134 320 -300 320
c-79 0 -152 -31 -206 -84l-32 32c62 60 146 95 238 95c193 0 348 -152 348 -363c0 -94 -30 -175 -81 -238zM395 -12c-192 0 -348 152 -348 363c0 93 31 175 81 238l33 -33c-41 -55 -66 -125 -66 -205c0 -187 136 -320 300 -320c80 0 153 31 207 84l32 -32
c-62 -60 -146 -95 -239 -95z" />
    <glyph glyph-name="OE" unicode="&#x152;" horiz-adv-x="1012" 
d="M411 0c-241 0 -364 156 -364 350s123 350 364 350h77v-43h-77c-214 0 -316 -136 -316 -307s102 -307 316 -307h83v-43h-83zM529 0v700h48v-342h338v-43h-338v-315h-48zM619 657v43h339v-43h-339zM619 0v43h349v-43h-349z" />
    <glyph glyph-name="P" unicode="P" horiz-adv-x="553" 
d="M167 272v41h95c126 0 203 66 203 173c0 106 -78 173 -203 173h-184v41h184c164 0 251 -96 251 -214s-87 -214 -251 -214h-95zM78 0v618h48v-618h-48z" />
    <glyph glyph-name="Thorn" unicode="&#xde;" horiz-adv-x="557" 
d="M78 0v700h48v-700h-48zM167 146v41h95c126 0 203 66 203 173c0 106 -78 173 -203 173h-95v41h95c164 0 251 -96 251 -214s-87 -214 -251 -214h-95z" />
    <glyph glyph-name="Q" unicode="Q" 
d="M662 113l-33 33c41 54 66 125 66 205c0 187 -134 320 -300 320c-79 0 -152 -31 -206 -84l-32 32c62 60 146 95 238 95c193 0 348 -152 348 -363c0 -94 -30 -175 -81 -238zM710 -60l-113 112c-57 -41 -126 -64 -202 -64c-192 0 -348 152 -348 363c0 93 31 175 81 238
l33 -33c-41 -55 -66 -125 -66 -205c0 -187 136 -320 300 -320c80 0 153 31 207 84l142 -142z" />
    <glyph glyph-name="R" unicode="R" horiz-adv-x="583" 
d="M490 0l-193 274c-11 -1 -23 -2 -35 -2h-95v41h95c126 0 203 66 203 173c0 106 -78 173 -203 173h-184v41h184c164 0 251 -96 251 -214c0 -96 -57 -177 -167 -204l199 -282h-55zM78 0v618h48v-618h-48z" />
    <glyph glyph-name="Racute" unicode="&#x154;" horiz-adv-x="583" 
d="M248 750l82 161h66l-123 -161h-25zM490 0l-193 274c-11 -1 -23 -2 -35 -2h-95v41h95c126 0 203 66 203 173c0 106 -78 173 -203 173h-184v41h184c164 0 251 -96 251 -214c0 -96 -57 -177 -167 -204l199 -282h-55zM78 0v618h48v-618h-48z" />
    <glyph glyph-name="Rcaron" unicode="&#x158;" horiz-adv-x="583" 
d="M258 741l-140 171h37l106 -117l105 117h37l-140 -171h-5zM490 0l-193 274c-11 -1 -23 -2 -35 -2h-95v41h95c126 0 203 66 203 173c0 106 -78 173 -203 173h-184v41h184c164 0 251 -96 251 -214c0 -96 -57 -177 -167 -204l199 -282h-55zM78 0v618h48v-618h-48z" />
    <glyph glyph-name="Rcommaaccent" unicode="&#x156;" horiz-adv-x="583" 
d="M490 0l-193 274c-11 -1 -23 -2 -35 -2h-95v41h95c126 0 203 66 203 173c0 106 -78 173 -203 173h-184v41h184c164 0 251 -96 251 -214c0 -96 -57 -177 -167 -204l199 -282h-55zM78 0v618h48v-618h-48zM254 -185l27 80c-13 5 -23 15 -23 30c0 18 17 31 36 31
c20 0 37 -14 37 -30c0 -10 -5 -21 -15 -40l-34 -71h-28z" />
    <glyph glyph-name="S" unicode="S" horiz-adv-x="569" 
d="M314 -10v41c91 6 169 53 169 140c0 95 -92 135 -186 176c-99 43 -202 87 -202 199c0 85 59 159 178 166v-41c-93 -7 -130 -63 -130 -119c0 -85 84 -122 176 -162c103 -44 212 -91 212 -214c0 -118 -101 -179 -217 -186zM462 589c-36 57 -92 78 -148 82v41
c71 -4 142 -31 183 -99zM273 -11c-101 6 -191 51 -237 140l35 26c40 -80 117 -120 202 -124v-42z" />
    <glyph glyph-name="Sacute" unicode="&#x15a;" horiz-adv-x="569" 
d="M287 750l82 161h66l-123 -161h-25zM314 -10v41c91 6 169 53 169 140c0 95 -92 135 -186 176c-99 43 -202 87 -202 199c0 85 59 159 178 166v-41c-93 -7 -130 -63 -130 -119c0 -85 84 -122 176 -162c103 -44 212 -91 212 -214c0 -118 -101 -179 -217 -186zM462 589
c-36 57 -92 78 -148 82v41c71 -4 142 -31 183 -99zM273 -11c-101 6 -191 51 -237 140l35 26c40 -80 117 -120 202 -124v-42z" />
    <glyph glyph-name="Scaron" unicode="&#x160;" horiz-adv-x="569" 
d="M297 741l-140 171h37l106 -117l105 117h37l-140 -171h-5zM314 -10v41c91 6 169 53 169 140c0 95 -92 135 -186 176c-99 43 -202 87 -202 199c0 85 59 159 178 166v-41c-93 -7 -130 -63 -130 -119c0 -85 84 -122 176 -162c103 -44 212 -91 212 -214
c0 -118 -101 -179 -217 -186zM462 589c-36 57 -92 78 -148 82v41c71 -4 142 -31 183 -99zM273 -11c-101 6 -191 51 -237 140l35 26c40 -80 117 -120 202 -124v-42z" />
    <glyph glyph-name="Scedilla" unicode="&#x15e;" horiz-adv-x="569" 
d="M314 -10v41c91 6 169 53 169 140c0 95 -92 135 -186 176c-99 43 -202 87 -202 199c0 85 59 159 178 166v-41c-93 -7 -130 -63 -130 -119c0 -85 84 -122 176 -162c103 -44 212 -91 212 -214c0 -118 -101 -179 -217 -186zM462 589c-36 57 -92 78 -148 82v41
c71 -4 142 -31 183 -99zM273 -11c-101 6 -191 51 -237 140l35 26c40 -80 117 -120 202 -124v-42zM297 -233c-31 0 -65 9 -82 14l1 33c16 -5 47 -13 75 -13c57 0 89 31 89 64c0 34 -35 58 -89 58c-10 0 -17 0 -27 -2l-1 30c15 3 25 3 38 3c64 0 119 -35 119 -90
c0 -53 -52 -97 -123 -97z" />
    <glyph glyph-name="Scircumflex" unicode="&#x15c;" horiz-adv-x="569" 
d="M157 749l140 171h5l140 -171h-37l-105 117l-106 -117h-37zM314 -10v41c91 6 169 53 169 140c0 95 -92 135 -186 176c-99 43 -202 87 -202 199c0 85 59 159 178 166v-41c-93 -7 -130 -63 -130 -119c0 -85 84 -122 176 -162c103 -44 212 -91 212 -214
c0 -118 -101 -179 -217 -186zM462 589c-36 57 -92 78 -148 82v41c71 -4 142 -31 183 -99zM273 -11c-101 6 -191 51 -237 140l35 26c40 -80 117 -120 202 -124v-42z" />
    <glyph glyph-name="Scommaaccent" unicode="&#x218;" horiz-adv-x="569" 
d="M314 -10v41c91 6 169 53 169 140c0 95 -92 135 -186 176c-99 43 -202 87 -202 199c0 85 59 159 178 166v-41c-93 -7 -130 -63 -130 -119c0 -85 84 -122 176 -162c103 -44 212 -91 212 -214c0 -118 -101 -179 -217 -186zM462 589c-36 57 -92 78 -148 82v41
c71 -4 142 -31 183 -99zM273 -11c-101 6 -191 51 -237 140l35 26c40 -80 117 -120 202 -124v-42zM254 -185l27 80c-13 5 -23 15 -23 30c0 18 17 31 36 31c20 0 37 -14 37 -30c0 -10 -5 -21 -15 -40l-34 -71h-28z" />
    <glyph glyph-name="T" unicode="T" horiz-adv-x="578" 
d="M27 657v43h197v-43h-197zM265 0v700h285v-43h-237v-657h-48z" />
    <glyph glyph-name="Tbar" unicode="&#x166;" horiz-adv-x="578" 
d="M224 700v-43h-197v43h197zM265 700h285v-43h-237v-657h-48v385h-221v36h221v279zM354 385v36h180v-36h-180z" />
    <glyph glyph-name="Tcaron" unicode="&#x164;" horiz-adv-x="578" 
d="M286 741l-140 171h37l106 -117l105 117h37l-140 -171h-5zM27 657v43h197v-43h-197zM265 0v700h285v-43h-237v-657h-48z" />
    <glyph glyph-name="uni0162" unicode="&#x162;" horiz-adv-x="578" 
d="M27 657v43h197v-43h-197zM265 0v700h285v-43h-237v-657h-48zM292 -233c-31 0 -65 9 -82 14l1 33c16 -5 47 -13 75 -13c57 0 89 31 89 64c0 34 -35 58 -89 58c-10 0 -17 0 -27 -2l-1 30c15 3 25 3 38 3c64 0 119 -35 119 -90c0 -53 -52 -97 -123 -97z" />
    <glyph glyph-name="uni021A" unicode="&#x21a;" horiz-adv-x="578" 
d="M27 657v43h197v-43h-197zM265 0v700h285v-43h-237v-657h-48zM249 -185l27 80c-13 5 -23 15 -23 30c0 18 17 31 36 31c20 0 37 -14 37 -30c0 -10 -5 -21 -15 -40l-34 -71h-28z" />
    <glyph glyph-name="U" unicode="U" horiz-adv-x="679" 
d="M319 -12c-143 8 -241 105 -241 264v448h48v-448c0 -133 77 -213 193 -221v-43zM360 -12v43c116 8 192 89 192 221v448h48v-448c0 -158 -97 -256 -240 -264z" />
    <glyph glyph-name="Uacute" unicode="&#xda;" horiz-adv-x="679" 
d="M326 750l82 161h66l-123 -161h-25zM319 -12c-143 8 -241 105 -241 264v448h48v-448c0 -133 77 -213 193 -221v-43zM360 -12v43c116 8 192 89 192 221v448h48v-448c0 -158 -97 -256 -240 -264z" />
    <glyph glyph-name="Ubreve" unicode="&#x16c;" horiz-adv-x="679" 
d="M339 753c-89 0 -151 81 -151 154h38c0 -52 45 -114 113 -114s113 62 113 114h38c0 -73 -62 -154 -151 -154zM319 -12c-143 8 -241 105 -241 264v448h48v-448c0 -133 77 -213 193 -221v-43zM360 -12v43c116 8 192 89 192 221v448h48v-448c0 -158 -97 -256 -240 -264z" />
    <glyph glyph-name="Ucircumflex" unicode="&#xdb;" horiz-adv-x="679" 
d="M196 749l140 171h5l140 -171h-37l-105 117l-106 -117h-37zM319 -12c-143 8 -241 105 -241 264v448h48v-448c0 -133 77 -213 193 -221v-43zM360 -12v43c116 8 192 89 192 221v448h48v-448c0 -158 -97 -256 -240 -264z" />
    <glyph glyph-name="Udieresis" unicode="&#xdc;" horiz-adv-x="679" 
d="M264 797c-18 0 -33 15 -33 33c0 19 15 33 33 33c19 0 33 -14 33 -33c0 -18 -14 -33 -33 -33zM413 797c-18 0 -33 15 -33 33c0 19 15 33 33 33c19 0 33 -14 33 -33c0 -18 -14 -33 -33 -33zM319 -12c-143 8 -241 105 -241 264v448h48v-448c0 -133 77 -213 193 -221v-43z
M360 -12v43c116 8 192 89 192 221v448h48v-448c0 -158 -97 -256 -240 -264z" />
    <glyph glyph-name="Ugrave" unicode="&#xd9;" horiz-adv-x="679" 
d="M326 750l-123 161h67l81 -161h-25zM319 -12c-143 8 -241 105 -241 264v448h48v-448c0 -133 77 -213 193 -221v-43zM360 -12v43c116 8 192 89 192 221v448h48v-448c0 -158 -97 -256 -240 -264z" />
    <glyph glyph-name="Uhungarumlaut" unicode="&#x170;" horiz-adv-x="679" 
d="M249 750l83 161h67l-125 -161h-25zM403 750l83 161h67l-125 -161h-25zM319 -12c-143 8 -241 105 -241 264v448h48v-448c0 -133 77 -213 193 -221v-43zM360 -12v43c116 8 192 89 192 221v448h48v-448c0 -158 -97 -256 -240 -264z" />
    <glyph glyph-name="Umacron" unicode="&#x16a;" horiz-adv-x="679" 
d="M167 810v41h343v-41h-343zM319 -12c-143 8 -241 105 -241 264v448h48v-448c0 -133 77 -213 193 -221v-43zM360 -12v43c116 8 192 89 192 221v448h48v-448c0 -158 -97 -256 -240 -264z" />
    <glyph glyph-name="Uogonek" unicode="&#x172;" horiz-adv-x="679" 
d="M126 252c0 -133 77 -213 193 -221v-43c-143 8 -241 105 -241 264v448h48v-448zM552 700h48v-448c0 -101 -39 -177 -105 -221h1l-74 -92c-11 -13 -23 -29 -23 -48c0 -28 27 -53 62 -53c16 0 34 6 51 14l1 -32c-13 -7 -33 -18 -59 -18c-52 0 -95 42 -95 88
c0 29 18 55 37 74l36 37c-22 -7 -46 -12 -72 -13v43c116 8 192 89 192 221v448z" />
    <glyph glyph-name="Uring" unicode="&#x16e;" horiz-adv-x="679" 
d="M359 744v27c24 9 42 32 42 60c0 27 -18 50 -42 59v27c39 -10 68 -45 68 -86c0 -43 -29 -78 -68 -87zM318 744c-39 10 -68 44 -68 87c0 41 29 76 68 85v-27c-24 -8 -41 -31 -41 -58c0 -28 17 -51 41 -59v-28zM319 -12c-143 8 -241 105 -241 264v448h48v-448
c0 -133 77 -213 193 -221v-43zM360 -12v43c116 8 192 89 192 221v448h48v-448c0 -158 -97 -256 -240 -264z" />
    <glyph glyph-name="Utilde" unicode="&#x168;" horiz-adv-x="679" 
d="M157 764c0 68 26 129 96 129c43 0 71 -25 96 -50c21 -21 40 -40 69 -40c50 0 68 45 68 94h34c0 -70 -29 -133 -102 -133c-44 0 -72 26 -97 49c-21 21 -40 40 -68 40c-47 0 -62 -42 -62 -89h-34zM319 -12c-143 8 -241 105 -241 264v448h48v-448c0 -133 77 -213 193 -221
v-43zM360 -12v43c116 8 192 89 192 221v448h48v-448c0 -158 -97 -256 -240 -264z" />
    <glyph glyph-name="V" unicode="V" horiz-adv-x="628" 
d="M312 -16l-299 716h51l272 -671l-19 -45h-5zM358 82l-22 50l229 568h50z" />
    <glyph glyph-name="W" unicode="W" horiz-adv-x="980" 
d="M271 -16l-258 716h51l211 -610l213 619h5l19 -55l-235 -670h-6zM704 -16l-193 552l22 57l172 -503l212 610h50l-258 -716h-5z" />
    <glyph glyph-name="Wacute" unicode="&#x1e82;" horiz-adv-x="980" 
d="M477 750l82 161h66l-123 -161h-25zM271 -16l-258 716h51l211 -610l213 619h5l19 -55l-235 -670h-6zM704 -16l-193 552l22 57l172 -503l212 610h50l-258 -716h-5z" />
    <glyph glyph-name="Wcircumflex" unicode="&#x174;" horiz-adv-x="980" 
d="M347 749l140 171h5l140 -171h-37l-105 117l-106 -117h-37zM271 -16l-258 716h51l211 -610l213 619h5l19 -55l-235 -670h-6zM704 -16l-193 552l22 57l172 -503l212 610h50l-258 -716h-5z" />
    <glyph glyph-name="Wdieresis" unicode="&#x1e84;" horiz-adv-x="980" 
d="M415 797c-18 0 -33 15 -33 33c0 19 15 33 33 33c19 0 33 -14 33 -33c0 -18 -14 -33 -33 -33zM564 797c-18 0 -33 15 -33 33c0 19 15 33 33 33c19 0 33 -14 33 -33c0 -18 -14 -33 -33 -33zM271 -16l-258 716h51l211 -610l213 619h5l19 -55l-235 -670h-6zM704 -16l-193 552
l22 57l172 -503l212 610h50l-258 -716h-5z" />
    <glyph glyph-name="Wgrave" unicode="&#x1e80;" horiz-adv-x="980" 
d="M477 750l-123 161h67l81 -161h-25zM271 -16l-258 716h51l211 -610l213 619h5l19 -55l-235 -670h-6zM704 -16l-193 552l22 57l172 -503l212 610h50l-258 -716h-5z" />
    <glyph glyph-name="X" unicode="X" horiz-adv-x="590" 
d="M23 0l247 355l-247 345h56l218 -307l213 307h56l-487 -700h-56zM512 0l-188 280l27 40l217 -320h-56z" />
    <glyph glyph-name="uni1E8A" unicode="&#x1e8a;" horiz-adv-x="590" 
d="M293 797c-18 0 -33 15 -33 33c0 19 15 33 33 33c19 0 33 -14 33 -33c0 -18 -14 -33 -33 -33zM23 0l247 355l-247 345h56l218 -307l213 307h56l-487 -700h-56zM512 0l-188 280l27 40l217 -320h-56z" />
    <glyph glyph-name="Y" unicode="Y" horiz-adv-x="588" 
d="M270 0v279l-257 421h53l252 -416v-284h-48zM343 321l-25 43l204 336h53z" />
    <glyph glyph-name="Yacute" unicode="&#xdd;" horiz-adv-x="588" 
d="M281 750l82 161h66l-123 -161h-25zM270 0v279l-257 421h53l252 -416v-284h-48zM343 321l-25 43l204 336h53z" />
    <glyph glyph-name="Ycircumflex" unicode="&#x176;" horiz-adv-x="588" 
d="M151 749l140 171h5l140 -171h-37l-105 117l-106 -117h-37zM270 0v279l-257 421h53l252 -416v-284h-48zM343 321l-25 43l204 336h53z" />
    <glyph glyph-name="Ydieresis" unicode="&#x178;" horiz-adv-x="588" 
d="M219 797c-18 0 -33 15 -33 33c0 19 15 33 33 33c19 0 33 -14 33 -33c0 -18 -14 -33 -33 -33zM368 797c-18 0 -33 15 -33 33c0 19 15 33 33 33c19 0 33 -14 33 -33c0 -18 -14 -33 -33 -33zM270 0v279l-257 421h53l252 -416v-284h-48zM343 321l-25 43l204 336h53z" />
    <glyph glyph-name="Ygrave" unicode="&#x1ef2;" horiz-adv-x="588" 
d="M281 750l-123 161h67l81 -161h-25zM270 0v279l-257 421h53l252 -416v-284h-48zM343 321l-25 43l204 336h53z" />
    <glyph glyph-name="Z" unicode="Z" horiz-adv-x="592" 
d="M54 0v5l432 695h53v-5l-409 -654h401v-41h-477zM100 659v41h338l-25 -41h-313z" />
    <glyph glyph-name="Zacute" unicode="&#x179;" horiz-adv-x="592" 
d="M300 750l82 161h66l-123 -161h-25zM54 0v5l432 695h53v-5l-409 -654h401v-41h-477zM100 659v41h338l-25 -41h-313z" />
    <glyph glyph-name="Zcaron" unicode="&#x17d;" horiz-adv-x="592" 
d="M310 741l-140 171h37l106 -117l105 117h37l-140 -171h-5zM54 0v5l432 695h53v-5l-409 -654h401v-41h-477zM100 659v41h338l-25 -41h-313z" />
    <glyph glyph-name="Zdotaccent" unicode="&#x17b;" horiz-adv-x="592" 
d="M312 797c-18 0 -33 15 -33 33c0 19 15 33 33 33c19 0 33 -14 33 -33c0 -18 -14 -33 -33 -33zM54 0v5l432 695h53v-5l-409 -654h401v-41h-477zM100 659v41h338l-25 -41h-313z" />
    <glyph glyph-name="a" unicode="a" horiz-adv-x="648" 
d="M13 0l309 716h5l201 -466h-47l-156 374l-261 -624h-51zM585 0l-71 169h-338l16 40h354l89 -209h-50z" />
    <glyph glyph-name="aacute" unicode="&#xe1;" horiz-adv-x="648" 
d="M311 749l82 161h66l-123 -161h-25zM13 0l309 716h5l201 -466h-47l-156 374l-261 -624h-51zM585 0l-71 169h-338l16 40h354l89 -209h-50z" />
    <glyph glyph-name="abreve" unicode="&#x103;" horiz-adv-x="648" 
d="M324 752c-89 0 -151 81 -151 154h38c0 -52 45 -114 113 -114s113 62 113 114h38c0 -73 -62 -154 -151 -154zM13 0l309 716h5l201 -466h-47l-156 374l-261 -624h-51zM585 0l-71 169h-338l16 40h354l89 -209h-50z" />
    <glyph glyph-name="acircumflex" unicode="&#xe2;" horiz-adv-x="648" 
d="M181 748l140 171h5l140 -171h-37l-105 117l-106 -117h-37zM13 0l309 716h5l201 -466h-47l-156 374l-261 -624h-51zM585 0l-71 169h-338l16 40h354l89 -209h-50z" />
    <glyph glyph-name="adieresis" unicode="&#xe4;" horiz-adv-x="648" 
d="M249 796c-18 0 -33 15 -33 33c0 19 15 33 33 33c19 0 33 -14 33 -33c0 -18 -14 -33 -33 -33zM398 796c-18 0 -33 15 -33 33c0 19 15 33 33 33c19 0 33 -14 33 -33c0 -18 -14 -33 -33 -33zM13 0l309 716h5l201 -466h-47l-156 374l-261 -624h-51zM585 0l-71 169h-338l16 40
h354l89 -209h-50z" />
    <glyph glyph-name="agrave" unicode="&#xe0;" horiz-adv-x="648" 
d="M311 749l-123 161h67l81 -161h-25zM13 0l309 716h5l201 -466h-47l-156 374l-261 -624h-51zM585 0l-71 169h-338l16 40h354l89 -209h-50z" />
    <glyph glyph-name="amacron" unicode="&#x101;" horiz-adv-x="648" 
d="M152 809v41h343v-41h-343zM13 0l309 716h5l201 -466h-47l-156 374l-261 -624h-51zM585 0l-71 169h-338l16 40h354l89 -209h-50z" />
    <glyph glyph-name="aogonek" unicode="&#x105;" horiz-adv-x="648" 
d="M481 250l-156 374l-261 -624h-51l309 716h5l201 -466h-47zM651 -179l1 -32c-13 -7 -33 -18 -59 -18c-52 0 -95 42 -95 88c0 29 18 55 37 74l66 67h-16l-71 169h-338l16 40h354l89 -209l-74 -92c-11 -13 -23 -29 -23 -48c0 -28 27 -53 62 -53c16 0 34 6 51 14z" />
    <glyph glyph-name="aring" unicode="&#xe5;" horiz-adv-x="648" 
d="M344 743v27c24 9 42 32 42 60c0 27 -18 50 -42 59v27c39 -10 68 -45 68 -86c0 -43 -29 -78 -68 -87zM303 743c-39 10 -68 44 -68 87c0 41 29 76 68 85v-27c-24 -8 -41 -31 -41 -58c0 -28 17 -51 41 -59v-28zM13 0l309 716h5l201 -466h-47l-156 374l-261 -624h-51zM585 0
l-71 169h-338l16 40h354l89 -209h-50z" />
    <glyph glyph-name="atilde" unicode="&#xe3;" horiz-adv-x="648" 
d="M142 763c0 68 26 129 96 129c43 0 71 -25 96 -50c21 -21 40 -40 69 -40c50 0 68 45 68 94h34c0 -70 -29 -133 -102 -133c-44 0 -72 26 -97 49c-21 21 -40 40 -68 40c-47 0 -62 -42 -62 -89h-34zM13 0l309 716h5l201 -466h-47l-156 374l-261 -624h-51zM585 0l-71 169h-338
l16 40h354l89 -209h-50z" />
    <glyph glyph-name="ae" unicode="&#xe6;" horiz-adv-x="957" 
d="M8 0l465 700h50v-342h337v-43h-337v-315h-48v169h-259l27 40h232v415l-412 -624h-55zM564 657v43h339v-43h-339zM564 0v43h349v-43h-349z" />
    <glyph glyph-name="b" unicode="b" horiz-adv-x="600" 
d="M167 0v41h142c122 0 195 58 195 156c0 96 -71 153 -195 153h-142v41h109c109 0 173 51 173 133s-65 135 -173 135h-198v41h198c141 0 221 -78 221 -175c0 -66 -38 -123 -113 -149c111 -21 168 -89 168 -180c0 -113 -88 -196 -243 -196h-142zM78 0v618h48v-618h-48z" />
    <glyph glyph-name="c" unicode="c" horiz-adv-x="688" 
d="M47 371c10 201 159 343 348 343c94 0 180 -35 245 -101l-24 -33c-60 58 -139 91 -222 91c-159 0 -289 -124 -298 -300h-49zM396 -12c-189 0 -339 142 -348 342h48c9 -176 138 -299 300 -299c99 0 179 48 233 106l24 -36c-64 -69 -151 -113 -257 -113z" />
    <glyph glyph-name="cacute" unicode="&#x107;" horiz-adv-x="688" 
d="M375 750l82 161h66l-123 -161h-25zM47 371c10 201 159 343 348 343c94 0 180 -35 245 -101l-24 -33c-60 58 -139 91 -222 91c-159 0 -289 -124 -298 -300h-49zM396 -12c-189 0 -339 142 -348 342h48c9 -176 138 -299 300 -299c99 0 179 48 233 106l24 -36
c-64 -69 -151 -113 -257 -113z" />
    <glyph glyph-name="ccaron" unicode="&#x10d;" horiz-adv-x="688" 
d="M385 741l-140 171h37l106 -117l105 117h37l-140 -171h-5zM47 371c10 201 159 343 348 343c94 0 180 -35 245 -101l-24 -33c-60 58 -139 91 -222 91c-159 0 -289 -124 -298 -300h-49zM396 -12c-189 0 -339 142 -348 342h48c9 -176 138 -299 300 -299c99 0 179 48 233 106
l24 -36c-64 -69 -151 -113 -257 -113z" />
    <glyph glyph-name="ccedilla" unicode="&#xe7;" horiz-adv-x="688" 
d="M47 371c10 201 159 343 348 343c94 0 180 -35 245 -101l-24 -33c-60 58 -139 91 -222 91c-159 0 -289 -124 -298 -300h-49zM396 -12c-189 0 -339 142 -348 342h48c9 -176 138 -299 300 -299c99 0 179 48 233 106l24 -36c-64 -69 -151 -113 -257 -113zM395 -233
c-31 0 -65 9 -82 14l1 33c16 -5 47 -13 75 -13c57 0 89 31 89 64c0 34 -35 58 -89 58c-10 0 -17 0 -27 -2l-1 30c15 3 25 3 38 3c64 0 119 -35 119 -90c0 -53 -52 -97 -123 -97z" />
    <glyph glyph-name="ccircumflex" unicode="&#x109;" horiz-adv-x="688" 
d="M245 749l140 171h5l140 -171h-37l-105 117l-106 -117h-37zM47 371c10 201 159 343 348 343c94 0 180 -35 245 -101l-24 -33c-60 58 -139 91 -222 91c-159 0 -289 -124 -298 -300h-49zM396 -12c-189 0 -339 142 -348 342h48c9 -176 138 -299 300 -299c99 0 179 48 233 106
l24 -36c-64 -69 -151 -113 -257 -113z" />
    <glyph glyph-name="cdotaccent" unicode="&#x10b;" horiz-adv-x="688" 
d="M387 797c-18 0 -33 15 -33 33c0 19 15 33 33 33c19 0 33 -14 33 -33c0 -18 -14 -33 -33 -33zM47 371c10 201 159 343 348 343c94 0 180 -35 245 -101l-24 -33c-60 58 -139 91 -222 91c-159 0 -289 -124 -298 -300h-49zM396 -12c-189 0 -339 142 -348 342h48
c9 -176 138 -299 300 -299c99 0 179 48 233 106l24 -36c-64 -69 -151 -113 -257 -113z" />
    <glyph glyph-name="d" unicode="d" horiz-adv-x="670" 
d="M167 0v43h72c234 0 336 136 336 307s-101 307 -336 307h-161v43h161c261 0 384 -156 384 -350s-123 -350 -384 -350h-72zM78 0v616h48v-616h-48z" />
    <glyph glyph-name="eth" unicode="&#xf0;" horiz-adv-x="670" 
d="M239 700c261 0 384 -156 384 -350s-123 -350 -384 -350h-72v43h72c234 0 336 136 336 307s-101 307 -336 307h-161v43h161zM284 330h-158v-330h-48v330h-79v41h79v245h48v-245h158v-41z" />
    <glyph glyph-name="dcaron" unicode="&#x10f;" horiz-adv-x="670" 
d="M332 741l-140 171h37l106 -117l105 117h37l-140 -171h-5zM167 0v43h72c234 0 336 136 336 307s-101 307 -336 307h-161v43h161c261 0 384 -156 384 -350s-123 -350 -384 -350h-72zM78 0v616h48v-616h-48z" />
    <glyph glyph-name="dcroat" unicode="&#x111;" horiz-adv-x="670" 
d="M239 700c261 0 384 -156 384 -350s-123 -350 -384 -350h-72v43h72c234 0 336 136 336 307s-101 307 -336 307h-161v43h161zM284 330h-158v-330h-48v330h-79v41h79v245h48v-245h158v-41z" />
    <glyph glyph-name="e" unicode="e" horiz-adv-x="560" 
d="M78 0v700h48v-342h338v-43h-338v-315h-48zM167 657v43h339v-43h-339zM167 0v43h349v-43h-349z" />
    <glyph glyph-name="eacute" unicode="&#xe9;" horiz-adv-x="560" 
d="M296 750l82 161h66l-123 -161h-25zM78 0v700h48v-342h338v-43h-338v-315h-48zM167 657v43h339v-43h-339zM167 0v43h349v-43h-349z" />
    <glyph glyph-name="ebreve" unicode="&#x115;" horiz-adv-x="560" 
d="M309 753c-89 0 -151 81 -151 154h38c0 -52 45 -114 113 -114s113 62 113 114h38c0 -73 -62 -154 -151 -154zM78 0v700h48v-342h338v-43h-338v-315h-48zM167 657v43h339v-43h-339zM167 0v43h349v-43h-349z" />
    <glyph glyph-name="ecaron" unicode="&#x11b;" horiz-adv-x="560" 
d="M306 741l-140 171h37l106 -117l105 117h37l-140 -171h-5zM78 0v700h48v-342h338v-43h-338v-315h-48zM167 657v43h339v-43h-339zM167 0v43h349v-43h-349z" />
    <glyph glyph-name="ecircumflex" unicode="&#xea;" horiz-adv-x="560" 
d="M166 749l140 171h5l140 -171h-37l-105 117l-106 -117h-37zM78 0v700h48v-342h338v-43h-338v-315h-48zM167 657v43h339v-43h-339zM167 0v43h349v-43h-349z" />
    <glyph glyph-name="edieresis" unicode="&#xeb;" horiz-adv-x="560" 
d="M234 797c-18 0 -33 15 -33 33c0 19 15 33 33 33c19 0 33 -14 33 -33c0 -18 -14 -33 -33 -33zM383 797c-18 0 -33 15 -33 33c0 19 15 33 33 33c19 0 33 -14 33 -33c0 -18 -14 -33 -33 -33zM78 0v700h48v-342h338v-43h-338v-315h-48zM167 657v43h339v-43h-339zM167 0v43
h349v-43h-349z" />
    <glyph glyph-name="edotaccent" unicode="&#x117;" horiz-adv-x="560" 
d="M308 797c-18 0 -33 15 -33 33c0 19 15 33 33 33c19 0 33 -14 33 -33c0 -18 -14 -33 -33 -33zM78 0v700h48v-342h338v-43h-338v-315h-48zM167 657v43h339v-43h-339zM167 0v43h349v-43h-349z" />
    <glyph glyph-name="egrave" unicode="&#xe8;" horiz-adv-x="560" 
d="M296 750l-123 161h67l81 -161h-25zM78 0v700h48v-342h338v-43h-338v-315h-48zM167 657v43h339v-43h-339zM167 0v43h349v-43h-349z" />
    <glyph glyph-name="emacron" unicode="&#x113;" horiz-adv-x="560" 
d="M137 810v41h343v-41h-343zM78 0v700h48v-342h338v-43h-338v-315h-48zM167 657v43h339v-43h-339zM167 0v43h349v-43h-349z" />
    <glyph glyph-name="eogonek" unicode="&#x119;" horiz-adv-x="560" 
d="M464 358v-43h-338v-315h-48v700h48v-342h338zM506 700v-43h-339v43h339zM533 -179l1 -32c-13 -7 -33 -18 -59 -18c-52 0 -95 42 -95 88c0 29 18 55 37 74l66 67h-316v43h349v-43h1l-74 -92c-11 -13 -23 -29 -23 -48c0 -28 27 -53 62 -53c16 0 34 6 51 14z" />
    <glyph glyph-name="f" unicode="f" horiz-adv-x="555" 
d="M78 0v700h48v-342h326v-43h-326v-315h-48zM167 657v43h339v-43h-339z" />
    <glyph glyph-name="g" unicode="g" horiz-adv-x="742" 
d="M394 -12c-192 0 -347 152 -347 363s153 363 348 363c94 0 180 -35 245 -101l-24 -33c-60 58 -139 91 -222 91c-165 0 -299 -133 -299 -320s134 -320 299 -320c71 0 132 24 187 68v-55c-54 -38 -119 -56 -187 -56zM622 75v240h-248v43h296v-231c-14 -18 -29 -35 -48 -52z
" />
    <glyph glyph-name="gbreve" unicode="&#x11f;" horiz-adv-x="742" 
d="M386 753c-89 0 -151 81 -151 154h38c0 -52 45 -114 113 -114s113 62 113 114h38c0 -73 -62 -154 -151 -154zM394 -12c-192 0 -347 152 -347 363s153 363 348 363c94 0 180 -35 245 -101l-24 -33c-60 58 -139 91 -222 91c-165 0 -299 -133 -299 -320s134 -320 299 -320
c71 0 132 24 187 68v-55c-54 -38 -119 -56 -187 -56zM622 75v240h-248v43h296v-231c-14 -18 -29 -35 -48 -52z" />
    <glyph glyph-name="gcircumflex" unicode="&#x11d;" horiz-adv-x="742" 
d="M243 749l140 171h5l140 -171h-37l-105 117l-106 -117h-37zM394 -12c-192 0 -347 152 -347 363s153 363 348 363c94 0 180 -35 245 -101l-24 -33c-60 58 -139 91 -222 91c-165 0 -299 -133 -299 -320s134 -320 299 -320c71 0 132 24 187 68v-55c-54 -38 -119 -56 -187 -56
zM622 75v240h-248v43h296v-231c-14 -18 -29 -35 -48 -52z" />
    <glyph glyph-name="gcommaaccent" unicode="&#x123;" horiz-adv-x="742" 
d="M394 -12c-192 0 -347 152 -347 363s153 363 348 363c94 0 180 -35 245 -101l-24 -33c-60 58 -139 91 -222 91c-165 0 -299 -133 -299 -320s134 -320 299 -320c71 0 132 24 187 68v-55c-54 -38 -119 -56 -187 -56zM622 75v240h-248v43h296v-231c-14 -18 -29 -35 -48 -52z
M350 -185l27 80c-13 5 -23 15 -23 30c0 18 17 31 36 31c20 0 37 -14 37 -30c0 -10 -5 -21 -15 -40l-34 -71h-28z" />
    <glyph glyph-name="gdotaccent" unicode="&#x121;" horiz-adv-x="742" 
d="M385 797c-18 0 -33 15 -33 33c0 19 15 33 33 33c19 0 33 -14 33 -33c0 -18 -14 -33 -33 -33zM394 -12c-192 0 -347 152 -347 363s153 363 348 363c94 0 180 -35 245 -101l-24 -33c-60 58 -139 91 -222 91c-165 0 -299 -133 -299 -320s134 -320 299 -320
c71 0 132 24 187 68v-55c-54 -38 -119 -56 -187 -56zM622 75v240h-248v43h296v-231c-14 -18 -29 -35 -48 -52z" />
    <glyph glyph-name="h" unicode="h" horiz-adv-x="660" 
d="M78 0v358h456v342h48v-385h-456v-315h-48zM78 399v301h48v-301h-48zM534 0v274h48v-274h-48z" />
    <glyph glyph-name="hbar" unicode="&#x127;" horiz-adv-x="676" 
d="M675 593v-36h-93v-242h-456v-315h-48v358h456v199h-408v-158h-48v158h-76v36h76v107h48v-107h408v107h48v-107h93zM534 0v274h48v-274h-48z" />
    <glyph glyph-name="hcircumflex" unicode="&#x125;" horiz-adv-x="660" 
d="M187 749l140 171h5l140 -171h-37l-105 117l-106 -117h-37zM78 0v358h456v342h48v-385h-456v-315h-48zM78 399v301h48v-301h-48zM534 0v274h48v-274h-48z" />
    <glyph glyph-name="i" unicode="i" horiz-adv-x="234" 
d="M93 0v700h48v-700h-48z" />
    <glyph glyph-name="iacute" unicode="&#xed;" horiz-adv-x="234" 
d="M104 750l82 161h66l-123 -161h-25zM93 0v700h48v-700h-48z" />
    <glyph glyph-name="ibreve" unicode="&#x12d;" horiz-adv-x="234" 
d="M117 753c-89 0 -151 81 -151 154h38c0 -52 45 -114 113 -114s113 62 113 114h38c0 -73 -62 -154 -151 -154zM93 0v700h48v-700h-48z" />
    <glyph glyph-name="icircumflex" unicode="&#xee;" horiz-adv-x="234" 
d="M-26 749l140 171h5l140 -171h-37l-105 117l-106 -117h-37zM93 0v700h48v-700h-48z" />
    <glyph glyph-name="idieresis" unicode="&#xef;" horiz-adv-x="234" 
d="M42 797c-18 0 -33 15 -33 33c0 19 15 33 33 33c19 0 33 -14 33 -33c0 -18 -14 -33 -33 -33zM191 797c-18 0 -33 15 -33 33c0 19 15 33 33 33c19 0 33 -14 33 -33c0 -18 -14 -33 -33 -33zM93 0v700h48v-700h-48z" />
    <glyph glyph-name="i.loclTRK" horiz-adv-x="234" 
d="M116 797c-18 0 -33 15 -33 33c0 19 15 33 33 33c19 0 33 -14 33 -33c0 -18 -14 -33 -33 -33zM93 0v700h48v-700h-48z" />
    <glyph glyph-name="igrave" unicode="&#xec;" horiz-adv-x="234" 
d="M104 750l-123 161h67l81 -161h-25zM93 0v700h48v-700h-48z" />
    <glyph glyph-name="imacron" unicode="&#x12b;" horiz-adv-x="234" 
d="M-55 810v41h343v-41h-343zM93 0v700h48v-700h-48z" />
    <glyph glyph-name="iogonek" unicode="&#x12f;" horiz-adv-x="234" 
d="M157 -179l1 -32c-13 -7 -33 -18 -59 -18c-52 0 -95 42 -95 88c0 29 18 55 37 74l66 67h-14v700h48v-700l-74 -92c-11 -13 -23 -29 -23 -48c0 -28 27 -53 62 -53c16 0 34 6 51 14z" />
    <glyph glyph-name="itilde" unicode="&#x129;" horiz-adv-x="234" 
d="M-65 764c0 68 26 129 96 129c43 0 71 -25 96 -50c21 -21 40 -40 69 -40c50 0 68 45 68 94h34c0 -70 -29 -133 -102 -133c-44 0 -72 26 -97 49c-21 21 -40 40 -68 40c-47 0 -62 -42 -62 -89h-34zM93 0v700h48v-700h-48z" />
    <glyph glyph-name="j" unicode="j" horiz-adv-x="473" 
d="M347 251v449h48v-449h-48zM177 -12c-54 0 -101 18 -139 47l22 35c31 -23 72 -39 117 -39c93 0 170 70 170 179h48c0 -131 -97 -222 -218 -222z" />
    <glyph glyph-name="jcircumflex" unicode="&#x135;" horiz-adv-x="473" 
d="M228 749l140 171h5l140 -171h-37l-105 117l-106 -117h-37zM347 251v449h48v-449h-48zM177 -12c-54 0 -101 18 -139 47l22 35c31 -23 72 -39 117 -39c93 0 170 70 170 179h48c0 -131 -97 -222 -218 -222z" />
    <glyph glyph-name="k" unicode="k" horiz-adv-x="606" 
d="M78 0v700h48v-700h-48zM518 0l-353 361l342 339h65l-344 -339l358 -361h-68z" />
    <glyph glyph-name="kcommaaccent" unicode="&#x137;" horiz-adv-x="606" 
d="M78 0v700h48v-700h-48zM518 0l-353 361l342 339h65l-344 -339l358 -361h-68zM281 -185l27 80c-13 5 -23 15 -23 30c0 18 17 31 36 31c20 0 37 -14 37 -30c0 -10 -5 -21 -15 -40l-34 -71h-28z" />
    <glyph glyph-name="l" unicode="l" horiz-adv-x="530" 
d="M78 0v700h48v-700h-48zM167 0v43h349v-43h-349z" />
    <glyph glyph-name="lacute" unicode="&#x13a;" horiz-adv-x="530" 
d="M89 750l82 161h66l-123 -161h-25zM78 0v700h48v-700h-48zM167 0v43h349v-43h-349z" />
    <glyph glyph-name="lcaron" unicode="&#x13e;" horiz-adv-x="530" 
d="M78 0v700h48v-700h-48zM191 537v163h56l-31 -163h-25zM167 0v43h349v-43h-349z" />
    <glyph glyph-name="lcommaaccent" unicode="&#x13c;" horiz-adv-x="530" 
d="M78 0v700h48v-700h-48zM167 0v43h349v-43h-349zM257 -185l27 80c-13 5 -23 15 -23 30c0 18 17 31 36 31c20 0 37 -14 37 -30c0 -10 -5 -21 -15 -40l-34 -71h-28z" />
    <glyph glyph-name="ldot" unicode="&#x140;" horiz-adv-x="530" 
d="M78 0v700h48v-700h-48zM296 300c-19 0 -36 16 -36 36c0 19 17 35 36 35c20 0 37 -16 37 -35c0 -20 -17 -36 -37 -36zM167 0v43h349v-43h-349z" />
    <glyph glyph-name="lslash" unicode="&#x142;" horiz-adv-x="530" 
d="M291 457l-165 -89v-368h-48v342l-97 -52v43l97 52v315h48v-289l165 89v-43zM167 43h349v-43h-349v43z" />
    <glyph glyph-name="m" unicode="m" horiz-adv-x="755" 
d="M78 0v713h6l321 -429l-25 -33h-5l-249 330v-581h-48zM629 0v581l-197 -261l-29 36l268 357h6v-713h-48z" />
    <glyph glyph-name="n" unicode="n" horiz-adv-x="686" 
d="M602 -16l-524 664v68h5l476 -603v587h48v-716h-5zM78 0v581l48 -59v-522h-48z" />
    <glyph glyph-name="nacute" unicode="&#x144;" horiz-adv-x="686" 
d="M330 750l82 161h66l-123 -161h-25zM602 -16l-524 664v68h5l476 -603v587h48v-716h-5zM78 0v581l48 -59v-522h-48z" />
    <glyph glyph-name="ncaron" unicode="&#x148;" horiz-adv-x="686" 
d="M340 741l-140 171h37l106 -117l105 117h37l-140 -171h-5zM602 -16l-524 664v68h5l476 -603v587h48v-716h-5zM78 0v581l48 -59v-522h-48z" />
    <glyph glyph-name="ncommaaccent" unicode="&#x146;" horiz-adv-x="686" 
d="M602 -16l-524 664v68h5l476 -603v587h48v-716h-5zM78 0v581l48 -59v-522h-48zM303 -185l27 80c-13 5 -23 15 -23 30c0 18 17 31 36 31c20 0 37 -14 37 -30c0 -10 -5 -21 -15 -40l-34 -71h-28z" />
    <glyph glyph-name="eng" unicode="&#x14b;" horiz-adv-x="686" 
d="M608 700v-732c0 -73 -50 -134 -120 -134c-31 0 -61 10 -83 28l21 35c16 -13 39 -21 60 -21c48 0 75 39 75 92v68l-483 612v68h5l476 -603v587h49zM78 0v581l48 -59v-522h-48z" />
    <glyph glyph-name="ntilde" unicode="&#xf1;" horiz-adv-x="686" 
d="M161 764c0 68 26 129 96 129c43 0 71 -25 96 -50c21 -21 40 -40 69 -40c50 0 68 45 68 94h34c0 -70 -29 -133 -102 -133c-44 0 -72 26 -97 49c-21 21 -40 40 -68 40c-47 0 -62 -42 -62 -89h-34zM602 -16l-524 664v68h5l476 -603v587h48v-716h-5zM78 0v581l48 -59v-522
h-48z" />
    <glyph glyph-name="o" unicode="o" 
d="M662 113l-33 33c41 54 66 125 66 205c0 187 -134 320 -300 320c-79 0 -152 -31 -206 -84l-32 32c62 60 146 95 238 95c193 0 348 -152 348 -363c0 -94 -30 -175 -81 -238zM395 -12c-192 0 -348 152 -348 363c0 93 31 175 81 238l33 -33c-41 -55 -66 -125 -66 -205
c0 -187 136 -320 300 -320c80 0 153 31 207 84l32 -32c-62 -60 -146 -95 -239 -95z" />
    <glyph glyph-name="oacute" unicode="&#xf3;" 
d="M382 750l82 161h66l-123 -161h-25zM662 113l-33 33c41 54 66 125 66 205c0 187 -134 320 -300 320c-79 0 -152 -31 -206 -84l-32 32c62 60 146 95 238 95c193 0 348 -152 348 -363c0 -94 -30 -175 -81 -238zM395 -12c-192 0 -348 152 -348 363c0 93 31 175 81 238l33 -33
c-41 -55 -66 -125 -66 -205c0 -187 136 -320 300 -320c80 0 153 31 207 84l32 -32c-62 -60 -146 -95 -239 -95z" />
    <glyph glyph-name="obreve" unicode="&#x14f;" 
d="M395 753c-89 0 -151 81 -151 154h38c0 -52 45 -114 113 -114s113 62 113 114h38c0 -73 -62 -154 -151 -154zM662 113l-33 33c41 54 66 125 66 205c0 187 -134 320 -300 320c-79 0 -152 -31 -206 -84l-32 32c62 60 146 95 238 95c193 0 348 -152 348 -363
c0 -94 -30 -175 -81 -238zM395 -12c-192 0 -348 152 -348 363c0 93 31 175 81 238l33 -33c-41 -55 -66 -125 -66 -205c0 -187 136 -320 300 -320c80 0 153 31 207 84l32 -32c-62 -60 -146 -95 -239 -95z" />
    <glyph glyph-name="ocircumflex" unicode="&#xf4;" 
d="M252 749l140 171h5l140 -171h-37l-105 117l-106 -117h-37zM662 113l-33 33c41 54 66 125 66 205c0 187 -134 320 -300 320c-79 0 -152 -31 -206 -84l-32 32c62 60 146 95 238 95c193 0 348 -152 348 -363c0 -94 -30 -175 -81 -238zM395 -12c-192 0 -348 152 -348 363
c0 93 31 175 81 238l33 -33c-41 -55 -66 -125 -66 -205c0 -187 136 -320 300 -320c80 0 153 31 207 84l32 -32c-62 -60 -146 -95 -239 -95z" />
    <glyph glyph-name="odieresis" unicode="&#xf6;" 
d="M320 797c-18 0 -33 15 -33 33c0 19 15 33 33 33c19 0 33 -14 33 -33c0 -18 -14 -33 -33 -33zM469 797c-18 0 -33 15 -33 33c0 19 15 33 33 33c19 0 33 -14 33 -33c0 -18 -14 -33 -33 -33zM662 113l-33 33c41 54 66 125 66 205c0 187 -134 320 -300 320
c-79 0 -152 -31 -206 -84l-32 32c62 60 146 95 238 95c193 0 348 -152 348 -363c0 -94 -30 -175 -81 -238zM395 -12c-192 0 -348 152 -348 363c0 93 31 175 81 238l33 -33c-41 -55 -66 -125 -66 -205c0 -187 136 -320 300 -320c80 0 153 31 207 84l32 -32
c-62 -60 -146 -95 -239 -95z" />
    <glyph glyph-name="ograve" unicode="&#xf2;" 
d="M382 750l-123 161h67l81 -161h-25zM662 113l-33 33c41 54 66 125 66 205c0 187 -134 320 -300 320c-79 0 -152 -31 -206 -84l-32 32c62 60 146 95 238 95c193 0 348 -152 348 -363c0 -94 -30 -175 -81 -238zM395 -12c-192 0 -348 152 -348 363c0 93 31 175 81 238l33 -33
c-41 -55 -66 -125 -66 -205c0 -187 136 -320 300 -320c80 0 153 31 207 84l32 -32c-62 -60 -146 -95 -239 -95z" />
    <glyph glyph-name="ohungarumlaut" unicode="&#x151;" 
d="M305 750l83 161h67l-125 -161h-25zM459 750l83 161h67l-125 -161h-25zM662 113l-33 33c41 54 66 125 66 205c0 187 -134 320 -300 320c-79 0 -152 -31 -206 -84l-32 32c62 60 146 95 238 95c193 0 348 -152 348 -363c0 -94 -30 -175 -81 -238zM395 -12
c-192 0 -348 152 -348 363c0 93 31 175 81 238l33 -33c-41 -55 -66 -125 -66 -205c0 -187 136 -320 300 -320c80 0 153 31 207 84l32 -32c-62 -60 -146 -95 -239 -95z" />
    <glyph glyph-name="omacron" unicode="&#x14d;" 
d="M223 810v41h343v-41h-343zM662 113l-33 33c41 54 66 125 66 205c0 187 -134 320 -300 320c-79 0 -152 -31 -206 -84l-32 32c62 60 146 95 238 95c193 0 348 -152 348 -363c0 -94 -30 -175 -81 -238zM395 -12c-192 0 -348 152 -348 363c0 93 31 175 81 238l33 -33
c-41 -55 -66 -125 -66 -205c0 -187 136 -320 300 -320c80 0 153 31 207 84l32 -32c-62 -60 -146 -95 -239 -95z" />
    <glyph glyph-name="oslash" unicode="&#xf8;" 
d="M662 113l-33 33c41 54 66 125 66 205c0 124 -59 224 -146 277l-267 -574c35 -15 73 -23 113 -23c80 0 153 31 207 84l32 -32c-62 -60 -146 -95 -239 -95c-47 0 -91 9 -132 26l-36 -78h-47l45 96c-106 60 -178 176 -178 319c0 93 31 175 81 238l33 -33
c-41 -55 -66 -125 -66 -205c0 -124 60 -225 149 -278l267 575c-36 15 -75 23 -116 23c-79 0 -152 -31 -206 -84l-32 32c62 60 146 95 238 95c48 0 93 -9 134 -26l36 76h47l-44 -95c105 -60 175 -176 175 -318c0 -94 -30 -175 -81 -238z" />
    <glyph glyph-name="otilde" unicode="&#xf5;" 
d="M213 764c0 68 26 129 96 129c43 0 71 -25 96 -50c21 -21 40 -40 69 -40c50 0 68 45 68 94h34c0 -70 -29 -133 -102 -133c-44 0 -72 26 -97 49c-21 21 -40 40 -68 40c-47 0 -62 -42 -62 -89h-34zM662 113l-33 33c41 54 66 125 66 205c0 187 -134 320 -300 320
c-79 0 -152 -31 -206 -84l-32 32c62 60 146 95 238 95c193 0 348 -152 348 -363c0 -94 -30 -175 -81 -238zM395 -12c-192 0 -348 152 -348 363c0 93 31 175 81 238l33 -33c-41 -55 -66 -125 -66 -205c0 -187 136 -320 300 -320c80 0 153 31 207 84l32 -32
c-62 -60 -146 -95 -239 -95z" />
    <glyph glyph-name="oe" unicode="&#x153;" horiz-adv-x="1012" 
d="M411 0c-241 0 -364 156 -364 350s123 350 364 350h77v-43h-77c-214 0 -316 -136 -316 -307s102 -307 316 -307h83v-43h-83zM529 0v700h48v-342h338v-43h-338v-315h-48zM619 657v43h339v-43h-339zM619 0v43h349v-43h-349z" />
    <glyph glyph-name="p" unicode="p" horiz-adv-x="553" 
d="M167 272v41h95c126 0 203 66 203 173c0 106 -78 173 -203 173h-184v41h184c164 0 251 -96 251 -214s-87 -214 -251 -214h-95zM78 0v618h48v-618h-48z" />
    <glyph glyph-name="thorn" unicode="&#xfe;" horiz-adv-x="557" 
d="M78 0v700h48v-700h-48zM167 146v41h95c126 0 203 66 203 173c0 106 -78 173 -203 173h-95v41h95c164 0 251 -96 251 -214s-87 -214 -251 -214h-95z" />
    <glyph glyph-name="q" unicode="q" 
d="M662 113l-33 33c41 54 66 125 66 205c0 187 -134 320 -300 320c-79 0 -152 -31 -206 -84l-32 32c62 60 146 95 238 95c193 0 348 -152 348 -363c0 -94 -30 -175 -81 -238zM710 -60l-113 112c-57 -41 -126 -64 -202 -64c-192 0 -348 152 -348 363c0 93 31 175 81 238
l33 -33c-41 -55 -66 -125 -66 -205c0 -187 136 -320 300 -320c80 0 153 31 207 84l142 -142z" />
    <glyph glyph-name="r" unicode="r" horiz-adv-x="583" 
d="M490 0l-193 274c-11 -1 -23 -2 -35 -2h-95v41h95c126 0 203 66 203 173c0 106 -78 173 -203 173h-184v41h184c164 0 251 -96 251 -214c0 -96 -57 -177 -167 -204l199 -282h-55zM78 0v618h48v-618h-48z" />
    <glyph glyph-name="racute" unicode="&#x155;" horiz-adv-x="583" 
d="M248 750l82 161h66l-123 -161h-25zM490 0l-193 274c-11 -1 -23 -2 -35 -2h-95v41h95c126 0 203 66 203 173c0 106 -78 173 -203 173h-184v41h184c164 0 251 -96 251 -214c0 -96 -57 -177 -167 -204l199 -282h-55zM78 0v618h48v-618h-48z" />
    <glyph glyph-name="rcaron" unicode="&#x159;" horiz-adv-x="583" 
d="M258 741l-140 171h37l106 -117l105 117h37l-140 -171h-5zM490 0l-193 274c-11 -1 -23 -2 -35 -2h-95v41h95c126 0 203 66 203 173c0 106 -78 173 -203 173h-184v41h184c164 0 251 -96 251 -214c0 -96 -57 -177 -167 -204l199 -282h-55zM78 0v618h48v-618h-48z" />
    <glyph glyph-name="rcommaaccent" unicode="&#x157;" horiz-adv-x="583" 
d="M490 0l-193 274c-11 -1 -23 -2 -35 -2h-95v41h95c126 0 203 66 203 173c0 106 -78 173 -203 173h-184v41h184c164 0 251 -96 251 -214c0 -96 -57 -177 -167 -204l199 -282h-55zM78 0v618h48v-618h-48zM254 -185l27 80c-13 5 -23 15 -23 30c0 18 17 31 36 31
c20 0 37 -14 37 -30c0 -10 -5 -21 -15 -40l-34 -71h-28z" />
    <glyph glyph-name="s" unicode="s" horiz-adv-x="569" 
d="M314 -10v41c91 6 169 53 169 140c0 95 -92 135 -186 176c-99 43 -202 87 -202 199c0 85 59 159 178 166v-41c-93 -7 -130 -63 -130 -119c0 -85 84 -122 176 -162c103 -44 212 -91 212 -214c0 -118 -101 -179 -217 -186zM462 589c-36 57 -92 78 -148 82v41
c71 -4 142 -31 183 -99zM273 -11c-101 6 -191 51 -237 140l35 26c40 -80 117 -120 202 -124v-42z" />
    <glyph glyph-name="sacute" unicode="&#x15b;" horiz-adv-x="569" 
d="M287 750l82 161h66l-123 -161h-25zM314 -10v41c91 6 169 53 169 140c0 95 -92 135 -186 176c-99 43 -202 87 -202 199c0 85 59 159 178 166v-41c-93 -7 -130 -63 -130 -119c0 -85 84 -122 176 -162c103 -44 212 -91 212 -214c0 -118 -101 -179 -217 -186zM462 589
c-36 57 -92 78 -148 82v41c71 -4 142 -31 183 -99zM273 -11c-101 6 -191 51 -237 140l35 26c40 -80 117 -120 202 -124v-42z" />
    <glyph glyph-name="scaron" unicode="&#x161;" horiz-adv-x="569" 
d="M297 741l-140 171h37l106 -117l105 117h37l-140 -171h-5zM314 -10v41c91 6 169 53 169 140c0 95 -92 135 -186 176c-99 43 -202 87 -202 199c0 85 59 159 178 166v-41c-93 -7 -130 -63 -130 -119c0 -85 84 -122 176 -162c103 -44 212 -91 212 -214
c0 -118 -101 -179 -217 -186zM462 589c-36 57 -92 78 -148 82v41c71 -4 142 -31 183 -99zM273 -11c-101 6 -191 51 -237 140l35 26c40 -80 117 -120 202 -124v-42z" />
    <glyph glyph-name="scedilla" unicode="&#x15f;" horiz-adv-x="569" 
d="M314 -10v41c91 6 169 53 169 140c0 95 -92 135 -186 176c-99 43 -202 87 -202 199c0 85 59 159 178 166v-41c-93 -7 -130 -63 -130 -119c0 -85 84 -122 176 -162c103 -44 212 -91 212 -214c0 -118 -101 -179 -217 -186zM462 589c-36 57 -92 78 -148 82v41
c71 -4 142 -31 183 -99zM273 -11c-101 6 -191 51 -237 140l35 26c40 -80 117 -120 202 -124v-42zM297 -233c-31 0 -65 9 -82 14l1 33c16 -5 47 -13 75 -13c57 0 89 31 89 64c0 34 -35 58 -89 58c-10 0 -17 0 -27 -2l-1 30c15 3 25 3 38 3c64 0 119 -35 119 -90
c0 -53 -52 -97 -123 -97z" />
    <glyph glyph-name="scircumflex" unicode="&#x15d;" horiz-adv-x="569" 
d="M157 749l140 171h5l140 -171h-37l-105 117l-106 -117h-37zM314 -10v41c91 6 169 53 169 140c0 95 -92 135 -186 176c-99 43 -202 87 -202 199c0 85 59 159 178 166v-41c-93 -7 -130 -63 -130 -119c0 -85 84 -122 176 -162c103 -44 212 -91 212 -214
c0 -118 -101 -179 -217 -186zM462 589c-36 57 -92 78 -148 82v41c71 -4 142 -31 183 -99zM273 -11c-101 6 -191 51 -237 140l35 26c40 -80 117 -120 202 -124v-42z" />
    <glyph glyph-name="scommaaccent" unicode="&#x219;" horiz-adv-x="569" 
d="M314 -10v41c91 6 169 53 169 140c0 95 -92 135 -186 176c-99 43 -202 87 -202 199c0 85 59 159 178 166v-41c-93 -7 -130 -63 -130 -119c0 -85 84 -122 176 -162c103 -44 212 -91 212 -214c0 -118 -101 -179 -217 -186zM462 589c-36 57 -92 78 -148 82v41
c71 -4 142 -31 183 -99zM273 -11c-101 6 -191 51 -237 140l35 26c40 -80 117 -120 202 -124v-42zM254 -185l27 80c-13 5 -23 15 -23 30c0 18 17 31 36 31c20 0 37 -14 37 -30c0 -10 -5 -21 -15 -40l-34 -71h-28z" />
    <glyph glyph-name="t" unicode="t" horiz-adv-x="578" 
d="M27 657v43h197v-43h-197zM265 0v700h285v-43h-237v-657h-48z" />
    <glyph glyph-name="tbar" unicode="&#x167;" horiz-adv-x="578" 
d="M224 700v-43h-197v43h197zM265 700h285v-43h-237v-657h-48v385h-221v36h221v279zM354 385v36h180v-36h-180z" />
    <glyph glyph-name="tcaron" unicode="&#x165;" horiz-adv-x="578" 
d="M286 741l-140 171h37l106 -117l105 117h37l-140 -171h-5zM27 657v43h197v-43h-197zM265 0v700h285v-43h-237v-657h-48z" />
    <glyph glyph-name="uni0163" unicode="&#x163;" horiz-adv-x="578" 
d="M27 657v43h197v-43h-197zM265 0v700h285v-43h-237v-657h-48zM292 -233c-31 0 -65 9 -82 14l1 33c16 -5 47 -13 75 -13c57 0 89 31 89 64c0 34 -35 58 -89 58c-10 0 -17 0 -27 -2l-1 30c15 3 25 3 38 3c64 0 119 -35 119 -90c0 -53 -52 -97 -123 -97z" />
    <glyph glyph-name="uni021B" unicode="&#x21b;" horiz-adv-x="578" 
d="M27 657v43h197v-43h-197zM265 0v700h285v-43h-237v-657h-48zM249 -185l27 80c-13 5 -23 15 -23 30c0 18 17 31 36 31c20 0 37 -14 37 -30c0 -10 -5 -21 -15 -40l-34 -71h-28z" />
    <glyph glyph-name="u" unicode="u" horiz-adv-x="679" 
d="M319 -12c-143 8 -241 105 -241 264v448h48v-448c0 -133 77 -213 193 -221v-43zM360 -12v43c116 8 192 89 192 221v448h48v-448c0 -158 -97 -256 -240 -264z" />
    <glyph glyph-name="uacute" unicode="&#xfa;" horiz-adv-x="679" 
d="M326 750l82 161h66l-123 -161h-25zM319 -12c-143 8 -241 105 -241 264v448h48v-448c0 -133 77 -213 193 -221v-43zM360 -12v43c116 8 192 89 192 221v448h48v-448c0 -158 -97 -256 -240 -264z" />
    <glyph glyph-name="ubreve" unicode="&#x16d;" horiz-adv-x="679" 
d="M339 753c-89 0 -151 81 -151 154h38c0 -52 45 -114 113 -114s113 62 113 114h38c0 -73 -62 -154 -151 -154zM319 -12c-143 8 -241 105 -241 264v448h48v-448c0 -133 77 -213 193 -221v-43zM360 -12v43c116 8 192 89 192 221v448h48v-448c0 -158 -97 -256 -240 -264z" />
    <glyph glyph-name="ucircumflex" unicode="&#xfb;" horiz-adv-x="679" 
d="M196 749l140 171h5l140 -171h-37l-105 117l-106 -117h-37zM319 -12c-143 8 -241 105 -241 264v448h48v-448c0 -133 77 -213 193 -221v-43zM360 -12v43c116 8 192 89 192 221v448h48v-448c0 -158 -97 -256 -240 -264z" />
    <glyph glyph-name="udieresis" unicode="&#xfc;" horiz-adv-x="679" 
d="M264 797c-18 0 -33 15 -33 33c0 19 15 33 33 33c19 0 33 -14 33 -33c0 -18 -14 -33 -33 -33zM413 797c-18 0 -33 15 -33 33c0 19 15 33 33 33c19 0 33 -14 33 -33c0 -18 -14 -33 -33 -33zM319 -12c-143 8 -241 105 -241 264v448h48v-448c0 -133 77 -213 193 -221v-43z
M360 -12v43c116 8 192 89 192 221v448h48v-448c0 -158 -97 -256 -240 -264z" />
    <glyph glyph-name="ugrave" unicode="&#xf9;" horiz-adv-x="679" 
d="M326 750l-123 161h67l81 -161h-25zM319 -12c-143 8 -241 105 -241 264v448h48v-448c0 -133 77 -213 193 -221v-43zM360 -12v43c116 8 192 89 192 221v448h48v-448c0 -158 -97 -256 -240 -264z" />
    <glyph glyph-name="uhungarumlaut" unicode="&#x171;" horiz-adv-x="679" 
d="M249 750l83 161h67l-125 -161h-25zM403 750l83 161h67l-125 -161h-25zM319 -12c-143 8 -241 105 -241 264v448h48v-448c0 -133 77 -213 193 -221v-43zM360 -12v43c116 8 192 89 192 221v448h48v-448c0 -158 -97 -256 -240 -264z" />
    <glyph glyph-name="umacron" unicode="&#x16b;" horiz-adv-x="679" 
d="M167 810v41h343v-41h-343zM319 -12c-143 8 -241 105 -241 264v448h48v-448c0 -133 77 -213 193 -221v-43zM360 -12v43c116 8 192 89 192 221v448h48v-448c0 -158 -97 -256 -240 -264z" />
    <glyph glyph-name="uogonek" unicode="&#x173;" horiz-adv-x="679" 
d="M126 252c0 -133 77 -213 193 -221v-43c-143 8 -241 105 -241 264v448h48v-448zM552 700h48v-448c0 -101 -39 -177 -105 -221h1l-74 -92c-11 -13 -23 -29 -23 -48c0 -28 27 -53 62 -53c16 0 34 6 51 14l1 -32c-13 -7 -33 -18 -59 -18c-52 0 -95 42 -95 88
c0 29 18 55 37 74l36 37c-22 -7 -46 -12 -72 -13v43c116 8 192 89 192 221v448z" />
    <glyph glyph-name="uring" unicode="&#x16f;" horiz-adv-x="679" 
d="M359 744v27c24 9 42 32 42 60c0 27 -18 50 -42 59v27c39 -10 68 -45 68 -86c0 -43 -29 -78 -68 -87zM318 744c-39 10 -68 44 -68 87c0 41 29 76 68 85v-27c-24 -8 -41 -31 -41 -58c0 -28 17 -51 41 -59v-28zM319 -12c-143 8 -241 105 -241 264v448h48v-448
c0 -133 77 -213 193 -221v-43zM360 -12v43c116 8 192 89 192 221v448h48v-448c0 -158 -97 -256 -240 -264z" />
    <glyph glyph-name="utilde" unicode="&#x169;" horiz-adv-x="679" 
d="M157 764c0 68 26 129 96 129c43 0 71 -25 96 -50c21 -21 40 -40 69 -40c50 0 68 45 68 94h34c0 -70 -29 -133 -102 -133c-44 0 -72 26 -97 49c-21 21 -40 40 -68 40c-47 0 -62 -42 -62 -89h-34zM319 -12c-143 8 -241 105 -241 264v448h48v-448c0 -133 77 -213 193 -221
v-43zM360 -12v43c116 8 192 89 192 221v448h48v-448c0 -158 -97 -256 -240 -264z" />
    <glyph glyph-name="v" unicode="v" horiz-adv-x="628" 
d="M312 -16l-299 716h51l272 -671l-19 -45h-5zM358 82l-22 50l229 568h50z" />
    <glyph glyph-name="w" unicode="w" horiz-adv-x="980" 
d="M271 -16l-258 716h51l211 -610l213 619h5l19 -55l-235 -670h-6zM704 -16l-193 552l22 57l172 -503l212 610h50l-258 -716h-5z" />
    <glyph glyph-name="wacute" unicode="&#x1e83;" horiz-adv-x="980" 
d="M477 750l82 161h66l-123 -161h-25zM271 -16l-258 716h51l211 -610l213 619h5l19 -55l-235 -670h-6zM704 -16l-193 552l22 57l172 -503l212 610h50l-258 -716h-5z" />
    <glyph glyph-name="wcircumflex" unicode="&#x175;" horiz-adv-x="980" 
d="M347 749l140 171h5l140 -171h-37l-105 117l-106 -117h-37zM271 -16l-258 716h51l211 -610l213 619h5l19 -55l-235 -670h-6zM704 -16l-193 552l22 57l172 -503l212 610h50l-258 -716h-5z" />
    <glyph glyph-name="wdieresis" unicode="&#x1e85;" horiz-adv-x="980" 
d="M415 797c-18 0 -33 15 -33 33c0 19 15 33 33 33c19 0 33 -14 33 -33c0 -18 -14 -33 -33 -33zM564 797c-18 0 -33 15 -33 33c0 19 15 33 33 33c19 0 33 -14 33 -33c0 -18 -14 -33 -33 -33zM271 -16l-258 716h51l211 -610l213 619h5l19 -55l-235 -670h-6zM704 -16l-193 552
l22 57l172 -503l212 610h50l-258 -716h-5z" />
    <glyph glyph-name="wgrave" unicode="&#x1e81;" horiz-adv-x="980" 
d="M477 750l-123 161h67l81 -161h-25zM271 -16l-258 716h51l211 -610l213 619h5l19 -55l-235 -670h-6zM704 -16l-193 552l22 57l172 -503l212 610h50l-258 -716h-5z" />
    <glyph glyph-name="x" unicode="x" horiz-adv-x="590" 
d="M23 0l247 355l-247 345h56l218 -307l213 307h56l-487 -700h-56zM512 0l-188 280l27 40l217 -320h-56z" />
    <glyph glyph-name="uni1E8B" unicode="&#x1e8b;" horiz-adv-x="590" 
d="M293 797c-18 0 -33 15 -33 33c0 19 15 33 33 33c19 0 33 -14 33 -33c0 -18 -14 -33 -33 -33zM23 0l247 355l-247 345h56l218 -307l213 307h56l-487 -700h-56zM512 0l-188 280l27 40l217 -320h-56z" />
    <glyph glyph-name="y" unicode="y" horiz-adv-x="588" 
d="M270 0v279l-257 421h53l252 -416v-284h-48zM343 321l-25 43l204 336h53z" />
    <glyph glyph-name="yacute" unicode="&#xfd;" horiz-adv-x="588" 
d="M281 750l82 161h66l-123 -161h-25zM270 0v279l-257 421h53l252 -416v-284h-48zM343 321l-25 43l204 336h53z" />
    <glyph glyph-name="ycircumflex" unicode="&#x177;" horiz-adv-x="588" 
d="M151 749l140 171h5l140 -171h-37l-105 117l-106 -117h-37zM270 0v279l-257 421h53l252 -416v-284h-48zM343 321l-25 43l204 336h53z" />
    <glyph glyph-name="ydieresis" unicode="&#xff;" horiz-adv-x="588" 
d="M219 797c-18 0 -33 15 -33 33c0 19 15 33 33 33c19 0 33 -14 33 -33c0 -18 -14 -33 -33 -33zM368 797c-18 0 -33 15 -33 33c0 19 15 33 33 33c19 0 33 -14 33 -33c0 -18 -14 -33 -33 -33zM270 0v279l-257 421h53l252 -416v-284h-48zM343 321l-25 43l204 336h53z" />
    <glyph glyph-name="ygrave" unicode="&#x1ef3;" horiz-adv-x="588" 
d="M281 750l-123 161h67l81 -161h-25zM270 0v279l-257 421h53l252 -416v-284h-48zM343 321l-25 43l204 336h53z" />
    <glyph glyph-name="z" unicode="z" horiz-adv-x="592" 
d="M54 0v5l432 695h53v-5l-409 -654h401v-41h-477zM100 659v41h338l-25 -41h-313z" />
    <glyph glyph-name="zacute" unicode="&#x17a;" horiz-adv-x="592" 
d="M300 750l82 161h66l-123 -161h-25zM54 0v5l432 695h53v-5l-409 -654h401v-41h-477zM100 659v41h338l-25 -41h-313z" />
    <glyph glyph-name="zcaron" unicode="&#x17e;" horiz-adv-x="592" 
d="M310 741l-140 171h37l106 -117l105 117h37l-140 -171h-5zM54 0v5l432 695h53v-5l-409 -654h401v-41h-477zM100 659v41h338l-25 -41h-313z" />
    <glyph glyph-name="zdotaccent" unicode="&#x17c;" horiz-adv-x="592" 
d="M312 797c-18 0 -33 15 -33 33c0 19 15 33 33 33c19 0 33 -14 33 -33c0 -18 -14 -33 -33 -33zM54 0v5l432 695h53v-5l-409 -654h401v-41h-477zM100 659v41h338l-25 -41h-313z" />
    <glyph glyph-name="ordfeminine" unicode="&#xaa;" horiz-adv-x="415" 
d="M207 382c-89 0 -161 74 -161 163c0 88 72 163 161 163c30 0 57 -11 78 -29v-40c-20 19 -47 32 -77 32c-68 0 -121 -57 -121 -126c0 -70 53 -126 121 -126c30 0 57 12 77 32v-40c-21 -18 -48 -29 -78 -29zM328 388v312h41v-312h-41zM61 285v36h308v-36h-308z" />
    <glyph glyph-name="ordmasculine" unicode="&#xba;" horiz-adv-x="417" 
d="M187 383c-79 10 -141 79 -141 162c0 82 62 152 141 162v-39c-56 -9 -100 -60 -100 -123s44 -114 100 -123v-39zM228 383v39c57 9 101 60 101 123s-44 114 -101 123v39c80 -10 142 -80 142 -162c0 -83 -62 -152 -142 -162zM53 285v36h311v-36h-311z" />
    <glyph glyph-name="zero" unicode="0" horiz-adv-x="592" 
d="M47 372c7 226 115 342 249 342s242 -116 249 -342h-48c-6 202 -98 299 -201 299s-195 -97 -201 -299h-48zM296 -11c-133 0 -243 116 -249 342h48c6 -201 98 -299 201 -299c104 0 195 98 201 299h48c-6 -226 -115 -342 -249 -342z" />
    <glyph glyph-name="one" unicode="1" horiz-adv-x="331" 
d="M181 0v656l-117 -13v43l165 18v-704h-48z" />
    <glyph glyph-name="two" unicode="2" horiz-adv-x="510" 
d="M41 0v5l221 263c97 116 143 175 143 246c0 83 -59 146 -137 156v43c107 -9 185 -94 185 -199c0 -78 -49 -148 -149 -267l-207 -247h-56zM79 557l-36 22c37 75 99 127 184 134v-43c-66 -7 -111 -49 -148 -113zM149 0l35 43h280v-43h-315z" />
    <glyph glyph-name="three" unicode="3" horiz-adv-x="540" 
d="M212 382l-11 8l192 267h-302v43h382v-5l-224 -308c-11 0 -21 -1 -37 -5zM256 -12c-80 0 -162 34 -214 94l33 31c41 -50 110 -82 181 -82c105 0 189 78 189 179c0 85 -61 155 -147 173l27 39c96 -28 168 -114 168 -213c0 -122 -103 -221 -237 -221z" />
    <glyph glyph-name="four" unicode="4" horiz-adv-x="542" 
d="M29 186v5l386 522h5v-61l-312 -423h223v-43h-302zM372 0v516l48 66v-353h88v-43h-88v-186h-48z" />
    <glyph glyph-name="five" unicode="5" horiz-adv-x="540" 
d="M102 321l-24 6l65 373h315v-43h-280l-55 -319c-9 -6 -17 -13 -21 -17zM256 -12c-80 0 -162 34 -214 94l33 31c41 -50 110 -82 181 -82c105 0 189 78 189 179c0 99 -80 177 -182 177c-33 0 -66 -8 -94 -22l7 47c26 11 57 19 90 19c124 0 227 -100 227 -222
s-103 -221 -237 -221z" />
    <glyph glyph-name="six" unicode="6" horiz-adv-x="557" 
d="M256 -11c-115 10 -209 104 -209 223c0 37 7 80 53 147l233 341h53l-264 -398c-17 -27 -27 -59 -27 -93c0 -93 70 -166 161 -177v-43zM297 -11v43c89 9 165 85 165 177c0 100 -83 178 -184 178c-20 0 -39 -3 -57 -9l33 51c10 1 20 2 30 2c121 0 226 -100 226 -221
c0 -116 -97 -211 -213 -221z" />
    <glyph glyph-name="seven" unicode="7" horiz-adv-x="496" 
d="M32 657v43h339l-18 -43h-321zM118 0l299 700h49v-5l-297 -695h-51z" />
    <glyph glyph-name="eight" unicode="8" horiz-adv-x="548" 
d="M253 -11c-116 9 -206 97 -206 205c0 88 57 160 139 191c-59 28 -99 85 -99 155c0 89 72 163 166 173v-43c-70 -10 -122 -66 -122 -134c0 -74 56 -136 143 -136c88 0 144 62 144 136c0 69 -53 125 -124 134v43c94 -9 167 -84 167 -173c0 -70 -40 -127 -99 -155
c82 -31 139 -103 139 -191c0 -108 -90 -196 -207 -205v43c90 9 159 76 159 162c0 90 -71 165 -179 165s-179 -75 -179 -165c0 -85 68 -153 158 -162v-43z" />
    <glyph glyph-name="nine" unicode="9" horiz-adv-x="557" 
d="M272 271c-120 0 -225 100 -225 221c0 116 97 211 213 221v-43c-89 -9 -165 -85 -165 -177c0 -100 82 -179 183 -179c22 0 43 4 63 11l-31 -50c-13 -3 -25 -4 -38 -4zM189 0l244 397c18 29 29 61 29 96c0 91 -71 166 -161 177v43c115 -10 209 -105 209 -223
c0 -38 -10 -78 -54 -147l-214 -343h-53z" />
    <glyph glyph-name="one.superior" horiz-adv-x="179" 
d="M89 400v279l-61 -6v35l105 9v-317h-44z" />
    <glyph glyph-name="two.superior" horiz-adv-x="276" 
d="M56 639l-32 14c16 34 46 61 91 68v-35c-26 -5 -45 -22 -59 -47zM28 400v3l107 119c41 46 68 77 68 106c0 28 -20 49 -47 57v35c52 -8 90 -45 90 -92c0 -36 -23 -68 -65 -114l-105 -114h-48zM131 400l31 35h89v-35h-120z" />
    <glyph glyph-name="three.superior" horiz-adv-x="279" 
d="M111 562l-13 9l83 109h-136v35h203v-3l-111 -146h-7c-6 0 -13 -1 -19 -4zM134 394c-47 0 -92 19 -116 44l23 25c20 -21 55 -36 90 -36c47 0 85 29 85 69c0 24 -15 45 -37 58l20 27c35 -17 59 -48 59 -86c0 -57 -54 -101 -124 -101z" />
    <glyph glyph-name="four.superior" horiz-adv-x="287" 
d="M16 472v13l201 236h10v-34l-155 -183h74v-32h-130zM187 400v176l40 47v-118h41v-33h-41v-72h-40z" />
    <glyph glyph-name="fraction" unicode="&#x2044;" horiz-adv-x="282" 
d="M0 344v24h282v-24h-282z" />
    <glyph glyph-name="onehalf" unicode="&#xbd;" horiz-adv-x="322" 
d="M154 400v279l-61 -6v35l105 9v-317h-44zM20 344v24h282v-24h-282zM79 245l-32 14c16 34 46 61 91 68v-35c-26 -5 -45 -22 -59 -47zM51 6v3l107 119c41 46 68 77 68 106c0 28 -20 49 -47 57v35c52 -8 90 -45 90 -92c0 -36 -23 -68 -65 -114l-105 -114h-48zM154 6l31 35h89
v-35h-120z" />
    <glyph glyph-name="onequarter" unicode="&#xbc;" horiz-adv-x="323" 
d="M155 400v279l-61 -6v35l105 9v-317h-44zM21 344v24h282v-24h-282zM36 74v13l201 236h10v-34l-155 -183h74v-32h-130zM207 2v176l40 47v-118h41v-33h-41v-72h-40z" />
    <glyph glyph-name="threequarters" unicode="&#xbe;" horiz-adv-x="322" 
d="M134 562l-13 9l83 109h-136v35h203v-3l-111 -146h-7c-6 0 -13 -1 -19 -4zM157 394c-47 0 -92 19 -116 44l23 25c20 -21 55 -36 90 -36c47 0 85 29 85 69c0 24 -15 45 -37 58l20 27c35 -17 59 -48 59 -86c0 -57 -54 -101 -124 -101zM20 344v24h282v-24h-282zM35 71v13
l201 236h10v-34l-155 -183h74v-32h-130zM206 -1v176l40 47v-118h41v-33h-41v-72h-40z" />
    <glyph glyph-name="asterisk" unicode="*" horiz-adv-x="460" 
d="M162 440l-38 28l78 98l-121 33l15 44l118 -43l-6 125h47l-6 -125l118 43l14 -44l-121 -33l78 -98l-37 -28l-70 106z" />
    <glyph glyph-name="backslash" unicode="\" horiz-adv-x="399" 
d="M354 -63h-47l-263 789h47z" />
    <glyph glyph-name="periodcentered" unicode="&#xb7;" horiz-adv-x="262" 
d="M134 173c-19 0 -36 16 -36 36c0 19 17 35 36 35c20 0 37 -16 37 -35c0 -20 -17 -36 -37 -36z" />
    <glyph glyph-name="bullet" unicode="&#x2022;" horiz-adv-x="297" 
d="M152 172c-23 0 -43 19 -43 43c0 23 20 42 43 42c24 0 44 -19 44 -42c0 -24 -20 -43 -44 -43z" />
    <glyph glyph-name="colon" unicode=":" horiz-adv-x="262" 
d="M134 311c-19 0 -36 16 -36 36c0 19 17 35 36 35c20 0 37 -16 37 -35c0 -20 -17 -36 -37 -36zM134 -4c-19 0 -36 16 -36 36c0 19 17 35 36 35c20 0 37 -16 37 -35c0 -20 -17 -36 -37 -36z" />
    <glyph glyph-name="comma" unicode="," horiz-adv-x="262" 
d="M93 -90l27 89c-13 5 -23 17 -23 33c0 20 17 35 36 35c20 0 37 -16 37 -34c0 -11 -5 -23 -15 -44l-34 -79h-28z" />
    <glyph glyph-name="ellipsis" unicode="&#x2026;" horiz-adv-x="648" 
d="M134 -4c-19 0 -36 16 -36 36c0 19 17 35 36 35c20 0 37 -16 37 -35c0 -20 -17 -36 -37 -36zM327 -4c-19 0 -36 16 -36 36c0 19 17 35 36 35c20 0 37 -16 37 -35c0 -20 -17 -36 -37 -36zM521 -4c-19 0 -36 16 -36 36c0 19 17 35 36 35c20 0 37 -16 37 -35
c0 -20 -17 -36 -37 -36z" />
    <glyph glyph-name="exclam" unicode="!" horiz-adv-x="262" 
d="M118 139l-9 586h50l-9 -586h-32zM134 -4c-19 0 -36 16 -36 36c0 19 17 35 36 35c20 0 37 -16 37 -35c0 -20 -17 -36 -37 -36z" />
    <glyph glyph-name="exclamdown" unicode="&#xa1;" horiz-adv-x="262" 
d="M134 450c19 0 36 -16 36 -36c0 -19 -17 -35 -36 -35c-20 0 -37 16 -37 35c0 20 17 36 37 36zM150 307l9 -586h-50l9 586h32z" />
    <glyph glyph-name="numbersign" unicode="#" horiz-adv-x="634" 
d="M142 0l21 199h-144l5 42h143l23 218h-143l4 42h144l21 199h47l-74 -700h-47zM372 0l21 199h-142l4 42h143l23 218h-143l5 42h142l21 199h48l-21 -199h142l-4 -42h-143l-23 -218h143l-5 -42h-142l-21 -199h-48z" />
    <glyph glyph-name="period" unicode="." horiz-adv-x="262" 
d="M134 -4c-19 0 -36 16 -36 36c0 19 17 35 36 35c20 0 37 -16 37 -35c0 -20 -17 -36 -37 -36z" />
    <glyph glyph-name="question" unicode="?" horiz-adv-x="487" 
d="M392 523c-10 90 -84 149 -183 149c-64 0 -115 -24 -160 -66l-26 35c52 45 115 73 190 73c124 0 216 -77 226 -191h-47zM186 139l-8 181c117 8 203 65 214 161h47c-9 -110 -99 -173 -214 -192l-7 -150h-32zM203 -4c-19 0 -36 16 -36 36c0 19 17 35 36 35
c20 0 37 -16 37 -35c0 -20 -17 -36 -37 -36z" />
    <glyph glyph-name="questiondown" unicode="&#xbf;" horiz-adv-x="487" 
d="M284 454c19 0 36 -16 36 -36c0 -19 -17 -35 -36 -35c-20 0 -37 16 -37 35c0 20 17 36 37 36zM301 311l8 -181c-117 -8 -203 -65 -214 -161h-47c9 110 99 173 214 192l7 150h32zM95 -73c10 -90 84 -149 183 -149c64 0 115 24 160 66l26 -35c-52 -45 -115 -73 -190 -73
c-124 0 -216 77 -226 191h47z" />
    <glyph glyph-name="quotedbl" unicode="&#x22;" horiz-adv-x="306" 
d="M104 543l-6 163h47l-6 -163h-35zM217 543l-6 163h47l-6 -163h-35z" />
    <glyph glyph-name="quotesingle" unicode="'" horiz-adv-x="236" 
d="M104 543l-6 163h47l-6 -163h-35z" />
    <glyph glyph-name="semicolon" unicode=";" horiz-adv-x="262" 
d="M134 311c-19 0 -36 16 -36 36c0 19 17 35 36 35c20 0 37 -16 37 -35c0 -20 -17 -36 -37 -36zM93 -90l27 89c-13 5 -23 17 -23 33c0 20 17 35 36 35c20 0 37 -16 37 -34c0 -11 -5 -23 -15 -44l-34 -79h-28z" />
    <glyph glyph-name="slash" unicode="/" horiz-adv-x="399" 
d="M43 -63l263 789h47l-263 -789h-47z" />
    <glyph glyph-name="underscore" unicode="_" horiz-adv-x="586" 
d="M0 -88v36h586v-36h-586z" />
    <glyph glyph-name="braceleft" unicode="{" horiz-adv-x="260" 
d="M126 335c-13 9 -25 15 -41 19c10 14 17 34 17 58v197c0 74 41 116 113 116h14v-42h-18c-38 0 -61 -24 -61 -68v-206c0 -29 -9 -56 -24 -74zM214 -123c-71 0 -113 42 -113 116v197c0 55 -25 90 -65 90v42h14c61 0 99 -58 99 -118v-217c0 -44 24 -68 61 -68h18v-42h-14z
" />
    <glyph glyph-name="braceright" unicode="}" horiz-adv-x="260" 
d="M134 335c-15 18 -24 45 -24 74v206c0 44 -23 68 -61 68h-18v42h14c72 0 113 -42 113 -116v-197c0 -24 7 -44 17 -58c-16 -4 -28 -10 -41 -19zM46 -123h-14v42h18c37 0 61 24 61 68v217c0 60 38 118 99 118h14v-42c-40 0 -65 -35 -65 -90v-197c0 -74 -42 -116 -113 -116z
" />
    <glyph glyph-name="bracketleft" unicode="[" horiz-adv-x="208" 
d="M49 -123v848h127v-43h-79v-762h79v-43h-127z" />
    <glyph glyph-name="bracketright" unicode="]" horiz-adv-x="208" 
d="M159 -123h-127v43h79v762h-79v43h127v-848z" />
    <glyph glyph-name="parenleft" unicode="(" horiz-adv-x="251" 
d="M217 -143c-108 88 -197 252 -197 444s89 356 197 444l26 -27c-98 -86 -173 -234 -173 -417s75 -331 173 -417z" />
    <glyph glyph-name="parenright" unicode=")" horiz-adv-x="251" 
d="M34 -143l-26 27c98 86 173 234 173 417s-75 331 -173 417l26 27c108 -88 197 -252 197 -444s-89 -356 -197 -444z" />
    <glyph glyph-name="emdash" unicode="&#x2014;" horiz-adv-x="929" 
d="M24 301v42h880v-42h-880z" />
    <glyph glyph-name="endash" unicode="&#x2013;" horiz-adv-x="569" 
d="M24 301v42h520v-42h-520z" />
    <glyph glyph-name="hyphen" unicode="-" horiz-adv-x="240" 
d="M20 301v42h200v-42h-200z" />
    <glyph glyph-name="guillemotleft" unicode="&#xab;" horiz-adv-x="460" 
d="M216 10l-150 213l150 212l28 -16l-129 -196l129 -197zM369 10l-150 213l150 212l28 -16l-129 -196l129 -197z" />
    <glyph glyph-name="guillemotright" unicode="&#xbb;" horiz-adv-x="460" 
d="M91 10l-28 16l129 197l-129 196l28 16l150 -212zM244 10l-28 16l129 197l-129 196l28 16l150 -212z" />
    <glyph glyph-name="guilsinglleft" unicode="&#x2039;" horiz-adv-x="307" 
d="M216 10l-150 213l150 212l28 -16l-129 -196l129 -197z" />
    <glyph glyph-name="guilsinglright" unicode="&#x203a;" horiz-adv-x="307" 
d="M91 10l-28 16l129 197l-129 196l28 16l150 -212z" />
    <glyph glyph-name="quotedblbase" unicode="&#x201e;" horiz-adv-x="371" 
d="M93 -90l27 89c-13 5 -23 17 -23 33c0 20 17 35 36 35c20 0 37 -16 37 -34c0 -11 -5 -23 -15 -44l-34 -79h-28zM202 -90l27 89c-13 5 -23 17 -23 33c0 20 17 35 36 35c20 0 37 -16 37 -34c0 -11 -5 -23 -15 -44l-34 -79h-28z" />
    <glyph glyph-name="quotedblleft" unicode="&#x201c;" horiz-adv-x="371" 
d="M169 707l-27 -89c13 -5 23 -17 23 -33c0 -20 -17 -35 -36 -35c-20 0 -37 16 -37 34c0 11 5 23 15 44l34 79h28zM278 707l-27 -89c13 -5 23 -17 23 -33c0 -20 -17 -35 -36 -35c-20 0 -37 16 -37 34c0 11 5 23 15 44l34 79h28z" />
    <glyph glyph-name="quotedblright" unicode="&#x201d;" horiz-adv-x="371" 
d="M93 549l27 89c-13 5 -23 17 -23 33c0 20 17 35 36 35c20 0 37 -16 37 -34c0 -11 -5 -23 -15 -44l-34 -79h-28zM202 549l27 89c-13 5 -23 17 -23 33c0 20 17 35 36 35c20 0 37 -16 37 -34c0 -11 -5 -23 -15 -44l-34 -79h-28z" />
    <glyph glyph-name="quoteleft" unicode="&#x2018;" horiz-adv-x="262" 
d="M169 707l-27 -89c13 -5 23 -17 23 -33c0 -20 -17 -35 -36 -35c-20 0 -37 16 -37 34c0 11 5 23 15 44l34 79h28z" />
    <glyph glyph-name="quoteright" unicode="&#x2019;" horiz-adv-x="262" 
d="M93 549l27 89c-13 5 -23 17 -23 33c0 20 17 35 36 35c20 0 37 -16 37 -34c0 -11 -5 -23 -15 -44l-34 -79h-28z" />
    <glyph glyph-name="quotesinglbase" unicode="&#x201a;" horiz-adv-x="262" 
d="M93 -90l27 89c-13 5 -23 17 -23 33c0 20 17 35 36 35c20 0 37 -16 37 -34c0 -11 -5 -23 -15 -44l-34 -79h-28z" />
    <glyph glyph-name="uni2003" unicode="&#x2003;" horiz-adv-x="994" 
 />
    <glyph glyph-name="uni2002" unicode="&#x2002;" horiz-adv-x="494" 
 />
    <glyph glyph-name="space" unicode=" " horiz-adv-x="244" 
 />
    <glyph glyph-name="cent" unicode="&#xa2;" horiz-adv-x="428" 
d="M30 335c11 91 85 165 187 174v86h38v-86c57 -3 103 -26 140 -62l-22 -31c-37 35 -81 55 -132 55c-88 0 -153 -60 -164 -136h-47zM217 24v95c-104 10 -177 83 -187 174h47c11 -75 75 -134 161 -136c54 -1 101 21 140 55l22 -32c-38 -34 -86 -58 -145 -62v-94h-38z" />
    <glyph glyph-name="currency" unicode="&#xa4;" horiz-adv-x="466" 
d="M56 96l-27 26l57 55c-27 32 -43 73 -43 117s16 85 43 117l-57 55l27 26l57 -56c27 22 62 37 99 41v-36c-74 -10 -131 -72 -131 -147s57 -137 131 -147v-36c-37 4 -72 19 -99 41zM410 96l-57 57c-28 -23 -63 -38 -100 -42v36c73 10 130 72 130 147s-57 137 -130 147v36
c37 -4 72 -19 100 -42l57 57l26 -26l-57 -56c26 -32 42 -72 42 -116s-16 -84 -42 -116l57 -56z" />
    <glyph glyph-name="dollar" unicode="$" horiz-adv-x="507" 
d="M248 333c-84 34 -165 72 -165 164c0 74 53 137 160 143v73h43v-73c63 -5 126 -30 163 -85l-34 -24c-36 52 -94 70 -151 70c-96 0 -134 -49 -134 -99c0 -64 61 -94 135 -125zM243 -58v83c-91 5 -172 44 -214 120l34 25c40 -72 115 -105 198 -105c89 0 169 39 169 116
c0 72 -68 105 -144 137l17 44c88 -36 175 -76 175 -176c0 -99 -88 -153 -192 -160v-84h-43z" />
    <glyph glyph-name="Euro" unicode="&#x20ac;" horiz-adv-x="554" 
d="M19 316v35h70c20 148 121 249 255 249c59 0 125 -20 171 -75l-23 -32c-44 47 -99 64 -148 64c-106 0 -187 -83 -206 -206h190v-35h-309zM344 -10c-133 0 -234 101 -255 249h-70v36h309v-36h-190c19 -123 100 -206 206 -206c64 0 117 30 157 73l24 -34
c-49 -53 -111 -82 -181 -82z" />
    <glyph glyph-name="florin" unicode="&#x192;" horiz-adv-x="384" 
d="M29 378l7 42h75l29 162c13 76 75 143 159 143c30 0 51 -9 56 -11l-9 -38c-10 3 -26 7 -44 7c-64 0 -107 -54 -117 -110l-27 -153h124l-7 -42h-246zM38 0l59 337h47l-59 -337h-47z" />
    <glyph glyph-name="sterling" unicode="&#xa3;" horiz-adv-x="472" 
d="M37 277v35h68v86c0 134 75 202 182 202c59 0 119 -21 156 -62l-20 -32c-36 36 -85 53 -132 53c-82 0 -139 -49 -139 -162v-85h192v-35h-307zM29 0v42c49 3 76 57 76 141v53h47v-49c0 -66 -17 -117 -48 -145h324v-42h-399z" />
    <glyph glyph-name="yen" unicode="&#xa5;" horiz-adv-x="549" 
d="M117 216v36h121l-209 336h53l193 -313l192 313h53l-208 -336h121v-36h-316zM251 0v140h-134v35h316v-35h-134v-140h-48z" />
    <glyph glyph-name="asciitilde" unicode="~" horiz-adv-x="612" 
d="M61 229c0 73 48 131 128 131c53 0 94 -27 132 -51c35 -22 68 -43 106 -43c58 0 87 47 87 97h37c0 -71 -45 -134 -127 -134c-52 0 -92 26 -130 51c-36 23 -69 44 -108 44c-57 0 -88 -46 -88 -95h-37z" />
    <glyph glyph-name="divide" unicode="&#xf7;" horiz-adv-x="534" 
d="M268 496c-19 0 -33 16 -33 33c0 19 14 34 33 34c18 0 33 -15 33 -34c0 -17 -15 -33 -33 -33zM67 329v43h400v-43h-400zM268 138c-19 0 -33 16 -33 33c0 19 14 34 33 34c18 0 33 -15 33 -34c0 -17 -15 -33 -33 -33z" />
    <glyph glyph-name="equal" unicode="=" horiz-adv-x="534" 
d="M67 424v43h400v-43h-400zM67 234v43h400v-43h-400z" />
    <glyph glyph-name="greater" unicode="&#x3e;" horiz-adv-x="515" 
d="M84 164l-17 39l326 148l-326 147l17 39l364 -164v-45z" />
    <glyph glyph-name="less" unicode="&#x3c;" horiz-adv-x="515" 
d="M431 164l-364 164v45l364 164l17 -39l-326 -147l326 -148z" />
    <glyph glyph-name="minus" unicode="&#x2212;" horiz-adv-x="544" 
d="M67 329v43h410v-43h-410z" />
    <glyph glyph-name="multiply" unicode="&#xd7;" horiz-adv-x="486" 
d="M387 174l-144 144l-143 -143l-33 33l144 143l-143 143l32 32l143 -143l143 143l32 -33l-142 -142l144 -145z" />
    <glyph glyph-name="percent" unicode="%" horiz-adv-x="726" 
d="M179 -11l-30 18l397 592l30 -19zM172 321c-69 9 -123 70 -123 139c0 70 54 128 123 138v-34c-49 -10 -86 -52 -86 -104c0 -51 37 -94 86 -104v-35zM213 321v35c49 9 86 53 86 104c0 52 -37 94 -86 103v35c70 -10 124 -68 124 -138c0 -69 -54 -129 -124 -139zM512 -11
c-69 9 -123 70 -123 139c0 70 54 128 123 138v-34c-49 -10 -86 -52 -86 -104c0 -51 37 -94 86 -104v-35zM553 -11v35c49 9 86 53 86 104c0 52 -37 94 -86 103v35c70 -10 124 -68 124 -138c0 -69 -54 -129 -124 -139z" />
    <glyph glyph-name="perthousand" unicode="&#x2030;" horiz-adv-x="1051" 
d="M179 -11l-30 18l397 592l30 -19zM172 321c-69 9 -123 70 -123 139c0 70 54 128 123 138v-34c-49 -10 -86 -52 -86 -104c0 -51 37 -94 86 -104v-35zM213 321v35c49 9 86 53 86 104c0 52 -37 94 -86 103v35c70 -10 124 -68 124 -138c0 -69 -54 -129 -124 -139zM512 -11
c-69 9 -123 70 -123 139c0 70 54 128 123 138v-34c-49 -10 -86 -52 -86 -104c0 -51 37 -94 86 -104v-35zM553 -11v35c49 9 86 53 86 104c0 52 -37 94 -86 103v35c70 -10 124 -68 124 -138c0 -69 -54 -129 -124 -139zM837 -11c-69 9 -123 70 -123 139c0 70 54 128 123 138
v-34c-49 -10 -86 -52 -86 -104c0 -51 37 -94 86 -104v-35zM878 -11v35c49 9 86 53 86 104c0 52 -37 94 -86 103v35c70 -10 124 -68 124 -138c0 -69 -54 -129 -124 -139z" />
    <glyph glyph-name="plus" unicode="+" horiz-adv-x="544" 
d="M249 146v185h-182v43h182v180h46v-180h182v-43h-182v-185h-46z" />
    <glyph glyph-name="bar" unicode="|" horiz-adv-x="270" 
d="M114 -125v850h42v-850h-42z" />
    <glyph glyph-name="brokenbar" unicode="&#xa6;" horiz-adv-x="270" 
d="M114 372v353h42v-353h-42zM114 -125v353h42v-353h-42z" />
    <glyph glyph-name="at" unicode="@" horiz-adv-x="847" 
d="M633 50c-72 0 -94 61 -85 125l35 258h46l-34 -246c-8 -57 -2 -106 50 -106c79 0 123 114 123 219c0 170 -112 291 -277 300v22c178 -9 300 -143 300 -320c0 -112 -50 -252 -158 -252zM373 -114c-183 0 -316 132 -316 322c0 227 187 401 393 413v-22
c-194 -12 -371 -176 -371 -391c0 -178 124 -301 295 -301c61 0 122 15 177 42l10 -18c-58 -29 -123 -45 -188 -45zM382 55c-96 0 -164 78 -164 171c0 115 102 219 217 219c43 0 78 -13 105 -36l-7 -50c-22 28 -55 45 -97 45c-90 0 -171 -80 -171 -173
c0 -75 52 -135 127 -135c43 0 82 16 112 44l-7 -49c-33 -23 -72 -36 -115 -36z" />
    <glyph glyph-name="ampersand" unicode="&#x26;" horiz-adv-x="711" 
d="M573 0l-305 387c-43 54 -88 123 -88 188c0 68 49 138 155 138c59 0 104 -21 146 -63l-26 -34c-40 41 -84 55 -122 55c-73 0 -105 -51 -105 -96c0 -42 28 -97 80 -164l324 -411h-59zM276 -12c-115 0 -198 86 -198 193c0 93 64 157 135 211l27 -35
c-62 -48 -114 -102 -114 -177c0 -79 58 -148 147 -148c60 0 116 31 165 75l28 -36c-54 -48 -118 -83 -190 -83zM586 230c-17 0 -30 14 -30 31c0 16 13 29 30 29c16 0 29 -13 29 -29c0 -17 -13 -31 -29 -31z" />
    <glyph glyph-name="copyright" unicode="&#xa9;" horiz-adv-x="720" 
d="M340 -9c-163 9 -293 134 -293 304s130 295 293 304v-20c-151 -9 -271 -126 -271 -284s120 -274 271 -283v-21zM381 -9v21c151 10 271 125 271 283s-120 274 -271 284v20c164 -9 293 -134 293 -304s-129 -295 -293 -304zM199 316c10 86 81 147 167 147
c49 0 95 -18 127 -53l-25 -25c-28 29 -63 42 -102 42c-65 0 -119 -45 -129 -111h-38zM366 128c-86 0 -157 61 -167 147h38c10 -66 64 -111 129 -111c44 0 79 18 108 47l23 -26c-30 -34 -76 -57 -131 -57z" />
    <glyph glyph-name="registered" unicode="&#xae;" horiz-adv-x="720" 
d="M340 -10c-163 9 -293 135 -293 304c0 170 130 295 293 304v-20c-151 -9 -271 -126 -271 -284s120 -274 271 -283v-21zM381 -10v21c151 10 271 125 271 283s-120 274 -271 284v20c164 -9 293 -134 293 -304c0 -169 -129 -294 -293 -304zM263 144v300h39v-300h-39zM455 144
l-91 130h-13v32h33c39 0 65 18 65 53s-27 52 -63 52h-35v33h35c52 0 99 -31 99 -85c0 -46 -32 -76 -77 -83l92 -132h-45z" />
    <glyph glyph-name="trademark" unicode="&#x2122;" horiz-adv-x="723" 
d="M140 367v310h-104v33h244v-33h-105v-310h-35zM316 367l35 343h34l117 -293l118 293h33l35 -343h-34l-28 266l-108 -266h-32l-107 266l-28 -266h-35z" />
    <glyph glyph-name="degree" unicode="&#xb0;" horiz-adv-x="377" 
d="M209 431v35c49 9 86 53 86 104s-37 95 -86 104v35c68 -10 120 -69 120 -139s-52 -129 -120 -139zM168 432c-67 10 -119 69 -119 139s52 127 119 137v-34c-48 -10 -85 -52 -85 -103s37 -95 85 -105v-34z" />
    <glyph glyph-name="asciicircum" unicode="^" horiz-adv-x="508" 
d="M101 530l125 179h56l125 -179h-38l-115 144l-116 -144h-37z" />
    <glyph glyph-name="dagger" unicode="&#x2020;" horiz-adv-x="374" 
d="M169 -123v601h-122v35h122v212h37v-212h121v-35h-121v-601h-37z" />
    <glyph glyph-name="daggerdbl" unicode="&#x2021;" horiz-adv-x="374" 
d="M169 -123v370h-122v35h122v196h-122v35h122v212h37v-212h121v-35h-121v-196h121v-35h-121v-370h-37z" />
    <glyph glyph-name="ampersand.ss01" horiz-adv-x="469" 
d="M371 240l-199 250c-30 37 -54 80 -54 120c0 49 38 94 105 94c39 0 70 -14 99 -43l-20 -29c-24 25 -51 36 -77 36c-38 0 -66 -26 -66 -61c0 -25 15 -58 47 -98l214 -269h-49zM183 232c-78 0 -135 56 -135 127c0 55 35 93 77 125l23 -29c-32 -27 -57 -57 -57 -97
c-1 -48 36 -90 90 -90c32 0 62 14 89 34l23 -30c-31 -24 -68 -40 -110 -40zM389 395c-13 0 -23 11 -23 24s10 23 23 23s23 -10 23 -23s-10 -24 -23 -24zM68 0v36h332v-36h-332z" />
    <glyph glyph-name="uni0308" unicode="&#x308;" horiz-adv-x="0" 
d="M-310 797c-18 0 -33 15 -33 33c0 19 15 33 33 33c19 0 33 -14 33 -33c0 -18 -14 -33 -33 -33zM-161 797c-18 0 -33 15 -33 33c0 19 15 33 33 33c19 0 33 -14 33 -33c0 -18 -14 -33 -33 -33z" />
    <glyph glyph-name="uni0307" unicode="&#x307;" horiz-adv-x="0" 
d="M-236 797c-18 0 -33 15 -33 33c0 19 15 33 33 33c19 0 33 -14 33 -33c0 -18 -14 -33 -33 -33z" />
    <glyph glyph-name="gravecomb" unicode="&#x300;" horiz-adv-x="0" 
d="M-174 750l-123 161h67l81 -161h-25z" />
    <glyph glyph-name="acutecomb" unicode="&#x301;" horiz-adv-x="0" 
d="M-297 750l82 161h66l-123 -161h-25z" />
    <glyph glyph-name="uni030B" unicode="&#x30b;" horiz-adv-x="0" 
d="M-381 750l83 161h67l-125 -161h-25zM-227 750l83 161h67l-125 -161h-25z" />
    <glyph glyph-name="uni0302" unicode="&#x302;" horiz-adv-x="0" 
d="M-378 749l140 171h5l140 -171h-37l-105 117l-106 -117h-37z" />
    <glyph glyph-name="uni030C" unicode="&#x30c;" horiz-adv-x="0" 
d="M-238 741l-140 171h37l106 -117l105 117h37l-140 -171h-5z" />
    <glyph glyph-name="uni0306" unicode="&#x306;" horiz-adv-x="0" 
d="M-236 753c-89 0 -151 81 -151 154h38c0 -52 45 -114 113 -114s113 62 113 114h38c0 -73 -62 -154 -151 -154z" />
    <glyph glyph-name="uni030A" unicode="&#x30a;" horiz-adv-x="0" 
d="M-215 744v27c24 9 42 32 42 60c0 27 -18 50 -42 59v27c39 -10 68 -45 68 -86c0 -43 -29 -78 -68 -87zM-256 744c-39 10 -68 44 -68 87c0 41 29 76 68 85v-27c-24 -8 -41 -31 -41 -58c0 -28 17 -51 41 -59v-28z" />
    <glyph glyph-name="tildecomb" unicode="&#x303;" horiz-adv-x="0" 
d="M-417 764c0 68 26 129 96 129c43 0 71 -25 96 -50c21 -21 40 -40 69 -40c50 0 68 45 68 94h34c0 -70 -29 -133 -102 -133c-44 0 -72 26 -97 49c-21 21 -40 40 -68 40c-47 0 -62 -42 -62 -89h-34z" />
    <glyph glyph-name="uni0304" unicode="&#x304;" horiz-adv-x="0" 
d="M-407 810v41h343v-41h-343z" />
    <glyph glyph-name="uni0326" unicode="&#x326;" horiz-adv-x="0" 
d="M-260 -185l27 80c-13 5 -23 15 -23 30c0 18 17 31 36 31c20 0 37 -14 37 -30c0 -10 -5 -21 -15 -40l-34 -71h-28z" />
    <glyph glyph-name="uni0327" unicode="&#x327;" horiz-adv-x="0" 
d="M-256 -233c-31 0 -65 9 -82 14l1 33c16 -5 47 -13 75 -13c57 0 89 31 89 64c0 34 -35 58 -89 58c-10 0 -17 0 -27 -2l-1 30c15 3 25 3 38 3c64 0 119 -35 119 -90c0 -53 -52 -97 -123 -97z" />
    <glyph glyph-name="uni0328" unicode="&#x328;" horiz-adv-x="0" 
d="M-218 -229c-52 0 -95 42 -95 88c0 29 18 55 37 74l66 67h34l-74 -92c-11 -13 -23 -29 -23 -48c0 -28 27 -53 62 -53c16 0 34 6 51 14l1 -32c-13 -7 -33 -18 -59 -18z" />
    <glyph glyph-name="uni0335" unicode="&#x335;" horiz-adv-x="0" 
d="M-558 261v41h285v-41h-285z" />
    <glyph glyph-name="uni0338" unicode="&#x338;" horiz-adv-x="0" 
d="M-447 -64l385 828h47l-385 -828h-47z" />
    <glyph glyph-name="acute" unicode="&#xb4;" horiz-adv-x="600" 
d="M174 750l82 161h66l-123 -161h-25z" />
    <glyph glyph-name="breve" unicode="&#x2d8;" horiz-adv-x="600" 
d="M235 753c-89 0 -151 81 -151 154h38c0 -52 45 -114 113 -114s113 62 113 114h38c0 -73 -62 -154 -151 -154z" />
    <glyph glyph-name="caron" unicode="&#x2c7;" horiz-adv-x="600" 
d="M233 741l-140 171h37l106 -117l105 117h37l-140 -171h-5z" />
    <glyph glyph-name="cedilla" unicode="&#xb8;" horiz-adv-x="600" 
d="M215 -233c-31 0 -65 9 -82 14l1 33c16 -5 47 -13 75 -13c57 0 89 31 89 64c0 34 -35 58 -89 58c-10 0 -17 0 -27 -2l-1 30c15 3 25 3 38 3c64 0 119 -35 119 -90c0 -53 -52 -97 -123 -97z" />
    <glyph glyph-name="circumflex" unicode="&#x2c6;" horiz-adv-x="600" 
d="M93 749l140 171h5l140 -171h-37l-105 117l-106 -117h-37z" />
    <glyph glyph-name="dieresis" unicode="&#xa8;" horiz-adv-x="600" 
d="M161 797c-18 0 -33 15 -33 33c0 19 15 33 33 33c19 0 33 -14 33 -33c0 -18 -14 -33 -33 -33zM310 797c-18 0 -33 15 -33 33c0 19 15 33 33 33c19 0 33 -14 33 -33c0 -18 -14 -33 -33 -33z" />
    <glyph glyph-name="dotaccent" unicode="&#x2d9;" horiz-adv-x="600" 
d="M235 797c-18 0 -33 15 -33 33c0 19 15 33 33 33c19 0 33 -14 33 -33c0 -18 -14 -33 -33 -33z" />
    <glyph glyph-name="grave" unicode="`" horiz-adv-x="600" 
d="M297 750l-123 161h67l81 -161h-25z" />
    <glyph glyph-name="hungarumlaut" unicode="&#x2dd;" horiz-adv-x="600" 
d="M90 750l83 161h67l-125 -161h-25zM244 750l83 161h67l-125 -161h-25z" />
    <glyph glyph-name="macron" unicode="&#xaf;" horiz-adv-x="600" 
d="M64 810v41h343v-41h-343z" />
    <glyph glyph-name="ogonek" unicode="&#x2db;" horiz-adv-x="600" 
d="M253 -229c-52 0 -95 42 -95 88c0 29 18 55 37 74l66 67h34l-74 -92c-11 -13 -23 -29 -23 -48c0 -28 27 -53 62 -53c16 0 34 6 51 14l1 -32c-13 -7 -33 -18 -59 -18z" />
    <glyph glyph-name="ring" unicode="&#x2da;" horiz-adv-x="600" 
d="M256 744v27c24 9 42 32 42 60c0 27 -18 50 -42 59v27c39 -10 68 -45 68 -86c0 -43 -29 -78 -68 -87zM215 744c-39 10 -68 44 -68 87c0 41 29 76 68 85v-27c-24 -8 -41 -31 -41 -58c0 -28 17 -51 41 -59v-28z" />
    <glyph glyph-name="tilde" unicode="&#x2dc;" horiz-adv-x="600" 
d="M54 764c0 68 26 129 96 129c43 0 71 -25 96 -50c21 -21 40 -40 69 -40c50 0 68 45 68 94h34c0 -70 -29 -133 -102 -133c-44 0 -72 26 -97 49c-21 21 -40 40 -68 40c-47 0 -62 -42 -62 -89h-34z" />
    <glyph glyph-name="caron.alt" horiz-adv-x="471" 
d="M232 530v163h56l-31 -163h-25z" />
    </font>
</defs>
</svg>
