<?xml version="1.0" standalone="no"?>
<!DOCTYPE svg PUBLIC "-//W3C//DTD SVG 1.1//EN" "http://www.w3.org/Graphics/SVG/1.1/DTD/svg11.dtd" >
<svg xmlns="http://www.w3.org/2000/svg" xmlns:xlink="http://www.w3.org/1999/xlink" version="1.1">
<metadata>
Created by FontForge 20170910 at Fri Jul  8 23:14:54 2016
 By Jimmy Wärting
Copyright \(c\) 2016 by Radomir Tinkov. All rights reserved.
</metadata>
<defs>
<font id="Gilroy-Bold" horiz-adv-x="626" >
  <font-face 
    font-family="Gilroy Bold"
    font-weight="700"
    font-stretch="normal"
    units-per-em="1000"
    panose-1="0 0 8 0 0 0 0 0 0 0"
    ascent="800"
    descent="-200"
    x-height="500"
    cap-height="700"
    bbox="-415 -263 1094 975"
    underline-thickness="50"
    underline-position="-100"
    unicode-range="U+0020-FB02"
  />
<missing-glyph horiz-adv-x="500" 
d="M410 800v-1000h-317v1000h317zM333 733h-165v-33h65v-37h-66v-33h166v33h-66v37h66v33zM267 604h-100v-104h166v34h-66v70zM233 570v-36h-33v36h33zM333 473h-166v-33h66v-37h-66v-33h100v70h66v33zM333 413h-33v-66h-133v-34h166v100zM333 291h-100v-56h34v23h33v-47
h-100v80h-33v-113h166v113zM333 118h-166v-113h166v113zM300 85v-47h-100v47h100zM333 -18h-166v-33h70l-70 -47v-33h166v33h-102l70 47h32v33z" />
    <glyph glyph-name="f_f" unicode="ff" horiz-adv-x="605" 
d="M605 600c-66 5 -106 -17 -106 -85v-15h106v-124h-106v-376h-129v376h-148v-376h-129v376h-72v124h72v5c0 138 76 219 235 209v-124c-67 5 -106 -17 -106 -85v-5h148v15c0 138 77 219 235 209v-124z" />
    <glyph glyph-name="f_f_i" unicode="ffi" horiz-adv-x="834" 
d="M775 500v-500h-129v376h-147v-376h-129v376h-148v-376h-129v376h-72v124h72v5c0 138 76 219 235 209v-124c-67 5 -106 -17 -106 -85v-5h148v15c0 138 77 209 235 209c38 0 77 -5 118 -14v-118c-43 5 -82 8 -118 8c-66 0 -106 -17 -106 -85v-15h276z" />
    <glyph glyph-name="f_f_l" unicode="ffl" horiz-adv-x="834" 
d="M605 724c64 0 116 -10 170 -21v-703h-129v610c-14 1 -28 1 -41 1c-66 0 -106 -28 -106 -96v-15h84v-124h-84v-376h-129v376h-148v-376h-129v376h-72v124h72v5c0 138 76 219 235 209v-124c-67 5 -106 -17 -106 -85v-5h148v15c0 138 77 209 235 209z" />
    <glyph glyph-name="fi" unicode="fi" horiz-adv-x="557" 
d="M498 500v-500h-129v376h-147v-376h-129v376h-72v124h72v5c0 138 76 209 235 209c38 0 76 -5 117 -14v-118c-42 5 -81 8 -117 8c-67 0 -106 -17 -106 -85v-5h276z" />
    <glyph glyph-name="fl" unicode="fl" horiz-adv-x="557" 
d="M328 714c63 0 115 -10 170 -21v-693h-129v600c-14 1 -28 1 -41 1c-67 0 -106 -28 -106 -96v-5h83v-124h-83v-376h-129v376h-72v124h72v5c0 138 76 209 235 209z" />
    <glyph glyph-name=".notdef" horiz-adv-x="500" 
d="M410 800v-1000h-317v1000h317zM333 733h-165v-33h65v-37h-66v-33h166v33h-66v37h66v33zM267 604h-100v-104h166v34h-66v70zM233 570v-36h-33v36h33zM333 473h-166v-33h66v-37h-66v-33h100v70h66v33zM333 413h-33v-66h-133v-34h166v100zM333 291h-100v-56h34v23h33v-47
h-100v80h-33v-113h166v113zM333 118h-166v-113h166v113zM300 85v-47h-100v47h100zM333 -18h-166v-33h70l-70 -47v-33h166v33h-102l70 47h32v33z" />
    <glyph glyph-name="A" unicode="A" horiz-adv-x="668" 
d="M515 0l-42 126h-279l-42 -126h-149l245 700h171l246 -700h-150zM238 255h192l-96 286z" />
    <glyph glyph-name="Aacute" unicode="&#xc1;" horiz-adv-x="668" 
d="M489 900l-111 -137h-124l80 137h155zM515 0l-42 126h-279l-42 -126h-149l245 700h171l246 -700h-150zM238 255h192l-96 286z" />
    <glyph glyph-name="Abreve" unicode="&#x102;" horiz-adv-x="668" 
d="M334 747c-105 0 -166 53 -166 145h115c0 -35 18 -52 51 -52c34 0 52 17 52 52h115c0 -92 -60 -145 -167 -145zM515 0l-42 126h-279l-42 -126h-149l245 700h171l246 -700h-150zM238 255h192l-96 286z" />
    <glyph glyph-name="Acircumflex" unicode="&#xc2;" horiz-adv-x="668" 
d="M331 820l-44 -65h-128l106 145h131l106 -145h-128zM515 0l-42 126h-279l-42 -126h-149l245 700h171l246 -700h-150zM238 255h192l-96 286z" />
    <glyph glyph-name="Adieresis" unicode="&#xc4;" horiz-adv-x="668" 
d="M239 749c-37 0 -68 30 -68 67s31 68 68 68s67 -31 67 -68s-30 -67 -67 -67zM429 749c-37 0 -68 30 -68 67s31 68 68 68s67 -31 67 -68s-30 -67 -67 -67zM515 0l-42 126h-279l-42 -126h-149l245 700h171l246 -700h-150zM238 255h192l-96 286z" />
    <glyph glyph-name="Agrave" unicode="&#xc0;" horiz-adv-x="668" 
d="M416 763h-124l-111 137h155zM515 0l-42 126h-279l-42 -126h-149l245 700h171l246 -700h-150zM238 255h192l-96 286z" />
    <glyph glyph-name="Amacron" unicode="&#x100;" horiz-adv-x="668" 
d="M479 869v-105h-290v105h290zM515 0l-42 126h-279l-42 -126h-149l245 700h171l246 -700h-150zM238 255h192l-96 286z" />
    <glyph glyph-name="Aogonek" unicode="&#x104;" horiz-adv-x="668" 
d="M637 -122c9 -1 18 1 28 5v-81c-24 -10 -48 -16 -81 -16c-54 0 -95 29 -95 88c0 38 26 84 66 126h-40l-42 126h-279l-42 -126h-149l245 700h171l246 -700c-33 -35 -53 -71 -53 -95c0 -17 9 -27 25 -27zM238 255h192l-96 286z" />
    <glyph glyph-name="Aring" unicode="&#xc5;" horiz-adv-x="668" 
d="M515 0l-42 126h-279l-42 -126h-149l239 684c-21 21 -34 50 -34 84c0 67 52 118 126 118c76 0 126 -51 126 -118c0 -34 -13 -64 -35 -85l240 -683h-150zM334 805c-25 0 -39 -16 -39 -37c0 -22 14 -38 39 -38c27 0 40 16 40 38c0 21 -13 37 -40 37zM238 255h192l-96 286z
" />
    <glyph glyph-name="Atilde" unicode="&#xc3;" horiz-adv-x="668" 
d="M321 784c-39 25 -53 26 -53 -24h-104c0 159 96 176 182 121c39 -25 52 -26 52 24h105c0 -159 -97 -176 -182 -121zM515 0l-42 126h-279l-42 -126h-149l245 700h171l246 -700h-150zM238 255h192l-96 286z" />
    <glyph glyph-name="AE" unicode="&#xc6;" horiz-adv-x="880" 
d="M584 132h264v-132h-398v126h-221l-74 -126h-155l414 700h429v-132h-259v-149h236v-130h-236v-157zM305 255h145v246z" />
    <glyph glyph-name="B" unicode="B" horiz-adv-x="605" 
d="M488 363c56 -32 92 -87 92 -160c0 -120 -97 -203 -218 -203h-297v700h276c118 0 213 -80 213 -197c0 -60 -25 -107 -66 -140zM341 571h-138v-154h138c43 0 75 33 75 77s-31 77 -75 77zM362 129c47 0 81 35 81 83c0 47 -34 82 -81 82h-159v-165h159z" />
    <glyph glyph-name="C" unicode="C" horiz-adv-x="726" 
d="M397 -14c-212 0 -364 160 -364 364c0 205 152 364 364 364c128 0 241 -65 301 -165l-119 -69c-34 62 -102 100 -182 100c-137 0 -227 -95 -227 -230c0 -134 90 -229 227 -229c80 0 149 38 182 99l119 -69c-59 -100 -172 -165 -301 -165z" />
    <glyph glyph-name="Cacute" unicode="&#x106;" horiz-adv-x="726" 
d="M317 771h124l111 137h-155zM397 -14c-212 0 -364 160 -364 364c0 205 152 364 364 364c128 0 241 -65 301 -165l-119 -69c-34 62 -102 100 -182 100c-137 0 -227 -95 -227 -230c0 -134 90 -229 227 -229c80 0 149 38 182 99l119 -69c-59 -100 -172 -165 -301 -165z" />
    <glyph glyph-name="Ccaron" unicode="&#x10c;" horiz-adv-x="726" 
d="M328 763l-106 145h128l44 -65l43 65h128l-106 -145h-131zM397 121c80 0 149 38 182 99l119 -69c-59 -100 -172 -165 -301 -165c-212 0 -364 160 -364 364c0 205 152 364 364 364c128 0 241 -65 301 -165l-119 -69c-34 62 -102 100 -182 100c-137 0 -227 -95 -227 -230
c0 -134 90 -229 227 -229z" />
    <glyph glyph-name="Ccedilla" unicode="&#xc7;" horiz-adv-x="726" 
d="M397 121c80 0 149 38 182 99l119 -69c-50 -85 -139 -144 -243 -161v-36c34 -8 70 -32 70 -78c0 -60 -52 -102 -220 -92v91c73 -5 108 3 108 20c0 16 -24 22 -63 25v69c-187 21 -317 172 -317 361c0 205 152 364 364 364c128 0 241 -65 301 -165l-119 -69
c-34 62 -102 100 -182 100c-137 0 -227 -95 -227 -230c0 -134 90 -229 227 -229z" />
    <glyph glyph-name="Cdotaccent" unicode="&#x10a;" horiz-adv-x="726" 
d="M397 759c-43 0 -78 36 -78 78s35 77 78 77c42 0 77 -35 77 -77s-35 -78 -77 -78zM397 -14c-212 0 -364 160 -364 364c0 205 152 364 364 364c128 0 241 -65 301 -165l-119 -69c-34 62 -102 100 -182 100c-137 0 -227 -95 -227 -230c0 -134 90 -229 227 -229
c80 0 149 38 182 99l119 -69c-59 -100 -172 -165 -301 -165z" />
    <glyph glyph-name="D" unicode="D" horiz-adv-x="713" 
d="M343 700c193 0 337 -153 337 -350s-144 -350 -337 -350h-278v700h278zM343 132c121 0 205 89 205 218s-84 218 -205 218h-140v-436h140z" />
    <glyph glyph-name="Eth" unicode="&#xd0;" horiz-adv-x="748" 
d="M378 700c193 0 337 -153 337 -350s-144 -350 -337 -350h-278v281h-78v124h78v295h278zM378 132c121 0 205 89 205 218s-84 218 -205 218h-140v-163h159v-124h-159v-149h140z" />
    <glyph glyph-name="Dcaron" unicode="&#x10e;" horiz-adv-x="713" 
d="M266 755l-106 145h128l44 -65l43 65h128l-106 -145h-131zM343 700c193 0 337 -153 337 -350s-144 -350 -337 -350h-278v700h278zM343 132c121 0 205 89 205 218s-84 218 -205 218h-140v-436h140z" />
    <glyph glyph-name="Dcroat" unicode="&#x110;" horiz-adv-x="748" 
d="M378 700c193 0 337 -153 337 -350s-144 -350 -337 -350h-278v281h-78v124h78v295h278zM378 132c121 0 205 89 205 218s-84 218 -205 218h-140v-163h159v-124h-159v-149h140z" />
    <glyph glyph-name="E" unicode="E" horiz-adv-x="530" 
d="M203 132h295v-132h-433v700h428v-132h-290v-149h265v-130h-265v-157z" />
    <glyph glyph-name="Eacute" unicode="&#xc9;" horiz-adv-x="530" 
d="M434 900l-111 -137h-124l80 137h155zM203 132h295v-132h-433v700h428v-132h-290v-149h265v-130h-265v-157z" />
    <glyph glyph-name="Ecaron" unicode="&#x11a;" horiz-adv-x="530" 
d="M210 755l-106 145h128l44 -65l43 65h128l-106 -145h-131zM203 132h295v-132h-433v700h428v-132h-290v-149h265v-130h-265v-157z" />
    <glyph glyph-name="Ecircumflex" unicode="&#xca;" horiz-adv-x="530" 
d="M276 820l-44 -65h-128l106 145h131l106 -145h-128zM203 132h295v-132h-433v700h428v-132h-290v-149h265v-130h-265v-157z" />
    <glyph glyph-name="Edieresis" unicode="&#xcb;" horiz-adv-x="530" 
d="M184 749c-37 0 -68 30 -68 67s31 68 68 68s67 -31 67 -68s-30 -67 -67 -67zM374 749c-37 0 -68 30 -68 67s31 68 68 68s67 -31 67 -68s-30 -67 -67 -67zM203 132h295v-132h-433v700h428v-132h-290v-149h265v-130h-265v-157z" />
    <glyph glyph-name="Edotaccent" unicode="&#x116;" horiz-adv-x="530" 
d="M279 751c-43 0 -78 36 -78 78s35 77 78 77c42 0 77 -35 77 -77s-35 -78 -77 -78zM203 132h295v-132h-433v700h428v-132h-290v-149h265v-130h-265v-157z" />
    <glyph glyph-name="Egrave" unicode="&#xc8;" horiz-adv-x="530" 
d="M361 763h-124l-111 137h155zM203 132h295v-132h-433v700h428v-132h-290v-149h265v-130h-265v-157z" />
    <glyph glyph-name="Emacron" unicode="&#x112;" horiz-adv-x="530" 
d="M424 869v-105h-290v105h290zM203 132h295v-132h-433v700h428v-132h-290v-149h265v-130h-265v-157z" />
    <glyph glyph-name="Eogonek" unicode="&#x118;" horiz-adv-x="530" 
d="M203 132h295v-132h-1c-33 -35 -52 -71 -52 -95c-1 -17 8 -27 25 -27c8 -1 17 1 27 5v-81c-24 -10 -48 -16 -80 -16c-55 0 -96 29 -96 88c0 38 26 84 66 126h-322v700h428v-132h-290v-149h265v-130h-265v-157z" />
    <glyph glyph-name="F" unicode="F" horiz-adv-x="519" 
d="M483 568h-280v-166h272v-132h-272v-270h-138v700h418v-132z" />
    <glyph glyph-name="G" unicode="G" horiz-adv-x="785" 
d="M752 376v-54c0 -202 -143 -336 -344 -336c-219 0 -375 163 -375 363c0 203 158 365 367 365c133 0 246 -67 305 -163l-118 -68c-32 56 -103 97 -188 97c-133 0 -229 -98 -229 -231c0 -130 93 -228 239 -228c110 0 180 53 204 133h-212v122h351z" />
    <glyph glyph-name="Gbreve" unicode="&#x11e;" horiz-adv-x="785" 
d="M397 755c-105 0 -166 53 -166 145h115c0 -35 18 -52 51 -52c34 0 52 17 52 52h115c0 -92 -60 -145 -167 -145zM752 376v-54c0 -202 -143 -336 -344 -336c-219 0 -375 163 -375 363c0 203 158 365 367 365c133 0 246 -67 305 -163l-118 -68c-32 56 -103 97 -188 97
c-133 0 -229 -98 -229 -231c0 -130 93 -228 239 -228c110 0 180 53 204 133h-212v122h351z" />
    <glyph glyph-name="Gcommaaccent" unicode="&#x122;" horiz-adv-x="785" 
d="M752 376v-54c0 -202 -143 -336 -344 -336c-219 0 -375 163 -375 363c0 203 158 365 367 365c133 0 246 -67 305 -163l-118 -68c-32 56 -103 97 -188 97c-133 0 -229 -98 -229 -231c0 -130 93 -228 239 -228c110 0 180 53 204 133h-212v122h351zM341 -263l10 200h122
l-30 -200h-102z" />
    <glyph glyph-name="Gdotaccent" unicode="&#x120;" horiz-adv-x="785" 
d="M397 759c-43 0 -78 36 -78 78s35 77 78 77c42 0 77 -35 77 -77s-35 -78 -77 -78zM752 376v-54c0 -202 -143 -336 -344 -336c-219 0 -375 163 -375 363c0 203 158 365 367 365c133 0 246 -67 305 -163l-118 -68c-32 56 -103 97 -188 97c-133 0 -229 -98 -229 -231
c0 -130 93 -228 239 -228c110 0 180 53 204 133h-212v122h351z" />
    <glyph glyph-name="H" unicode="H" horiz-adv-x="665" 
d="M463 700h137v-700h-137v290h-260v-290h-138v700h138v-278h260v278z" />
    <glyph glyph-name="Hbar" unicode="&#x126;" horiz-adv-x="708" 
d="M683 602v-101h-62v-501h-137v272h-260v-272h-138v501h-61v101h61v98h138v-98h260v98h137v-98h62zM484 404v97h-260v-97h260z" />
    <glyph glyph-name="I" unicode="I" horiz-adv-x="268" 
d="M65 700h138v-700h-138v700z" />
    <glyph glyph-name="Iacute" unicode="&#xcd;" horiz-adv-x="268" 
d="M54 763h124l111 137h-155zM65 700h138v-700h-138v700z" />
    <glyph glyph-name="Icircumflex" unicode="&#xce;" horiz-adv-x="268" 
d="M131 820l-44 -65h-128l106 145h131l106 -145h-128zM65 0v700h138v-700h-138z" />
    <glyph glyph-name="Idieresis" unicode="&#xcf;" horiz-adv-x="268" 
d="M39 749c-37 0 -68 30 -68 67s31 68 68 68s67 -31 67 -68s-30 -67 -67 -67zM229 749c-37 0 -68 30 -68 67s31 68 68 68s67 -31 67 -68s-30 -67 -67 -67zM65 700h138v-700h-138v700z" />
    <glyph glyph-name="Idotaccent" unicode="&#x130;" horiz-adv-x="268" 
d="M134 751c-43 0 -78 36 -78 78s35 77 78 77c42 0 77 -35 77 -77s-35 -78 -77 -78zM65 700h138v-700h-138v700z" />
    <glyph glyph-name="Igrave" unicode="&#xcc;" horiz-adv-x="268" 
d="M216 763l-80 137h-155l111 -137h124zM65 700h138v-700h-138v700z" />
    <glyph glyph-name="Imacron" unicode="&#x12a;" horiz-adv-x="268" 
d="M-11 764v105h290v-105h-290zM65 700h138v-700h-138v700z" />
    <glyph glyph-name="Iogonek" unicode="&#x12e;" horiz-adv-x="268" 
d="M194 -122c8 -1 17 1 28 5v-81c-25 -10 -48 -16 -81 -16c-55 0 -96 29 -96 88c0 39 19 85 46 126h-26v700h138v-700c-22 -36 -34 -68 -34 -95c-1 -17 8 -27 25 -27z" />
    <glyph glyph-name="J" unicode="J" horiz-adv-x="569" 
d="M264 -14c-107 0 -188 46 -231 133l119 68c22 -44 54 -66 112 -66c76 0 109 40 109 97v482h137v-482c0 -151 -108 -232 -246 -232z" />
    <glyph glyph-name="K" unicode="K" horiz-adv-x="615" 
d="M612 0h-159l-250 328v-328h-138v700h138v-309l240 309h159l-259 -340z" />
    <glyph glyph-name="Kcommaaccent" unicode="&#x136;" horiz-adv-x="615" 
d="M343 360l269 -360h-159l-250 328v-328h-138v700h138v-309l240 309h159zM242 -263l10 200h122l-30 -200h-102z" />
    <glyph glyph-name="L" unicode="L" horiz-adv-x="483" 
d="M203 132h267v-132h-405v700h138v-568z" />
    <glyph glyph-name="Lacute" unicode="&#x139;" horiz-adv-x="483" 
d="M302 900l-111 -137h-124l80 137h155zM203 132h267v-132h-405v700h138v-568z" />
    <glyph glyph-name="Lcaron" unicode="&#x13d;" horiz-adv-x="483" 
d="M203 132h267v-132h-405v700h138v-568zM406 700l-30 -185h-109l10 185h129z" />
    <glyph glyph-name="Lcommaaccent" unicode="&#x13b;" horiz-adv-x="483" 
d="M203 132h267v-132h-405v700h138v-568zM209 -263l10 200h122l-30 -200h-102z" />
    <glyph glyph-name="Lslash" unicode="&#x141;" horiz-adv-x="503" 
d="M223 132h267v-132h-405v211l-60 -36v138l60 36v351h138v-269l132 78v-138l-132 -78v-161z" />
    <glyph glyph-name="M" unicode="M" horiz-adv-x="815" 
d="M750 700v-700h-137v454l-197 -325h-16l-197 324v-453h-138v700h142l201 -331l200 331h142z" />
    <glyph glyph-name="N" unicode="N" horiz-adv-x="673" 
d="M470 700h138v-700h-105l-300 428v-428h-138v700h105l300 -427v427z" />
    <glyph glyph-name="Nacute" unicode="&#x143;" horiz-adv-x="673" 
d="M249 763h124l111 137h-155zM470 700h138v-700h-105l-300 428v-428h-138v700h105l300 -427v427z" />
    <glyph glyph-name="Ncaron" unicode="&#x147;" horiz-adv-x="673" 
d="M260 755l-106 145h128l44 -65l43 65h128l-106 -145h-131zM470 700h138v-700h-105l-300 428v-428h-138v700h105l300 -427v427z" />
    <glyph glyph-name="Ncommaaccent" unicode="&#x145;" horiz-adv-x="673" 
d="M470 700h138v-700h-105l-300 428v-428h-138v700h105l300 -427v427zM373 -263l30 200h-122l-10 -200h102z" />
    <glyph glyph-name="Eng" unicode="&#x14a;" horiz-adv-x="673" 
d="M470 700h138v-700c0 -137 -86 -208 -233 -200v126c60 0 95 16 95 82v39l-267 381v-428h-138v700h105l300 -427v427z" />
    <glyph glyph-name="Ntilde" unicode="&#xd1;" horiz-adv-x="673" 
d="M159 760c0 159 96 176 182 121c39 -25 52 -26 52 24h105c0 -159 -97 -176 -182 -121c-39 25 -53 26 -53 -24h-104zM470 700h138v-700h-105l-300 428v-428h-138v700h105l300 -427v427z" />
    <glyph glyph-name="O" unicode="O" horiz-adv-x="792" 
d="M396 -14c-202 0 -363 160 -363 364c0 205 161 364 363 364s364 -159 364 -364c0 -204 -162 -364 -364 -364zM396 121c127 0 226 95 226 229c0 135 -99 230 -226 230s-226 -95 -226 -230c0 -134 99 -229 226 -229z" />
    <glyph glyph-name="Oacute" unicode="&#xd3;" horiz-adv-x="792" 
d="M316 771h124l111 137h-155zM396 -14c-202 0 -363 160 -363 364c0 205 161 364 363 364s364 -159 364 -364c0 -204 -162 -364 -364 -364zM396 121c127 0 226 95 226 229c0 135 -99 230 -226 230s-226 -95 -226 -230c0 -134 99 -229 226 -229z" />
    <glyph glyph-name="Ocircumflex" unicode="&#xd4;" horiz-adv-x="792" 
d="M393 828l-44 -65h-128l106 145h131l106 -145h-128zM396 714c202 0 364 -159 364 -364c0 -204 -162 -364 -364 -364s-363 160 -363 364c0 205 161 364 363 364zM396 121c127 0 226 95 226 229c0 135 -99 230 -226 230s-226 -95 -226 -230c0 -134 99 -229 226 -229z" />
    <glyph glyph-name="Odieresis" unicode="&#xd6;" horiz-adv-x="792" 
d="M301 757c-37 0 -68 30 -68 67s31 68 68 68s67 -31 67 -68s-30 -67 -67 -67zM491 757c-37 0 -68 30 -68 67s31 68 68 68s67 -31 67 -68s-30 -67 -67 -67zM396 -14c-202 0 -363 160 -363 364c0 205 161 364 363 364s364 -159 364 -364c0 -204 -162 -364 -364 -364zM396 121
c127 0 226 95 226 229c0 135 -99 230 -226 230s-226 -95 -226 -230c0 -134 99 -229 226 -229z" />
    <glyph glyph-name="Ograve" unicode="&#xd2;" horiz-adv-x="792" 
d="M478 771l-80 137h-155l111 -137h124zM396 -14c-202 0 -363 160 -363 364c0 205 161 364 363 364s364 -159 364 -364c0 -204 -162 -364 -364 -364zM396 121c127 0 226 95 226 229c0 135 -99 230 -226 230s-226 -95 -226 -230c0 -134 99 -229 226 -229z" />
    <glyph glyph-name="Ohungarumlaut" unicode="&#x150;" horiz-adv-x="792" 
d="M221 763h128l84 138h-134zM394 763h128l94 138h-134zM396 -14c-202 0 -363 160 -363 364c0 205 161 364 363 364s364 -159 364 -364c0 -204 -162 -364 -364 -364zM396 121c127 0 226 95 226 229c0 135 -99 230 -226 230s-226 -95 -226 -230c0 -134 99 -229 226 -229z" />
    <glyph glyph-name="Omacron" unicode="&#x14c;" horiz-adv-x="792" 
d="M251 772v105h290v-105h-290zM396 -14c-202 0 -363 160 -363 364c0 205 161 364 363 364s364 -159 364 -364c0 -204 -162 -364 -364 -364zM396 121c127 0 226 95 226 229c0 135 -99 230 -226 230s-226 -95 -226 -230c0 -134 99 -229 226 -229z" />
    <glyph glyph-name="Oslash" unicode="&#xd8;" horiz-adv-x="798" 
d="M664 605c63 -65 102 -155 102 -255c0 -204 -162 -364 -364 -364c-75 0 -144 22 -201 60l-47 -57l-68 40l55 66c-63 66 -102 155 -102 255c0 205 161 364 363 364c75 0 144 -22 202 -60l47 57l68 -39zM176 350c0 -59 19 -111 52 -150l290 350c-34 19 -73 30 -116 30
c-127 0 -226 -95 -226 -230zM402 121c127 0 226 95 226 229c0 59 -19 111 -51 150l-290 -350c34 -19 73 -29 115 -29z" />
    <glyph glyph-name="Otilde" unicode="&#xd5;" horiz-adv-x="792" 
d="M226 768c0 159 96 176 182 121c39 -25 52 -26 52 24h105c0 -159 -97 -176 -182 -121c-39 25 -53 26 -53 -24h-104zM396 -14c-202 0 -363 160 -363 364c0 205 161 364 363 364s364 -159 364 -364c0 -204 -162 -364 -364 -364zM396 121c127 0 226 95 226 229
c0 135 -99 230 -226 230s-226 -95 -226 -230c0 -134 99 -229 226 -229z" />
    <glyph glyph-name="OE" unicode="&#x152;" horiz-adv-x="916" 
d="M623 132h260v-132h-397c-31 -9 -65 -14 -100 -14c-202 0 -353 160 -353 364c0 205 151 364 353 364c35 0 69 -5 100 -14h392v-132h-255v-149h233v-130h-233v-157zM486 136v429c-30 10 -64 15 -100 15c-127 0 -216 -95 -216 -230c0 -134 89 -229 216 -229
c36 0 70 4 100 15z" />
    <glyph glyph-name="P" unicode="P" horiz-adv-x="590" 
d="M326 700c135 0 239 -104 239 -235s-104 -235 -239 -235h-123v-230h-138v700h261zM326 359c59 0 102 46 102 106c0 61 -43 106 -102 106h-123v-212h123z" />
    <glyph glyph-name="Thorn" unicode="&#xde;" horiz-adv-x="590" 
d="M330 585c131 0 235 -104 235 -235s-104 -235 -235 -235h-127v-115h-138v700h138v-115h127zM330 244c55 0 98 46 98 106c0 61 -43 106 -98 106h-127v-212h127z" />
    <glyph glyph-name="Q" unicode="Q" horiz-adv-x="797" 
d="M760 350c0 -91 -32 -173 -86 -236l72 -75l-98 -87l-76 79c-52 -29 -112 -45 -176 -45c-201 0 -363 160 -363 364c0 205 162 364 363 364s364 -159 364 -364zM396 121c27 0 54 5 78 13l-115 120l98 87l123 -128c26 37 42 84 42 137c0 135 -100 230 -226 230
s-226 -95 -226 -230c0 -134 100 -229 226 -229z" />
    <glyph glyph-name="R" unicode="R" horiz-adv-x="614" 
d="M449 0l-141 243h-105v-243h-138v700h280c129 0 233 -104 233 -232c0 -88 -55 -167 -135 -204l155 -264h-149zM203 571v-207h142c52 0 95 46 95 104s-43 103 -95 103h-142z" />
    <glyph glyph-name="Racute" unicode="&#x154;" horiz-adv-x="614" 
d="M450 900l-111 -137h-124l80 137h155zM449 0l-141 243h-105v-243h-138v700h280c129 0 233 -104 233 -232c0 -88 -55 -167 -135 -204l155 -264h-149zM203 571v-207h142c52 0 95 46 95 104s-43 103 -95 103h-142z" />
    <glyph glyph-name="Rcaron" unicode="&#x158;" horiz-adv-x="614" 
d="M226 755l-106 145h128l44 -65l43 65h128l-106 -145h-131zM449 0l-141 243h-105v-243h-138v700h280c129 0 233 -104 233 -232c0 -88 -55 -167 -135 -204l155 -264h-149zM203 571v-207h142c52 0 95 46 95 104s-43 103 -95 103h-142z" />
    <glyph glyph-name="Rcommaaccent" unicode="&#x156;" horiz-adv-x="614" 
d="M443 264l155 -264h-149l-141 243h-105v-243h-138v700h280c129 0 233 -104 233 -232c0 -88 -55 -167 -135 -204zM203 571v-207h142c52 0 95 46 95 104s-43 103 -95 103h-142zM258 -263l10 200h122l-30 -200h-102z" />
    <glyph glyph-name="S" unicode="S" horiz-adv-x="583" 
d="M304 -14c-143 0 -237 69 -275 173l118 69c25 -65 74 -107 161 -107c83 0 112 35 112 74c0 52 -47 72 -151 102c-107 31 -211 76 -211 209c0 132 110 208 230 208c115 0 203 -59 250 -157l-116 -67c-25 53 -63 90 -134 90c-58 0 -92 -30 -92 -70c0 -43 27 -66 133 -98
c111 -35 229 -72 229 -215c0 -131 -105 -211 -254 -211z" />
    <glyph glyph-name="Sacute" unicode="&#x15a;" horiz-adv-x="583" 
d="M213 771h124l111 137h-155zM304 -14c-143 0 -237 69 -275 173l118 69c25 -65 74 -107 161 -107c83 0 112 35 112 74c0 52 -47 72 -151 102c-107 31 -211 76 -211 209c0 132 110 208 230 208c115 0 203 -59 250 -157l-116 -67c-25 53 -63 90 -134 90
c-58 0 -92 -30 -92 -70c0 -43 27 -66 133 -98c111 -35 229 -72 229 -215c0 -131 -105 -211 -254 -211z" />
    <glyph glyph-name="Scaron" unicode="&#x160;" horiz-adv-x="583" 
d="M224 763l-106 145h128l44 -65l43 65h128l-106 -145h-131zM329 412c111 -35 229 -72 229 -215c0 -131 -105 -211 -254 -211c-143 0 -237 69 -275 173l118 69c25 -65 74 -107 161 -107c83 0 112 35 112 74c0 52 -47 72 -151 102c-107 31 -211 76 -211 209
c0 132 110 208 230 208c115 0 203 -59 250 -157l-116 -67c-25 53 -63 90 -134 90c-58 0 -92 -30 -92 -70c0 -43 27 -66 133 -98z" />
    <glyph glyph-name="Scedilla" unicode="&#x15e;" horiz-adv-x="583" 
d="M558 197c0 -115 -80 -190 -200 -207v-36c34 -8 70 -32 70 -78c0 -60 -52 -102 -220 -92v91c73 -5 108 3 108 20c0 16 -24 22 -63 25v69c-114 15 -191 79 -224 170l118 69c25 -65 74 -107 161 -107c83 0 112 35 112 74c0 52 -47 72 -151 102c-107 31 -211 76 -211 209
c0 132 110 208 230 208c115 0 203 -59 250 -157l-116 -67c-25 53 -63 90 -134 90c-58 0 -92 -30 -92 -70c0 -43 27 -66 133 -98c111 -35 229 -72 229 -215z" />
    <glyph glyph-name="Scommaaccent" unicode="&#x218;" horiz-adv-x="583" 
d="M304 -14c-143 0 -237 69 -275 173l118 69c25 -65 74 -107 161 -107c83 0 112 35 112 74c0 52 -47 72 -151 102c-107 31 -211 76 -211 209c0 132 110 208 230 208c115 0 203 -59 250 -157l-116 -67c-25 53 -63 90 -134 90c-58 0 -92 -30 -92 -70c0 -43 27 -66 133 -98
c111 -35 229 -72 229 -215c0 -131 -105 -211 -254 -211zM341 -263l30 200h-122l-10 -200h102z" />
    <glyph glyph-name="T" unicode="T" horiz-adv-x="540" 
d="M528 700v-132h-189v-568h-138v568h-188v132h515z" />
    <glyph glyph-name="Tbar" unicode="&#x166;" horiz-adv-x="540" 
d="M528 568h-189v-163h119v-124h-119v-281h-138v281h-118v124h118v163h-188v132h515v-132z" />
    <glyph glyph-name="Tcaron" unicode="&#x164;" horiz-adv-x="540" 
d="M201 755l-106 145h128l44 -65l43 65h128l-106 -145h-131zM528 700v-132h-189v-568h-138v568h-188v132h515z" />
    <glyph glyph-name="uni0162" unicode="&#x162;" horiz-adv-x="540" 
d="M528 700v-132h-189v-568h-138v568h-188v132h515zM205 -263l10 200h122l-30 -200h-102z" />
    <glyph glyph-name="uni021A" unicode="&#x21a;" horiz-adv-x="540" 
d="M528 700v-132h-189v-568h-138v568h-188v132h515zM205 -263l10 200h122l-30 -200h-102z" />
    <glyph glyph-name="U" unicode="U" horiz-adv-x="653" 
d="M326 -14c-153 0 -267 92 -267 243v471h137v-460c0 -68 36 -119 130 -119s130 51 130 119v460h138v-471c0 -151 -114 -243 -268 -243z" />
    <glyph glyph-name="Uacute" unicode="&#xda;" horiz-adv-x="653" 
d="M246 763h124l111 137h-155zM326 -14c-153 0 -267 92 -267 243v471h137v-460c0 -68 36 -119 130 -119s130 51 130 119v460h138v-471c0 -151 -114 -243 -268 -243z" />
    <glyph glyph-name="Ucircumflex" unicode="&#xdb;" horiz-adv-x="653" 
d="M323 820l-44 -65h-128l106 145h131l106 -145h-128zM456 700h138v-471c0 -151 -114 -243 -268 -243c-153 0 -267 92 -267 243v471h137v-460c0 -68 36 -119 130 -119s130 51 130 119v460z" />
    <glyph glyph-name="Udieresis" unicode="&#xdc;" horiz-adv-x="653" 
d="M231 749c-37 0 -68 30 -68 67s31 68 68 68s67 -31 67 -68s-30 -67 -67 -67zM421 749c-37 0 -68 30 -68 67s31 68 68 68s67 -31 67 -68s-30 -67 -67 -67zM326 -14c-153 0 -267 92 -267 243v471h137v-460c0 -68 36 -119 130 -119s130 51 130 119v460h138v-471
c0 -151 -114 -243 -268 -243z" />
    <glyph glyph-name="Ugrave" unicode="&#xd9;" horiz-adv-x="653" 
d="M408 763l-80 137h-155l111 -137h124zM326 -14c-153 0 -267 92 -267 243v471h137v-460c0 -68 36 -119 130 -119s130 51 130 119v460h138v-471c0 -151 -114 -243 -268 -243z" />
    <glyph glyph-name="Uhungarumlaut" unicode="&#x170;" horiz-adv-x="653" 
d="M151 755h128l84 138h-134zM324 755h128l94 138h-134zM326 -14c-153 0 -267 92 -267 243v471h137v-460c0 -68 36 -119 130 -119s130 51 130 119v460h138v-471c0 -151 -114 -243 -268 -243z" />
    <glyph glyph-name="Umacron" unicode="&#x16a;" horiz-adv-x="653" 
d="M181 764v105h290v-105h-290zM326 -14c-153 0 -267 92 -267 243v471h137v-460c0 -68 36 -119 130 -119s130 51 130 119v460h138v-471c0 -151 -114 -243 -268 -243z" />
    <glyph glyph-name="Uogonek" unicode="&#x172;" horiz-adv-x="653" 
d="M456 700h138v-471c0 -82 -34 -147 -90 -189c-68 -63 -91 -96 -92 -135c-1 -17 8 -26 25 -27c8 -1 17 1 27 5v-81c-24 -10 -48 -16 -80 -16c-55 0 -96 29 -96 88c0 34 21 74 54 112h-16c-153 0 -267 92 -267 243v471h137v-460c0 -68 36 -119 130 -119s130 51 130 119v460z
" />
    <glyph glyph-name="Uring" unicode="&#x16e;" horiz-adv-x="653" 
d="M326 709c-74 0 -126 51 -126 119c0 67 52 118 126 118c76 0 126 -51 126 -118c0 -68 -50 -119 -126 -119zM326 790c27 0 40 16 40 38c0 21 -13 37 -40 37c-25 0 -39 -16 -39 -37c0 -22 14 -38 39 -38zM326 -14c-153 0 -267 92 -267 243v471h137v-460
c0 -68 36 -119 130 -119s130 51 130 119v460h138v-471c0 -151 -114 -243 -268 -243z" />
    <glyph glyph-name="V" unicode="V" horiz-adv-x="647" 
d="M238 0l-235 700h150l171 -538l170 538h151l-236 -700h-171z" />
    <glyph glyph-name="W" unicode="W" horiz-adv-x="999" 
d="M211 0l-196 700h145l134 -519l146 519h118l147 -519l134 519h145l-196 -700h-157l-132 462l-131 -462h-157z" />
    <glyph glyph-name="Wacute" unicode="&#x1e82;" horiz-adv-x="999" 
d="M449 763h124l111 137h-155zM211 0l-196 700h145l134 -519l146 519h118l147 -519l134 519h145l-196 -700h-157l-132 462l-131 -462h-157z" />
    <glyph glyph-name="Wcircumflex" unicode="&#x174;" horiz-adv-x="999" 
d="M526 820l-44 -65h-128l106 145h131l106 -145h-128zM839 700h145l-196 -700h-157l-132 462l-131 -462h-157l-196 700h145l134 -519l146 519h118l147 -519z" />
    <glyph glyph-name="Wdieresis" unicode="&#x1e84;" horiz-adv-x="999" 
d="M434 749c-37 0 -68 30 -68 67s31 68 68 68s67 -31 67 -68s-30 -67 -67 -67zM624 749c-37 0 -68 30 -68 67s31 68 68 68s67 -31 67 -68s-30 -67 -67 -67zM211 0l-196 700h145l134 -519l146 519h118l147 -519l134 519h145l-196 -700h-157l-132 462l-131 -462h-157z" />
    <glyph glyph-name="Wgrave" unicode="&#x1e80;" horiz-adv-x="999" 
d="M611 763l-80 137h-155l111 -137h124zM211 0l-196 700h145l134 -519l146 519h118l147 -519l134 519h145l-196 -700h-157l-132 462l-131 -462h-157z" />
    <glyph glyph-name="X" unicode="X" horiz-adv-x="610" 
d="M598 0h-157l-136 228l-136 -228h-156l214 359l-203 341h156l125 -210l125 210h156l-203 -340z" />
    <glyph glyph-name="Y" unicode="Y" horiz-adv-x="621" 
d="M619 700l-240 -427v-273h-137v273l-239 427h156l152 -292l152 292h156z" />
    <glyph glyph-name="Yacute" unicode="&#xdd;" horiz-adv-x="621" 
d="M465 900l-111 -137h-124l80 137h155zM619 700l-240 -427v-273h-137v273l-239 427h156l152 -292l152 292h156z" />
    <glyph glyph-name="Ycircumflex" unicode="&#x176;" horiz-adv-x="621" 
d="M307 820l-44 -65h-128l106 145h131l106 -145h-128zM619 700l-240 -427v-273h-137v273l-239 427h156l152 -292l152 292h156z" />
    <glyph glyph-name="Ydieresis" unicode="&#x178;" horiz-adv-x="621" 
d="M215 749c-37 0 -68 30 -68 67s31 68 68 68s67 -31 67 -68s-30 -67 -67 -67zM405 749c-37 0 -68 30 -68 67s31 68 68 68s67 -31 67 -68s-30 -67 -67 -67zM619 700l-240 -427v-273h-137v273l-239 427h156l152 -292l152 292h156z" />
    <glyph glyph-name="Ygrave" unicode="&#x1ef2;" horiz-adv-x="621" 
d="M392 763h-124l-111 137h155zM619 700l-240 -427v-273h-137v273l-239 427h156l152 -292l152 292h156z" />
    <glyph glyph-name="Z" unicode="Z" horiz-adv-x="535" 
d="M212 132h297v-132h-473v110l291 458h-284v132h460v-109z" />
    <glyph glyph-name="Zacute" unicode="&#x179;" horiz-adv-x="535" 
d="M428 900l-111 -137h-124l80 137h155zM212 132h297v-132h-473v110l291 458h-284v132h460v-109z" />
    <glyph glyph-name="Zcaron" unicode="&#x17d;" horiz-adv-x="535" 
d="M204 755l-106 145h128l44 -65l43 65h128l-106 -145h-131zM212 132h297v-132h-473v110l291 458h-284v132h460v-109z" />
    <glyph glyph-name="Zdotaccent" unicode="&#x17b;" horiz-adv-x="535" 
d="M273 751c-43 0 -78 36 -78 78s35 77 78 77c42 0 77 -35 77 -77s-35 -78 -77 -78zM212 132h297v-132h-473v110l291 458h-284v132h460v-109z" />
    <glyph glyph-name="a" unicode="a" 
d="M439 500h129v-500h-129v59c-36 -45 -90 -73 -163 -73c-133 0 -243 115 -243 264s110 264 243 264c73 0 127 -28 163 -73v59zM300 109c80 0 139 57 139 141s-59 141 -139 141c-79 0 -138 -57 -138 -141s59 -141 138 -141z" />
    <glyph glyph-name="aacute" unicode="&#xe1;" 
d="M464 700l-111 -137h-124l80 137h155zM439 500h129v-500h-129v59c-36 -45 -90 -73 -163 -73c-133 0 -243 115 -243 264s110 264 243 264c73 0 127 -28 163 -73v59zM300 109c80 0 139 57 139 141s-59 141 -139 141c-79 0 -138 -57 -138 -141s59 -141 138 -141z" />
    <glyph glyph-name="abreve" unicode="&#x103;" 
d="M309 547c-105 0 -166 53 -166 145h115c0 -35 18 -52 51 -52c34 0 52 17 52 52h115c0 -92 -60 -145 -167 -145zM439 500h129v-500h-129v59c-36 -45 -90 -73 -163 -73c-133 0 -243 115 -243 264s110 264 243 264c73 0 127 -28 163 -73v59zM300 109c80 0 139 57 139 141
s-59 141 -139 141c-79 0 -138 -57 -138 -141s59 -141 138 -141z" />
    <glyph glyph-name="acircumflex" unicode="&#xe2;" 
d="M306 620l-44 -65h-128l106 145h131l106 -145h-128zM439 500h129v-500h-129v59c-36 -45 -90 -73 -163 -73c-133 0 -243 115 -243 264s110 264 243 264c73 0 127 -28 163 -73v59zM300 109c80 0 139 57 139 141s-59 141 -139 141c-79 0 -138 -57 -138 -141s59 -141 138 -141
z" />
    <glyph glyph-name="adieresis" unicode="&#xe4;" 
d="M214 549c-37 0 -68 30 -68 67s31 68 68 68s67 -31 67 -68s-30 -67 -67 -67zM404 549c-37 0 -68 30 -68 67s31 68 68 68s67 -31 67 -68s-30 -67 -67 -67zM439 500h129v-500h-129v59c-36 -45 -90 -73 -163 -73c-133 0 -243 115 -243 264s110 264 243 264
c73 0 127 -28 163 -73v59zM300 109c80 0 139 57 139 141s-59 141 -139 141c-79 0 -138 -57 -138 -141s59 -141 138 -141z" />
    <glyph glyph-name="agrave" unicode="&#xe0;" 
d="M391 563h-124l-111 137h155zM439 500h129v-500h-129v59c-36 -45 -90 -73 -163 -73c-133 0 -243 115 -243 264s110 264 243 264c73 0 127 -28 163 -73v59zM300 109c80 0 139 57 139 141s-59 141 -139 141c-79 0 -138 -57 -138 -141s59 -141 138 -141z" />
    <glyph glyph-name="amacron" unicode="&#x101;" 
d="M454 669v-105h-290v105h290zM439 500h129v-500h-129v59c-36 -45 -90 -73 -163 -73c-133 0 -243 115 -243 264s110 264 243 264c73 0 127 -28 163 -73v59zM300 109c80 0 139 57 139 141s-59 141 -139 141c-79 0 -138 -57 -138 -141s59 -141 138 -141z" />
    <glyph glyph-name="aogonek" unicode="&#x105;" 
d="M568 0c-34 -35 -53 -71 -53 -95c-1 -17 8 -27 25 -27c8 -1 17 1 28 5v-81c-25 -10 -48 -16 -81 -16c-55 0 -96 29 -96 88c0 37 24 82 64 126h-16v59c-36 -45 -90 -73 -163 -73c-133 0 -243 115 -243 264s110 264 243 264c73 0 127 -28 163 -73v59h129v-500zM300 109
c80 0 139 57 139 141s-59 141 -139 141c-79 0 -138 -57 -138 -141s59 -141 138 -141z" />
    <glyph glyph-name="aring" unicode="&#xe5;" 
d="M309 539c-74 0 -126 51 -126 119c0 67 52 118 126 118c76 0 126 -51 126 -118c0 -68 -50 -119 -126 -119zM309 695c-25 0 -39 -16 -39 -37c0 -22 14 -38 39 -38c27 0 40 16 40 38c0 21 -13 37 -40 37zM439 500h129v-500h-129v59c-36 -45 -90 -73 -163 -73
c-133 0 -243 115 -243 264s110 264 243 264c73 0 127 -28 163 -73v59zM300 109c80 0 139 57 139 141s-59 141 -139 141c-79 0 -138 -57 -138 -141s59 -141 138 -141z" />
    <glyph glyph-name="atilde" unicode="&#xe3;" 
d="M296 584c-39 25 -53 26 -53 -24h-104c0 159 96 176 182 121c39 -25 52 -26 52 24h105c0 -159 -97 -176 -182 -121zM439 500h129v-500h-129v59c-36 -45 -90 -73 -163 -73c-133 0 -243 115 -243 264s110 264 243 264c73 0 127 -28 163 -73v59zM300 109c80 0 139 57 139 141
s-59 141 -139 141c-79 0 -138 -57 -138 -141s59 -141 138 -141z" />
    <glyph glyph-name="ae" unicode="&#xe6;" horiz-adv-x="988" 
d="M575 197c19 -66 75 -94 140 -94c51 0 91 21 113 50l104 -60c-47 -68 -107 -107 -202 -107c-72 0 -130 29 -170 77v-63h-121v59c-36 -45 -90 -73 -163 -73c-133 0 -243 115 -243 264s110 264 243 264c73 0 127 -28 163 -73v59h121v-62c39 47 95 76 166 76
c148 0 231 -117 231 -264c0 -19 -2 -36 -5 -53h-377zM573 298h255c-15 72 -68 100 -123 100c-69 0 -116 -37 -132 -100zM300 109c80 0 139 57 139 141s-59 141 -139 141c-79 0 -138 -57 -138 -141s59 -141 138 -141z" />
    <glyph glyph-name="b" unicode="b" 
d="M350 514c134 0 244 -115 244 -264s-110 -264 -244 -264c-73 0 -126 27 -162 73v-59h-129v700h129v-259c36 46 89 73 162 73zM326 109c80 0 139 57 139 141s-59 141 -139 141c-79 0 -138 -57 -138 -141s59 -141 138 -141z" />
    <glyph glyph-name="c" unicode="c" horiz-adv-x="536" 
d="M297 -14c-152 0 -264 115 -264 264s112 264 264 264c98 0 183 -52 224 -129l-111 -65c-20 41 -63 67 -114 67c-77 0 -134 -57 -134 -137c0 -79 57 -136 134 -136c52 0 95 25 115 66l112 -64c-43 -78 -128 -130 -226 -130z" />
    <glyph glyph-name="cacute" unicode="&#x107;" horiz-adv-x="536" 
d="M216 563h124l111 137h-155zM297 -14c-152 0 -264 115 -264 264s112 264 264 264c98 0 183 -52 224 -129l-111 -65c-20 41 -63 67 -114 67c-77 0 -134 -57 -134 -137c0 -79 57 -136 134 -136c52 0 95 25 115 66l112 -64c-43 -78 -128 -130 -226 -130z" />
    <glyph glyph-name="ccaron" unicode="&#x10d;" horiz-adv-x="536" 
d="M227 555l-106 145h128l44 -65l43 65h128l-106 -145h-131zM411 180l112 -64c-43 -78 -128 -130 -226 -130c-152 0 -264 115 -264 264s112 264 264 264c98 0 183 -52 224 -129l-111 -65c-20 41 -63 67 -114 67c-77 0 -134 -57 -134 -137c0 -79 57 -136 134 -136
c52 0 95 25 115 66z" />
    <glyph glyph-name="ccedilla" unicode="&#xe7;" horiz-adv-x="536" 
d="M523 116c-34 -62 -95 -108 -168 -124v-38c34 -8 70 -32 70 -78c0 -60 -52 -102 -220 -92v91c73 -5 108 3 108 20c0 16 -24 22 -63 25v70c-128 21 -217 127 -217 260c0 149 112 264 264 264c98 0 183 -52 224 -129l-111 -65c-20 41 -63 67 -114 67
c-77 0 -134 -57 -134 -137c0 -79 57 -136 134 -136c52 0 95 25 115 66z" />
    <glyph glyph-name="cdotaccent" unicode="&#x10b;" horiz-adv-x="536" 
d="M296 551c-43 0 -78 36 -78 78s35 77 78 77c42 0 77 -35 77 -77s-35 -78 -77 -78zM297 -14c-152 0 -264 115 -264 264s112 264 264 264c98 0 183 -52 224 -129l-111 -65c-20 41 -63 67 -114 67c-77 0 -134 -57 -134 -137c0 -79 57 -136 134 -136c52 0 95 25 115 66
l112 -64c-43 -78 -128 -130 -226 -130z" />
    <glyph glyph-name="d" unicode="d" 
d="M438 700h129v-700h-129v59c-36 -46 -89 -73 -162 -73c-134 0 -244 115 -244 264s110 264 244 264c73 0 126 -27 162 -73v259zM300 109c79 0 138 57 138 141s-59 141 -138 141c-80 0 -139 -57 -139 -141s59 -141 139 -141z" />
    <glyph glyph-name="eth" unicode="&#xf0;" horiz-adv-x="571" 
d="M493 370c27 -37 46 -85 46 -140c0 -152 -119 -242 -253 -242s-253 90 -253 242c0 132 109 235 243 225l-58 80l-127 -63v90l79 39l-72 99h149l33 -44l118 58v-90l-69 -34zM286 109c70 0 124 45 124 121c0 28 -9 53 -21 70c-21 27 -52 47 -103 47
c-72 0 -124 -45 -124 -117c0 -76 53 -121 124 -121z" />
    <glyph glyph-name="dcaron" unicode="&#x10f;" horiz-adv-x="735" 
d="M438 441v259h129v-700h-129v59c-36 -46 -89 -73 -162 -73c-134 0 -244 115 -244 264s110 264 244 264c73 0 126 -27 162 -73zM624 700h121l-30 -200h-101zM300 109c79 0 138 57 138 141s-59 141 -138 141c-80 0 -139 -57 -139 -141s59 -141 139 -141z" />
    <glyph glyph-name="dcroat" unicode="&#x111;" horiz-adv-x="633" 
d="M630 638v-84h-62v-554h-129v59c-36 -45 -90 -73 -163 -73c-133 0 -243 115 -243 264s110 264 243 264c73 0 127 -28 163 -73v113h-151v84h151v62h129v-62h62zM300 109c80 0 139 57 139 141s-59 141 -139 141c-79 0 -138 -57 -138 -141s59 -141 138 -141z" />
    <glyph glyph-name="e" unicode="e" horiz-adv-x="581" 
d="M168 197c18 -66 73 -94 141 -94c50 0 90 21 112 50l104 -60c-47 -68 -122 -107 -218 -107c-168 0 -274 115 -274 264s107 264 264 264c148 0 253 -117 253 -264c0 -19 -2 -36 -5 -53h-377zM166 297h255c-16 72 -70 101 -124 101c-69 0 -116 -37 -131 -101z" />
    <glyph glyph-name="eacute" unicode="&#xe9;" horiz-adv-x="581" 
d="M446 704l-111 -137h-124l80 137h155zM168 197c18 -66 73 -94 141 -94c50 0 90 21 112 50l104 -60c-47 -68 -122 -107 -218 -107c-168 0 -274 115 -274 264s107 264 264 264c148 0 253 -117 253 -264c0 -19 -2 -36 -5 -53h-377zM166 297h255c-16 72 -70 101 -124 101
c-69 0 -116 -37 -131 -101z" />
    <glyph glyph-name="ecaron" unicode="&#x11b;" horiz-adv-x="581" 
d="M222 559l-106 145h128l44 -65l43 65h128l-106 -145h-131zM168 197c18 -66 73 -94 141 -94c50 0 90 21 112 50l104 -60c-47 -68 -122 -107 -218 -107c-168 0 -274 115 -274 264s107 264 264 264c148 0 253 -117 253 -264c0 -19 -2 -36 -5 -53h-377zM166 297h255
c-16 72 -70 101 -124 101c-69 0 -116 -37 -131 -101z" />
    <glyph glyph-name="ecircumflex" unicode="&#xea;" horiz-adv-x="581" 
d="M288 624l-44 -65h-128l106 145h131l106 -145h-128zM168 197c18 -66 73 -94 141 -94c50 0 90 21 112 50l104 -60c-47 -68 -122 -107 -218 -107c-168 0 -274 115 -274 264s107 264 264 264c148 0 253 -117 253 -264c0 -19 -2 -36 -5 -53h-377zM166 297h255
c-16 72 -70 101 -124 101c-69 0 -116 -37 -131 -101z" />
    <glyph glyph-name="edieresis" unicode="&#xeb;" horiz-adv-x="581" 
d="M196 553c-37 0 -68 30 -68 67s31 68 68 68s67 -31 67 -68s-30 -67 -67 -67zM386 553c-37 0 -68 30 -68 67s31 68 68 68s67 -31 67 -68s-30 -67 -67 -67zM168 197c18 -66 73 -94 141 -94c50 0 90 21 112 50l104 -60c-47 -68 -122 -107 -218 -107c-168 0 -274 115 -274 264
s107 264 264 264c148 0 253 -117 253 -264c0 -19 -2 -36 -5 -53h-377zM166 297h255c-16 72 -70 101 -124 101c-69 0 -116 -37 -131 -101z" />
    <glyph glyph-name="edotaccent" unicode="&#x117;" horiz-adv-x="581" 
d="M291 555c-43 0 -78 36 -78 78s35 77 78 77c42 0 77 -35 77 -77s-35 -78 -77 -78zM168 197c18 -66 73 -94 141 -94c50 0 90 21 112 50l104 -60c-47 -68 -122 -107 -218 -107c-168 0 -274 115 -274 264s107 264 264 264c148 0 253 -117 253 -264c0 -19 -2 -36 -5 -53h-377z
M166 297h255c-16 72 -70 101 -124 101c-69 0 -116 -37 -131 -101z" />
    <glyph glyph-name="egrave" unicode="&#xe8;" horiz-adv-x="581" 
d="M373 567h-124l-111 137h155zM168 197c18 -66 73 -94 141 -94c50 0 90 21 112 50l104 -60c-47 -68 -122 -107 -218 -107c-168 0 -274 115 -274 264s107 264 264 264c148 0 253 -117 253 -264c0 -19 -2 -36 -5 -53h-377zM166 297h255c-16 72 -70 101 -124 101
c-69 0 -116 -37 -131 -101z" />
    <glyph glyph-name="emacron" unicode="&#x113;" horiz-adv-x="581" 
d="M436 673v-105h-290v105h290zM168 197c18 -66 73 -94 141 -94c50 0 90 21 112 50l104 -60c-47 -68 -122 -107 -218 -107c-168 0 -274 115 -274 264s107 264 264 264c148 0 253 -117 253 -264c0 -19 -2 -36 -5 -53h-377zM166 297h255c-16 72 -70 101 -124 101
c-69 0 -116 -37 -131 -101z" />
    <glyph glyph-name="eogonek" unicode="&#x119;" horiz-adv-x="581" 
d="M168 197c18 -66 73 -94 141 -94c50 0 90 21 112 50l104 -60c-11 -16 -24 -30 -37 -43c-71 -76 -84 -124 -84 -145c0 -17 9 -27 25 -27c8 -1 18 1 28 5v-81c-25 -10 -48 -16 -81 -16c-55 0 -95 29 -95 88c0 33 19 75 65 114c-13 -1 -26 -2 -39 -2
c-168 0 -274 115 -274 264s107 264 264 264c148 0 253 -117 253 -264c0 -19 -2 -36 -5 -53h-377zM166 297h255c-16 72 -70 101 -124 101c-69 0 -116 -37 -131 -101z" />
    <glyph glyph-name="f" unicode="f" horiz-adv-x="328" 
d="M328 590c-67 5 -106 -17 -106 -85v-5h106v-124h-106v-376h-129v376h-72v124h72v5c0 138 76 219 235 209v-124z" />
    <glyph glyph-name="g" unicode="g" 
d="M442 500h126v-476c0 -164 -129 -238 -261 -238c-107 0 -193 41 -237 122l110 63c21 -39 54 -70 131 -70c81 0 131 44 131 123v54c-35 -47 -89 -76 -160 -76c-142 0 -249 115 -249 256c0 140 107 256 249 256c71 0 125 -29 160 -76v62zM302 121c81 0 140 57 140 137
c0 79 -59 136 -140 136s-140 -57 -140 -136c0 -80 59 -137 140 -137z" />
    <glyph glyph-name="gbreve" unicode="&#x11f;" 
d="M297 555c-105 0 -166 53 -166 145h115c0 -35 18 -52 51 -52c34 0 52 17 52 52h115c0 -92 -60 -145 -167 -145zM442 500h126v-476c0 -164 -129 -238 -261 -238c-107 0 -193 41 -237 122l110 63c21 -39 54 -70 131 -70c81 0 131 44 131 123v54c-35 -47 -89 -76 -160 -76
c-142 0 -249 115 -249 256c0 140 107 256 249 256c71 0 125 -29 160 -76v62zM302 121c81 0 140 57 140 137c0 79 -59 136 -140 136s-140 -57 -140 -136c0 -80 59 -137 140 -137z" />
    <glyph glyph-name="gcommaaccent" unicode="&#x123;" 
d="M361 783l-10 -200h-122l30 200h102zM442 500h126v-476c0 -164 -129 -238 -261 -238c-107 0 -193 41 -237 122l110 63c21 -39 54 -70 131 -70c81 0 131 44 131 123v54c-35 -47 -89 -76 -160 -76c-142 0 -249 115 -249 256c0 140 107 256 249 256c71 0 125 -29 160 -76v62z
M302 121c81 0 140 57 140 137c0 79 -59 136 -140 136s-140 -57 -140 -136c0 -80 59 -137 140 -137z" />
    <glyph glyph-name="gdotaccent" unicode="&#x121;" 
d="M297 559c-43 0 -78 36 -78 78s35 77 78 77c42 0 77 -35 77 -77s-35 -78 -77 -78zM442 500h126v-476c0 -164 -129 -238 -261 -238c-107 0 -193 41 -237 122l110 63c21 -39 54 -70 131 -70c81 0 131 44 131 123v54c-35 -47 -89 -76 -160 -76c-142 0 -249 115 -249 256
c0 140 107 256 249 256c71 0 125 -29 160 -76v62zM302 121c81 0 140 57 140 137c0 79 -59 136 -140 136s-140 -57 -140 -136c0 -80 59 -137 140 -137z" />
    <glyph glyph-name="h" unicode="h" horiz-adv-x="577" 
d="M337 514c106 0 189 -74 189 -207v-307h-129v291c0 68 -41 103 -99 103c-63 0 -110 -37 -110 -124v-270h-129v700h129v-256c30 45 82 70 149 70z" />
    <glyph glyph-name="hbar" unicode="&#x127;" horiz-adv-x="583" 
d="M343 514c107 0 190 -74 190 -207v-307h-129v291c0 68 -42 103 -100 103c-63 0 -110 -37 -110 -124v-270h-129v554h-62v84h62v62h129v-62h141v-84h-141v-111c30 46 82 71 149 71z" />
    <glyph glyph-name="i" unicode="i" horiz-adv-x="247" 
d="M123 560c-43 0 -79 36 -79 79s36 80 79 80c44 0 80 -37 80 -80s-36 -79 -80 -79zM59 0v500h129v-500h-129z" />
    <glyph glyph-name="dotlessi" unicode="&#x131;" horiz-adv-x="247" 
d="M59 0v500h129v-500h-129z" />
    <glyph glyph-name="iacute" unicode="&#xed;" horiz-adv-x="247" 
d="M60 555h124l66 145h-148zM59 0v500h129v-500h-129z" />
    <glyph glyph-name="icircumflex" unicode="&#xee;" horiz-adv-x="247" 
d="M124 609l-32 -54h-128l94 145h131l93 -145h-127zM59 0v500h129v-500h-129z" />
    <glyph glyph-name="idieresis" unicode="&#xef;" horiz-adv-x="247" 
d="M38 553c-37 0 -67 30 -67 67s30 68 67 68s68 -31 68 -68s-31 -67 -68 -67zM208 553c-37 0 -67 30 -67 67s30 68 67 68s68 -31 68 -68s-31 -67 -68 -67zM59 0v500h129v-500h-129z" />
    <glyph glyph-name="i.loclTRK" horiz-adv-x="247" 
d="M123 551c-43 0 -78 36 -78 78s35 77 78 77c42 0 77 -35 77 -77s-35 -78 -77 -78zM59 0v500h129v-500h-129z" />
    <glyph glyph-name="igrave" unicode="&#xec;" horiz-adv-x="247" 
d="M184 555l-43 145h-148l67 -145h124zM188 0h-129v500h129v-500z" />
    <glyph glyph-name="imacron" unicode="&#x12b;" horiz-adv-x="247" 
d="M8 564v112h230v-112h-230zM59 0v500h129v-500h-129z" />
    <glyph glyph-name="iogonek" unicode="&#x12f;" horiz-adv-x="247" 
d="M123 560c-43 0 -79 36 -79 79s36 80 79 80c44 0 80 -37 80 -80s-36 -79 -80 -79zM179 -122c8 -1 17 1 27 5v-81c-24 -10 -48 -16 -80 -16c-55 0 -96 32 -96 90c0 36 14 76 43 124h-14v500h129v-500c-21 -34 -34 -68 -34 -92c-1 -18 8 -30 25 -30z" />
    <glyph glyph-name="j" unicode="j" horiz-adv-x="264" 
d="M141 560c-44 0 -80 36 -80 79s36 80 80 80c43 0 79 -37 79 -80s-36 -79 -79 -79zM76 -10v510h129v-510c0 -147 -70 -213 -218 -204v124c61 -4 89 19 89 80z" />
    <glyph glyph-name="k" unicode="k" horiz-adv-x="525" 
d="M520 0h-150l-182 227v-227h-129v700h129v-420l172 220h154l-201 -247z" />
    <glyph glyph-name="kcommaaccent" unicode="&#x137;" horiz-adv-x="525" 
d="M313 253l207 -253h-150l-182 227v-227h-129v700h129v-420l172 220h154zM215 -263l10 200h122l-30 -200h-102z" />
    <glyph glyph-name="l" unicode="l" horiz-adv-x="247" 
d="M59 0v730h129v-730h-129z" />
    <glyph glyph-name="lacute" unicode="&#x13a;" horiz-adv-x="247" 
d="M57 763h124l111 137h-155zM59 0v730h129v-730h-129z" />
    <glyph glyph-name="lcaron" unicode="&#x13e;" horiz-adv-x="354" 
d="M59 0v730h129v-730h-129zM334 530l30 200h-122l-10 -200h102z" />
    <glyph glyph-name="lcommaaccent" unicode="&#x13c;" horiz-adv-x="247" 
d="M59 0v730h129v-730h-129zM157 -263l30 200h-122l-10 -200h102z" />
    <glyph glyph-name="lslash" unicode="&#x142;" horiz-adv-x="263" 
d="M250 490v-123l-54 -37v-330h-129v242l-54 -37v123l54 37v365h129v-277z" />
    <glyph glyph-name="m" unicode="m" horiz-adv-x="852" 
d="M612 514c114 0 189 -81 189 -206v-308h-129v299c0 59 -30 95 -84 95c-57 0 -93 -38 -93 -113v-281h-129v299c0 59 -30 95 -84 95c-55 0 -94 -38 -94 -113v-281h-129v500h129v-53c28 42 75 67 139 67c62 0 108 -26 136 -72c31 45 81 72 149 72z" />
    <glyph glyph-name="n" unicode="n" horiz-adv-x="577" 
d="M337 514c106 0 189 -74 189 -207v-307h-129v291c0 68 -41 103 -99 103c-63 0 -110 -37 -110 -124v-270h-129v500h129v-56c30 45 82 70 149 70z" />
    <glyph glyph-name="nacute" unicode="&#x144;" horiz-adv-x="577" 
d="M453 708l-111 -137h-124l80 137h155zM337 514c106 0 189 -74 189 -207v-307h-129v291c0 68 -41 103 -99 103c-63 0 -110 -37 -110 -124v-270h-129v500h129v-56c30 45 82 70 149 70z" />
    <glyph glyph-name="ncaron" unicode="&#x148;" horiz-adv-x="577" 
d="M229 563l-106 145h128l44 -65l43 65h128l-106 -145h-131zM337 514c106 0 189 -74 189 -207v-307h-129v291c0 68 -41 103 -99 103c-63 0 -110 -37 -110 -124v-270h-129v500h129v-56c30 45 82 70 149 70z" />
    <glyph glyph-name="ncommaaccent" unicode="&#x146;" horiz-adv-x="577" 
d="M337 514c106 0 189 -74 189 -207v-307h-129v291c0 68 -41 103 -99 103c-63 0 -110 -37 -110 -124v-270h-129v500h129v-56c30 45 82 70 149 70zM228 -263l10 200h122l-30 -200h-102z" />
    <glyph glyph-name="eng" unicode="&#x14b;" horiz-adv-x="577" 
d="M337 514c106 0 189 -74 189 -207v-317c0 -135 -66 -214 -210 -204v124c52 -5 81 15 81 80v301c0 68 -41 103 -99 103c-63 0 -110 -37 -110 -124v-270h-129v500h129v-56c30 45 82 70 149 70z" />
    <glyph glyph-name="ntilde" unicode="&#xf1;" horiz-adv-x="577" 
d="M285 592c-39 25 -53 26 -53 -24h-104c0 159 96 176 182 121c39 -25 52 -26 52 24h105c0 -159 -97 -176 -182 -121zM337 514c106 0 189 -74 189 -207v-307h-129v291c0 68 -41 103 -99 103c-63 0 -110 -37 -110 -124v-270h-129v500h129v-56c30 45 82 70 149 70z" />
    <glyph glyph-name="o" unicode="o" horiz-adv-x="594" 
d="M297 -14c-147 0 -264 115 -264 264s117 264 264 264s265 -115 265 -264s-118 -264 -265 -264zM297 112c77 0 136 57 136 138s-59 138 -136 138c-76 0 -135 -57 -135 -138s59 -138 135 -138z" />
    <glyph glyph-name="oacute" unicode="&#xf3;" horiz-adv-x="594" 
d="M217 571h124l111 137h-155zM297 -14c-147 0 -264 115 -264 264s117 264 264 264s265 -115 265 -264s-118 -264 -265 -264zM297 112c77 0 136 57 136 138s-59 138 -136 138c-76 0 -135 -57 -135 -138s59 -138 135 -138z" />
    <glyph glyph-name="ocircumflex" unicode="&#xf4;" horiz-adv-x="594" 
d="M294 628l-44 -65h-128l106 145h131l106 -145h-128zM297 514c147 0 265 -115 265 -264s-118 -264 -265 -264s-264 115 -264 264s117 264 264 264zM297 112c77 0 136 57 136 138s-59 138 -136 138c-76 0 -135 -57 -135 -138s59 -138 135 -138z" />
    <glyph glyph-name="odieresis" unicode="&#xf6;" horiz-adv-x="594" 
d="M202 557c-37 0 -68 30 -68 67s31 68 68 68s67 -31 67 -68s-30 -67 -67 -67zM392 557c-37 0 -68 30 -68 67s31 68 68 68s67 -31 67 -68s-30 -67 -67 -67zM297 -14c-147 0 -264 115 -264 264s117 264 264 264s265 -115 265 -264s-118 -264 -265 -264zM297 112
c77 0 136 57 136 138s-59 138 -136 138c-76 0 -135 -57 -135 -138s59 -138 135 -138z" />
    <glyph glyph-name="ograve" unicode="&#xf2;" horiz-adv-x="594" 
d="M379 571l-80 137h-155l111 -137h124zM297 -14c-147 0 -264 115 -264 264s117 264 264 264s265 -115 265 -264s-118 -264 -265 -264zM297 112c77 0 136 57 136 138s-59 138 -136 138c-76 0 -135 -57 -135 -138s59 -138 135 -138z" />
    <glyph glyph-name="ohungarumlaut" unicode="&#x151;" horiz-adv-x="594" 
d="M122 563h128l84 138h-134zM295 563h128l94 138h-134zM297 -14c-147 0 -264 115 -264 264s117 264 264 264s265 -115 265 -264s-118 -264 -265 -264zM297 112c77 0 136 57 136 138s-59 138 -136 138c-76 0 -135 -57 -135 -138s59 -138 135 -138z" />
    <glyph glyph-name="omacron" unicode="&#x14d;" horiz-adv-x="594" 
d="M152 572v105h290v-105h-290zM297 -14c-147 0 -264 115 -264 264s117 264 264 264s265 -115 265 -264s-118 -264 -265 -264zM297 112c77 0 136 57 136 138s-59 138 -136 138c-76 0 -135 -57 -135 -138s59 -138 135 -138z" />
    <glyph glyph-name="oslash" unicode="&#xf8;" horiz-adv-x="594" 
d="M491 431c44 -47 71 -110 71 -181c0 -149 -118 -264 -265 -264c-54 0 -104 15 -145 42l-32 -37l-55 32l39 46c-44 46 -71 110 -71 181c0 149 117 264 264 264c54 0 104 -16 146 -43l32 38l55 -32zM162 250c0 -32 9 -60 25 -83l174 206c-19 10 -41 15 -64 15
c-76 0 -135 -57 -135 -138zM297 112c77 0 136 57 136 138c0 32 -9 60 -25 82l-174 -205c19 -10 40 -15 63 -15z" />
    <glyph glyph-name="otilde" unicode="&#xf5;" horiz-adv-x="594" 
d="M127 568c0 159 96 176 182 121c39 -25 52 -26 52 24h105c0 -159 -97 -176 -182 -121c-39 25 -53 26 -53 -24h-104zM297 -14c-147 0 -264 115 -264 264s117 264 264 264s265 -115 265 -264s-118 -264 -265 -264zM297 112c77 0 136 57 136 138s-59 138 -136 138
c-76 0 -135 -57 -135 -138s59 -138 135 -138z" />
    <glyph glyph-name="oe" unicode="&#x153;" horiz-adv-x="981" 
d="M568 197c20 -68 78 -94 137 -94c54 0 94 21 116 50l104 -60c-47 -68 -122 -107 -218 -107c-98 0 -170 44 -210 112c-42 -68 -113 -112 -204 -112c-148 0 -260 115 -260 264s112 264 260 264c90 0 162 -43 203 -111c40 68 111 111 207 111c147 0 247 -117 247 -264
c0 -19 -2 -36 -5 -53h-377zM566 298h255c-15 72 -69 100 -123 100c-68 0 -116 -37 -132 -100zM297 112c77 0 136 57 136 138s-59 138 -136 138c-78 0 -135 -57 -135 -138s57 -138 135 -138z" />
    <glyph glyph-name="p" unicode="p" 
d="M350 514c134 0 244 -115 244 -264s-110 -264 -244 -264c-73 0 -126 27 -162 73v-259h-129v700h129v-59c36 46 89 73 162 73zM326 109c80 0 139 57 139 141s-59 141 -139 141c-79 0 -138 -57 -138 -141s59 -141 138 -141z" />
    <glyph glyph-name="thorn" unicode="&#xfe;" 
d="M350 514c134 0 244 -115 244 -264s-110 -264 -244 -264c-73 0 -126 27 -162 73v-259h-129v900h129v-259c36 46 89 73 162 73zM326 109c80 0 139 57 139 141s-59 141 -139 141c-79 0 -138 -57 -138 -141s59 -141 138 -141z" />
    <glyph glyph-name="q" unicode="q" 
d="M438 500h129v-700h-129v259c-36 -46 -89 -73 -162 -73c-134 0 -244 115 -244 264s110 264 244 264c73 0 126 -27 162 -73v59zM300 109c79 0 138 57 138 141s-59 141 -138 141c-80 0 -139 -57 -139 -141s59 -141 139 -141z" />
    <glyph glyph-name="r" unicode="r" horiz-adv-x="356" 
d="M188 414c26 68 89 96 152 96v-144c-67 8 -152 -22 -152 -127v-239h-129v500h129v-86z" />
    <glyph glyph-name="racute" unicode="&#x155;" horiz-adv-x="356" 
d="M348 700l-111 -137h-124l80 137h155zM188 414c26 68 89 96 152 96v-144c-67 8 -152 -22 -152 -127v-239h-129v500h129v-86z" />
    <glyph glyph-name="rcaron" unicode="&#x159;" horiz-adv-x="356" 
d="M124 555l-106 145h128l44 -65l43 65h128l-106 -145h-131zM188 414c26 68 89 96 152 96v-144c-67 8 -152 -22 -152 -127v-239h-129v500h129v-86z" />
    <glyph glyph-name="rcommaaccent" unicode="&#x157;" horiz-adv-x="356" 
d="M188 414c26 68 89 96 152 96v-144c-67 8 -152 -22 -152 -127v-239h-129v500h129v-86zM55 -263l10 200h122l-30 -200h-102z" />
    <glyph glyph-name="s" unicode="s" horiz-adv-x="465" 
d="M178 358c0 -74 258 -28 258 -212c0 -108 -94 -160 -201 -160c-100 0 -174 42 -210 119l112 63c14 -41 48 -65 98 -65c41 0 69 14 69 43c0 73 -258 33 -258 209c0 102 87 159 190 159c81 0 151 -37 190 -106l-110 -60c-15 32 -43 51 -80 51c-32 0 -58 -14 -58 -41z" />
    <glyph glyph-name="sacute" unicode="&#x15b;" horiz-adv-x="465" 
d="M386 708l-111 -137h-124l80 137h155zM178 358c0 -74 258 -28 258 -212c0 -108 -94 -160 -201 -160c-100 0 -174 42 -210 119l112 63c14 -41 48 -65 98 -65c41 0 69 14 69 43c0 73 -258 33 -258 209c0 102 87 159 190 159c81 0 151 -37 190 -106l-110 -60
c-15 32 -43 51 -80 51c-32 0 -58 -14 -58 -41z" />
    <glyph glyph-name="scaron" unicode="&#x161;" horiz-adv-x="465" 
d="M162 563l-106 145h128l44 -65l43 65h128l-106 -145h-131zM178 358c0 -74 258 -28 258 -212c0 -108 -94 -160 -201 -160c-100 0 -174 42 -210 119l112 63c14 -41 48 -65 98 -65c41 0 69 14 69 43c0 73 -258 33 -258 209c0 102 87 159 190 159c81 0 151 -37 190 -106
l-110 -60c-15 32 -43 51 -80 51c-32 0 -58 -14 -58 -41z" />
    <glyph glyph-name="scedilla" unicode="&#x15f;" horiz-adv-x="465" 
d="M436 146c0 -86 -60 -137 -139 -154v-38c34 -8 70 -32 70 -78c0 -60 -52 -102 -220 -92v91c73 -5 108 3 108 20c0 16 -24 22 -63 25v69c-78 10 -136 50 -167 116l112 63c14 -41 48 -65 98 -65c41 0 69 14 69 43c0 73 -258 33 -258 209c0 102 87 159 190 159
c81 0 151 -37 190 -106l-110 -60c-15 32 -43 51 -80 51c-32 0 -58 -14 -58 -41c0 -74 258 -28 258 -212z" />
    <glyph glyph-name="scommaaccent" unicode="&#x219;" horiz-adv-x="465" 
d="M178 358c0 -74 258 -28 258 -212c0 -108 -94 -160 -201 -160c-100 0 -174 42 -210 119l112 63c14 -41 48 -65 98 -65c41 0 69 14 69 43c0 73 -258 33 -258 209c0 102 87 159 190 159c81 0 151 -37 190 -106l-110 -60c-15 32 -43 51 -80 51c-32 0 -58 -14 -58 -41z
M178 -263l10 200h122l-30 -200h-102z" />
    <glyph glyph-name="germandbls" unicode="&#xdf;" horiz-adv-x="537" 
d="M279 -6v114c85 -8 113 17 113 59c0 67 -119 154 -119 223c0 55 63 85 63 142c0 35 -25 64 -68 64c-44 0 -80 -26 -80 -87v-509h-129v508c0 126 84 206 214 206c121 0 192 -76 192 -162c0 -84 -60 -112 -60 -154c0 -60 116 -134 116 -253c0 -92 -58 -168 -242 -151z" />
    <glyph glyph-name="t" unicode="t" horiz-adv-x="385" 
d="M345 376h-113v-208c0 -54 39 -55 113 -51v-117c-181 -20 -242 33 -242 168v208h-87v124h87v101l129 39v-140h113v-124z" />
    <glyph glyph-name="tbar" unicode="&#x167;" horiz-adv-x="385" 
d="M345 376h-113v-73h80v-104h-80v-31c0 -54 39 -55 113 -51v-117c-181 -20 -242 33 -242 168v31h-58v104h58v73h-87v124h87v101l129 39v-140h113v-124z" />
    <glyph glyph-name="tcaron" unicode="&#x165;" horiz-adv-x="406" 
d="M286 726h122l-30 -182h-102zM232 640v-140h113v-124h-113v-208c0 -54 39 -55 113 -51v-117c-181 -20 -242 33 -242 168v208h-87v124h87v101z" />
    <glyph glyph-name="uni0163" unicode="&#x163;" horiz-adv-x="385" 
d="M345 376h-113v-208c0 -54 39 -55 113 -51v-117c-181 -20 -242 33 -242 168v208h-87v124h87v101l129 39v-140h113v-124zM162 -263l10 200h122l-30 -200h-102z" />
    <glyph glyph-name="uni021B" unicode="&#x21b;" horiz-adv-x="385" 
d="M345 376h-113v-208c0 -54 39 -55 113 -51v-117c-181 -20 -242 33 -242 168v208h-87v124h87v101l129 39v-140h113v-124zM162 -263l10 200h122l-30 -200h-102z" />
    <glyph glyph-name="u" unicode="u" horiz-adv-x="577" 
d="M389 500h129v-500h-129v56c-30 -45 -82 -70 -149 -70c-106 0 -189 74 -189 207v307h129v-291c0 -68 41 -103 99 -103c63 0 110 37 110 124v270z" />
    <glyph glyph-name="uacute" unicode="&#xfa;" horiz-adv-x="577" 
d="M439 700l-111 -137h-124l80 137h155zM389 500h129v-500h-129v56c-30 -45 -82 -70 -149 -70c-106 0 -189 74 -189 207v307h129v-291c0 -68 41 -103 99 -103c63 0 110 37 110 124v270z" />
    <glyph glyph-name="ucircumflex" unicode="&#xfb;" horiz-adv-x="577" 
d="M281 620l-44 -65h-128l106 145h131l106 -145h-128zM389 500h129v-500h-129v56c-30 -45 -82 -70 -149 -70c-106 0 -189 74 -189 207v307h129v-291c0 -68 41 -103 99 -103c63 0 110 37 110 124v270z" />
    <glyph glyph-name="udieresis" unicode="&#xfc;" horiz-adv-x="577" 
d="M189 549c-37 0 -68 30 -68 67s31 68 68 68s67 -31 67 -68s-30 -67 -67 -67zM379 549c-37 0 -68 30 -68 67s31 68 68 68s67 -31 67 -68s-30 -67 -67 -67zM389 500h129v-500h-129v56c-30 -45 -82 -70 -149 -70c-106 0 -189 74 -189 207v307h129v-291c0 -68 41 -103 99 -103
c63 0 110 37 110 124v270z" />
    <glyph glyph-name="ugrave" unicode="&#xf9;" horiz-adv-x="577" 
d="M366 563h-124l-111 137h155zM389 500h129v-500h-129v56c-30 -45 -82 -70 -149 -70c-106 0 -189 74 -189 207v307h129v-291c0 -68 41 -103 99 -103c63 0 110 37 110 124v270z" />
    <glyph glyph-name="uhungarumlaut" unicode="&#x171;" horiz-adv-x="577" 
d="M321 693l-84 -138h-128l78 138h134zM410 555h-128l88 138h134zM389 500h129v-500h-129v56c-30 -45 -82 -70 -149 -70c-106 0 -189 74 -189 207v307h129v-291c0 -68 41 -103 99 -103c63 0 110 37 110 124v270z" />
    <glyph glyph-name="umacron" unicode="&#x16b;" horiz-adv-x="577" 
d="M429 669v-105h-290v105h290zM389 500h129v-500h-129v56c-30 -45 -82 -70 -149 -70c-106 0 -189 74 -189 207v307h129v-291c0 -68 41 -103 99 -103c63 0 110 37 110 124v270z" />
    <glyph glyph-name="uogonek" unicode="&#x173;" horiz-adv-x="577" 
d="M518 500v-500c-33 -35 -53 -71 -53 -95c0 -17 9 -27 25 -27c9 -1 18 1 28 5v-81c-24 -10 -48 -16 -81 -16c-54 0 -95 29 -95 88c0 37 25 81 64 126h-17v56c-30 -45 -82 -70 -149 -70c-106 0 -189 74 -189 207v307h129v-291c0 -68 41 -103 99 -103c63 0 110 37 110 124
v270h129z" />
    <glyph glyph-name="uring" unicode="&#x16f;" horiz-adv-x="577" 
d="M284 539c-74 0 -126 51 -126 119c0 67 52 118 126 118c76 0 126 -51 126 -118c0 -68 -50 -119 -126 -119zM284 695c-25 0 -39 -16 -39 -37c0 -22 14 -38 39 -38c27 0 40 16 40 38c0 21 -13 37 -40 37zM389 500h129v-500h-129v56c-30 -45 -82 -70 -149 -70
c-106 0 -189 74 -189 207v307h129v-291c0 -68 41 -103 99 -103c63 0 110 37 110 124v270z" />
    <glyph glyph-name="v" unicode="v" horiz-adv-x="533" 
d="M388 500h142l-190 -500h-147l-190 500h142l121 -350z" />
    <glyph glyph-name="w" unicode="w" horiz-adv-x="770" 
d="M622 500h137l-159 -500h-123l-92 303l-92 -303h-123l-159 500h137l85 -307l91 307h122l91 -308z" />
    <glyph glyph-name="wacute" unicode="&#x1e83;" horiz-adv-x="770" 
d="M540 700l-111 -137h-124l80 137h155zM622 500h137l-159 -500h-123l-92 303l-92 -303h-123l-159 500h137l85 -307l91 307h122l91 -308z" />
    <glyph glyph-name="wcircumflex" unicode="&#x175;" horiz-adv-x="770" 
d="M382 620l-44 -65h-128l106 145h131l106 -145h-128zM622 500h137l-159 -500h-123l-92 303l-92 -303h-123l-159 500h137l85 -307l91 307h122l91 -308z" />
    <glyph glyph-name="wdieresis" unicode="&#x1e85;" horiz-adv-x="770" 
d="M290 549c-37 0 -68 30 -68 67s31 68 68 68s67 -31 67 -68s-30 -67 -67 -67zM480 549c-37 0 -68 30 -68 67s31 68 68 68s67 -31 67 -68s-30 -67 -67 -67zM622 500h137l-159 -500h-123l-92 303l-92 -303h-123l-159 500h137l85 -307l91 307h122l91 -308z" />
    <glyph glyph-name="wgrave" unicode="&#x1e81;" horiz-adv-x="770" 
d="M467 563h-124l-111 137h155zM622 500h137l-159 -500h-123l-92 303l-92 -303h-123l-159 500h137l85 -307l91 307h122l91 -308z" />
    <glyph glyph-name="x" unicode="x" horiz-adv-x="525" 
d="M520 0h-149l-108 152l-109 -152h-149l183 255l-175 245h149l101 -141l101 141h148l-175 -244z" />
    <glyph glyph-name="y" unicode="y" horiz-adv-x="525" 
d="M385 500h138l-182 -500c-52 -144 -137 -207 -264 -200v120c71 -1 107 29 131 96l-205 484h141l130 -336z" />
    <glyph glyph-name="yacute" unicode="&#xfd;" horiz-adv-x="525" 
d="M418 700l-111 -137h-124l80 137h155zM385 500h138l-182 -500c-52 -144 -137 -207 -264 -200v120c71 -1 107 29 131 96l-205 484h141l130 -336z" />
    <glyph glyph-name="ycircumflex" unicode="&#x177;" horiz-adv-x="525" 
d="M260 620l-44 -65h-128l106 145h131l106 -145h-128zM385 500h138l-182 -500c-52 -144 -137 -207 -264 -200v120c71 -1 107 29 131 96l-205 484h141l130 -336z" />
    <glyph glyph-name="ydieresis" unicode="&#xff;" horiz-adv-x="525" 
d="M168 549c-37 0 -68 30 -68 67s31 68 68 68s67 -31 67 -68s-30 -67 -67 -67zM358 549c-37 0 -68 30 -68 67s31 68 68 68s67 -31 67 -68s-30 -67 -67 -67zM385 500h138l-182 -500c-52 -144 -137 -207 -264 -200v120c71 -1 107 29 131 96l-205 484h141l130 -336z" />
    <glyph glyph-name="ygrave" unicode="&#x1ef3;" horiz-adv-x="525" 
d="M345 563h-124l-111 137h155zM385 500h138l-182 -500c-52 -144 -137 -207 -264 -200v120c71 -1 107 29 131 96l-205 484h141l130 -336z" />
    <glyph glyph-name="z" unicode="z" horiz-adv-x="474" 
d="M216 121h222v-121h-395v86l211 293h-201v121h375v-86z" />
    <glyph glyph-name="zacute" unicode="&#x17a;" horiz-adv-x="474" 
d="M396 700l-111 -137h-124l80 137h155zM216 121h222v-121h-395v86l211 293h-201v121h375v-86z" />
    <glyph glyph-name="zcaron" unicode="&#x17e;" horiz-adv-x="474" 
d="M172 555l-106 145h128l44 -65l43 65h128l-106 -145h-131zM216 121h222v-121h-395v86l211 293h-201v121h375v-86z" />
    <glyph glyph-name="zdotaccent" unicode="&#x17c;" horiz-adv-x="474" 
d="M241 551c-43 0 -78 36 -78 78s35 77 78 77c42 0 77 -35 77 -77s-35 -78 -77 -78zM216 121h222v-121h-395v86l211 293h-201v121h375v-86z" />
    <glyph glyph-name="f_f_j" horiz-adv-x="834" 
d="M775 500v-510c0 -147 -70 -213 -217 -204v124c60 -4 88 19 88 80v386h-147v-376h-129v376h-148v-376h-129v376h-72v124h72v5c0 138 76 219 235 209v-124c-67 5 -106 -17 -106 -85v-5h148v15c0 138 77 209 235 209c38 0 77 -5 118 -14v-118c-43 5 -82 8 -118 8
c-66 0 -106 -17 -106 -85v-15h276z" />
    <glyph glyph-name="f_j" horiz-adv-x="557" 
d="M498 500v-510c0 -147 -70 -213 -218 -204v124c61 -4 89 19 89 80v386h-147v-376h-129v376h-72v124h72v5c0 138 76 209 235 209c38 0 76 -5 117 -14v-118c-42 5 -81 8 -117 8c-67 0 -106 -17 -106 -85v-5h276z" />
    <glyph glyph-name="uni0410" unicode="&#x410;" horiz-adv-x="668" 
d="M515 0l-42 126h-279l-42 -126h-149l245 700h171l246 -700h-150zM238 255h192l-96 286z" />
    <glyph glyph-name="uni0411" unicode="&#x411;" horiz-adv-x="585" 
d="M333 435c136 0 232 -89 232 -217c0 -129 -96 -218 -232 -218h-268v700h440v-132h-302v-133h130zM333 129c52 0 95 30 95 89c0 58 -43 88 -95 88h-130v-177h130z" />
    <glyph glyph-name="uni0412" unicode="&#x412;" horiz-adv-x="605" 
d="M488 363c56 -32 92 -87 92 -160c0 -120 -97 -203 -218 -203h-297v700h276c118 0 213 -80 213 -197c0 -60 -25 -107 -66 -140zM341 571h-138v-154h138c43 0 75 33 75 77s-31 77 -75 77zM362 129c47 0 81 35 81 83c0 47 -34 82 -81 82h-159v-165h159z" />
    <glyph glyph-name="uni0413" unicode="&#x413;" horiz-adv-x="475" 
d="M463 700v-132h-260v-568h-138v700h398z" />
    <glyph glyph-name="uni0403" unicode="&#x403;" horiz-adv-x="475" 
d="M424 899l-111 -137h-124l80 137h155zM463 700v-132h-260v-568h-138v700h398z" />
    <glyph glyph-name="uni0490" unicode="&#x490;" horiz-adv-x="475" 
d="M325 820h138v-252h-260v-568h-138v700h260v120z" />
    <glyph glyph-name="uni0414" unicode="&#x414;" horiz-adv-x="705" 
d="M603 132h75v-266h-138v134h-387v-134h-138v266h68c33 46 58 114 58 237v331h462v-568zM231 132h234v439h-186v-204c0 -120 -22 -190 -48 -235z" />
    <glyph glyph-name="uni0415" unicode="&#x415;" horiz-adv-x="530" 
d="M203 132h295v-132h-433v700h428v-132h-290v-149h265v-130h-265v-157z" />
    <glyph glyph-name="uni0401" unicode="&#x401;" horiz-adv-x="530" 
d="M184 749c-37 0 -68 30 -68 67s31 68 68 68s67 -31 67 -68s-30 -67 -67 -67zM374 749c-37 0 -68 30 -68 67s31 68 68 68s67 -31 67 -68s-30 -67 -67 -67zM203 132h295v-132h-433v700h428v-132h-290v-149h265v-130h-265v-157z" />
    <glyph glyph-name="uni0416" unicode="&#x416;" horiz-adv-x="904" 
d="M892 0h-154l-217 319v-319h-138v319l-217 -319h-153l243 357l-233 343h153l207 -312v312h138v-312l207 312h154l-234 -343z" />
    <glyph glyph-name="uni0417" unicode="&#x417;" horiz-adv-x="561" 
d="M436 362c62 -33 100 -90 100 -166c0 -127 -106 -210 -254 -210c-144 0 -223 70 -261 165l119 67c17 -55 55 -102 142 -102c78 0 117 35 117 89s-39 89 -114 89h-87v123h66c71 0 110 33 110 84c0 50 -32 84 -99 84c-72 0 -107 -42 -126 -88l-117 68c40 84 114 149 243 149
c138 0 236 -81 236 -204c0 -64 -28 -114 -75 -148z" />
    <glyph glyph-name="uni0418" unicode="&#x418;" horiz-adv-x="673" 
d="M470 0v427l-300 -427h-105v700h138v-428l300 428h105v-700h-138z" />
    <glyph glyph-name="uni0419" unicode="&#x419;" horiz-adv-x="673" 
d="M191 764v112h290v-112h-290zM470 0v427l-300 -427h-105v700h138v-428l300 428h105v-700h-138z" />
    <glyph glyph-name="uni041A" unicode="&#x41a;" horiz-adv-x="615" 
d="M612 0h-159l-250 328v-328h-138v700h138v-309l240 309h159l-259 -340z" />
    <glyph glyph-name="uni040C" unicode="&#x40c;" horiz-adv-x="615" 
d="M464 899l-111 -137h-124l80 137h155zM612 0h-159l-250 328v-328h-138v700h138v-309l240 309h159l-259 -340z" />
    <glyph glyph-name="uni041B" unicode="&#x41b;" horiz-adv-x="676" 
d="M11 0v128c77 -11 124 19 124 158v414h476v-700h-137v568h-202v-278c0 -252 -131 -303 -261 -290z" />
    <glyph glyph-name="uni041C" unicode="&#x41c;" horiz-adv-x="815" 
d="M750 700v-700h-137v454l-197 -325h-16l-197 324v-453h-138v700h142l201 -331l200 331h142z" />
    <glyph glyph-name="uni041D" unicode="&#x41d;" horiz-adv-x="665" 
d="M463 700h137v-700h-137v290h-260v-290h-138v700h138v-278h260v278z" />
    <glyph glyph-name="uni041E" unicode="&#x41e;" horiz-adv-x="792" 
d="M396 -14c-202 0 -363 160 -363 364c0 205 161 364 363 364s364 -159 364 -364c0 -204 -162 -364 -364 -364zM396 121c127 0 226 95 226 229c0 135 -99 230 -226 230s-226 -95 -226 -230c0 -134 99 -229 226 -229z" />
    <glyph glyph-name="uni041F" unicode="&#x41f;" horiz-adv-x="653" 
d="M588 700v-700h-138v568h-247v-568h-138v700h523z" />
    <glyph glyph-name="uni0420" unicode="&#x420;" horiz-adv-x="590" 
d="M326 700c135 0 239 -104 239 -235s-104 -235 -239 -235h-123v-230h-138v700h261zM326 359c59 0 102 46 102 106c0 61 -43 106 -102 106h-123v-212h123z" />
    <glyph glyph-name="uni0421" unicode="&#x421;" horiz-adv-x="726" 
d="M397 -14c-212 0 -364 160 -364 364c0 205 152 364 364 364c128 0 241 -65 301 -165l-119 -69c-34 62 -102 100 -182 100c-137 0 -227 -95 -227 -230c0 -134 90 -229 227 -229c80 0 149 38 182 99l119 -69c-59 -100 -172 -165 -301 -165z" />
    <glyph glyph-name="uni0422" unicode="&#x422;" horiz-adv-x="540" 
d="M528 700v-132h-189v-568h-138v568h-188v132h515z" />
    <glyph glyph-name="uni0423" unicode="&#x423;" horiz-adv-x="600" 
d="M452 700h138l-210 -507c-58 -141 -151 -200 -276 -193v129c77 -7 119 23 148 82l-229 489h138l153 -338z" />
    <glyph glyph-name="uni040E" unicode="&#x40e;" horiz-adv-x="600" 
d="M447 875v-112h-290v112h290zM452 700h138l-210 -507c-58 -141 -151 -200 -276 -193v129c77 -7 119 23 148 82l-229 489h138l153 -338z" />
    <glyph glyph-name="uni0424" unicode="&#x424;" horiz-adv-x="819" 
d="M797 350c0 -162 -128 -265 -320 -284v-81h-135v81c-192 20 -319 122 -319 284s127 264 319 284v81h135v-81c192 -19 320 -122 320 -284zM477 192c119 14 182 65 182 158s-63 145 -182 159v-317zM160 350c0 -93 63 -144 182 -157v315c-119 -13 -182 -65 -182 -158z" />
    <glyph glyph-name="uni0425" unicode="&#x425;" horiz-adv-x="610" 
d="M598 0h-157l-136 228l-136 -228h-156l214 359l-203 341h156l125 -210l125 210h156l-203 -340z" />
    <glyph glyph-name="uni0427" unicode="&#x427;" horiz-adv-x="633" 
d="M430 700h138v-700h-138v256c-45 -19 -88 -27 -137 -27c-138 0 -243 82 -243 221v250h138v-232c0 -68 43 -107 108 -107c50 0 92 9 134 29v310z" />
    <glyph glyph-name="uni0426" unicode="&#x426;" horiz-adv-x="690" 
d="M588 132h75v-266h-138v134h-460v700h138v-568h247v568h138v-568z" />
    <glyph glyph-name="uni0428" unicode="&#x428;" horiz-adv-x="943" 
d="M740 700h138v-700h-813v700h138v-568h200v568h137v-568h200v568z" />
    <glyph glyph-name="uni0429" unicode="&#x429;" horiz-adv-x="980" 
d="M878 132h75v-266h-138v134h-750v700h138v-568h200v568h137v-568h200v568h138v-568z" />
    <glyph glyph-name="uni040F" unicode="&#x40f;" horiz-adv-x="653" 
d="M450 700h138v-700h-193v-134h-137v134h-193v700h138v-568h247v568z" />
    <glyph glyph-name="uni042C" unicode="&#x42c;" horiz-adv-x="590" 
d="M326 470c135 0 239 -104 239 -235s-104 -235 -239 -235h-261v700h138v-230h123zM326 129c59 0 102 45 102 106c0 60 -43 106 -102 106h-123v-212h123z" />
    <glyph glyph-name="uni042A" unicode="&#x42a;" horiz-adv-x="693" 
d="M168 0v568h-168v132h305v-230h124c135 0 239 -104 239 -235s-104 -235 -239 -235h-261zM305 129h124c58 0 101 45 101 106s-43 106 -101 106h-124v-212z" />
    <glyph glyph-name="uni042B" unicode="&#x42b;" horiz-adv-x="831" 
d="M65 0v700h138v-230h123c135 0 239 -104 239 -235s-104 -235 -239 -235h-261zM629 0v700h137v-700h-137zM203 129h123c59 0 102 45 102 106s-43 106 -102 106h-123v-212z" />
    <glyph glyph-name="uni0409" unicode="&#x409;" horiz-adv-x="961" 
d="M700 438c133 0 236 -91 236 -219c0 -129 -103 -219 -236 -219h-241v568h-187v-278c0 -252 -131 -304 -261 -292v128c77 -9 124 21 124 160v414h461v-262h104zM700 129c56 0 99 32 99 90s-43 90 -99 90h-104v-180h104z" />
    <glyph glyph-name="uni040A" unicode="&#x40a;" horiz-adv-x="958" 
d="M696 438c133 0 237 -91 237 -219c0 -129 -104 -219 -237 -219h-241v309h-252v-309h-138v700h138v-262h252v262h138v-262h103zM696 129c56 0 99 32 99 90s-43 90 -99 90h-103v-180h103z" />
    <glyph glyph-name="uni0405" unicode="&#x405;" horiz-adv-x="583" 
d="M304 -14c-143 0 -237 69 -275 173l118 69c25 -65 74 -107 161 -107c83 0 112 35 112 74c0 52 -47 72 -151 102c-107 31 -211 76 -211 209c0 132 110 208 230 208c115 0 203 -59 250 -157l-116 -67c-25 53 -63 90 -134 90c-58 0 -92 -30 -92 -70c0 -43 27 -66 133 -98
c111 -35 229 -72 229 -215c0 -131 -105 -211 -254 -211z" />
    <glyph glyph-name="uni0404" unicode="&#x404;" horiz-adv-x="724" 
d="M396 121c79 0 148 38 181 99l119 -69c-59 -100 -172 -165 -300 -165c-212 0 -364 160 -364 364c0 205 152 364 364 364c127 0 240 -65 300 -165l-119 -69c-34 62 -102 100 -181 100c-115 0 -195 -65 -219 -165h312v-129h-312c24 -99 104 -165 219 -165z" />
    <glyph glyph-name="uni042D" unicode="&#x42d;" horiz-adv-x="724" 
d="M328 714c212 0 364 -159 364 -364c0 -204 -152 -364 -364 -364c-128 0 -241 65 -300 165l119 69c33 -61 102 -99 181 -99c115 0 195 66 219 165h-312v129h312c-24 100 -104 165 -219 165c-79 0 -147 -38 -181 -100l-119 69c60 100 173 165 300 165z" />
    <glyph glyph-name="uni0406" unicode="&#x406;" horiz-adv-x="268" 
d="M65 700h138v-700h-138v700z" />
    <glyph glyph-name="uni0407" unicode="&#x407;" horiz-adv-x="268" 
d="M39 749c-37 0 -68 30 -68 67s31 68 68 68s67 -31 67 -68s-30 -67 -67 -67zM229 749c-37 0 -68 30 -68 67s31 68 68 68s67 -31 67 -68s-30 -67 -67 -67zM65 700h138v-700h-138v700z" />
    <glyph glyph-name="uni0408" unicode="&#x408;" horiz-adv-x="569" 
d="M264 -14c-107 0 -188 46 -231 133l119 68c22 -44 54 -66 112 -66c76 0 109 40 109 97v482h137v-482c0 -151 -108 -232 -246 -232z" />
    <glyph glyph-name="uni040B" unicode="&#x40b;" horiz-adv-x="708" 
d="M465 466c112 0 188 -66 188 -195v-271h-137v257c0 61 -32 85 -81 85c-40 0 -72 -8 -109 -20v-322h-137v568h-176v132h512v-132h-199v-124c49 15 91 22 139 22z" />
    <glyph glyph-name="uni042E" unicode="&#x42e;" horiz-adv-x="1055" 
d="M659 714c202 0 364 -159 364 -364c0 -203 -162 -364 -364 -364c-183 0 -329 131 -355 308h-101v-294h-138v700h138v-274h104c34 167 176 288 352 288zM659 121c127 0 226 95 226 229c0 135 -99 230 -226 230s-226 -92 -226 -230c0 -134 99 -229 226 -229z" />
    <glyph glyph-name="uni042F" unicode="&#x42f;" horiz-adv-x="624" 
d="M559 700v-700h-138v243h-79l-161 -243h-155l171 258c-88 32 -151 116 -151 210c0 128 104 232 233 232h280zM279 364h142v207h-142c-52 0 -95 -45 -95 -103s43 -104 95 -104z" />
    <glyph glyph-name="uni0402" unicode="&#x402;" horiz-adv-x="703" 
d="M465 466c112 0 188 -66 188 -195v-77c0 -147 -70 -213 -217 -204v128c60 -4 80 19 80 76v63c0 61 -32 85 -81 85c-40 0 -72 -8 -109 -20v-322h-137v568h-176v132h512v-132h-199v-124c49 15 91 22 139 22z" />
    <glyph glyph-name="uni0414.loclBGR" horiz-adv-x="730" 
d="M634 132h79v-266h-138v134h-420v-134h-137v266h79l183 568h171zM241 132h248l-124 412z" />
    <glyph glyph-name="uni041B.loclBGR" horiz-adv-x="647" 
d="M238 700h171l236 -700h-151l-170 538l-171 -538h-150z" />
    <glyph glyph-name="uni0424.loclBGR" horiz-adv-x="859" 
d="M827 350c0 -199 -130 -335 -332 -358v-92h-130v92c-202 23 -332 159 -332 358s130 335 332 358v92h130v-92c202 -23 332 -159 332 -358zM170 350c0 -129 65 -212 195 -231v463c-130 -20 -195 -103 -195 -232zM495 119c129 20 194 102 194 231s-65 212 -194 232v-463z" />
    <glyph glyph-name="uni0414.ss01" horiz-adv-x="705" 
d="M603 132h75v-132h-663v132h68c33 46 58 114 58 237v331h462v-568zM231 132h234v439h-186v-204c0 -120 -22 -190 -48 -235z" />
    <glyph glyph-name="uni0426.ss01" horiz-adv-x="690" 
d="M588 132h75v-132h-598v700h138v-568h247v568h138v-568z" />
    <glyph glyph-name="uni0429.ss01" horiz-adv-x="980" 
d="M878 132h75v-132h-888v700h138v-568h200v568h137v-568h200v568h138v-568z" />
    <glyph glyph-name="uni0414.loclBGR.ss01" horiz-adv-x="730" 
d="M634 132h79v-132h-695v132h79l183 568h171zM241 132h248l-124 412z" />
    <glyph glyph-name="uni0430" unicode="&#x430;" 
d="M439 500h129v-500h-129v59c-36 -45 -90 -73 -163 -73c-133 0 -243 115 -243 264s110 264 243 264c73 0 127 -28 163 -73v59zM300 109c80 0 139 57 139 141s-59 141 -139 141c-79 0 -138 -57 -138 -141s59 -141 138 -141z" />
    <glyph glyph-name="uni0431" unicode="&#x431;" horiz-adv-x="567" 
d="M296 -14c-160 0 -263 115 -263 269c0 161 30 245 191 324c106 52 160 65 185 140l106 -61c-19 -88 -91 -123 -195 -163c-90 -35 -119 -66 -135 -110c40 41 97 57 150 57c103 0 213 -81 213 -221c0 -135 -99 -235 -252 -235zM295 104c73 0 124 50 124 117
c0 68 -51 118 -125 118c-61 0 -126 -41 -126 -114c0 -71 56 -121 127 -121z" />
    <glyph glyph-name="uni0432" unicode="&#x432;" horiz-adv-x="511" 
d="M419 256c45 -22 70 -62 70 -114c0 -81 -57 -142 -167 -142h-263v500h243c108 0 166 -59 166 -141c0 -44 -17 -79 -49 -103zM290 394h-110v-90h110c35 0 55 14 55 45c0 30 -20 45 -55 45zM307 109c35 0 56 17 56 48c0 29 -22 45 -56 45h-127v-93h127z" />
    <glyph glyph-name="uni0433" unicode="&#x433;" horiz-adv-x="411" 
d="M401 500v-124h-213v-376h-129v500h342z" />
    <glyph glyph-name="uni0453" unicode="&#x453;" horiz-adv-x="411" 
d="M369 700l-111 -137h-124l80 137h155zM401 500v-124h-213v-376h-129v500h342z" />
    <glyph glyph-name="uni0491" unicode="&#x491;" horiz-adv-x="411" 
d="M275 601h126v-225h-213v-376h-129v500h216v101z" />
    <glyph glyph-name="uni0434" unicode="&#x434;" horiz-adv-x="598" 
d="M509 121h66v-255h-126v134h-310v-134h-126v255h61c27 40 43 88 43 177v202h392v-379zM212 121h171v263h-140v-86c0 -75 -11 -131 -31 -177z" />
    <glyph glyph-name="uni0435" unicode="&#x435;" horiz-adv-x="581" 
d="M168 197c18 -66 73 -94 141 -94c50 0 90 21 112 50l104 -60c-47 -68 -122 -107 -218 -107c-168 0 -274 115 -274 264s107 264 264 264c148 0 253 -117 253 -264c0 -19 -2 -36 -5 -53h-377zM166 297h255c-16 72 -70 101 -124 101c-69 0 -116 -37 -131 -101z" />
    <glyph glyph-name="uni0451" unicode="&#x451;" horiz-adv-x="581" 
d="M196 553c-37 0 -68 30 -68 67s31 68 68 68s67 -31 67 -68s-30 -67 -67 -67zM386 553c-37 0 -68 30 -68 67s31 68 68 68s67 -31 67 -68s-30 -67 -67 -67zM168 197c18 -66 73 -94 141 -94c50 0 90 21 112 50l104 -60c-47 -68 -122 -107 -218 -107c-168 0 -274 115 -274 264
s107 264 264 264c148 0 253 -117 253 -264c0 -19 -2 -36 -5 -53h-377zM166 297h255c-16 72 -70 101 -124 101c-69 0 -116 -37 -131 -101z" />
    <glyph glyph-name="uni0436" unicode="&#x436;" horiz-adv-x="746" 
d="M734 0h-145l-153 224v-224h-126v224l-153 -224h-144l180 253l-170 247h144l143 -217v217h126v-217l143 217h145l-171 -247z" />
    <glyph glyph-name="uni0437" unicode="&#x437;" horiz-adv-x="450" 
d="M352 255c49 -24 76 -67 76 -119c0 -81 -69 -150 -202 -150c-104 0 -172 43 -207 120l105 62c15 -42 48 -68 103 -68c48 0 75 20 75 52c0 28 -20 46 -59 46h-71v110h54c38 0 58 17 58 46s-24 48 -62 48c-43 0 -74 -20 -93 -63l-104 60c38 76 107 115 195 115
c119 0 187 -70 187 -149c0 -46 -18 -85 -55 -110z" />
    <glyph glyph-name="uni0438" unicode="&#x438;" horiz-adv-x="575" 
d="M420 500h96v-500h-126v284l-235 -284h-96v500h126v-284z" />
    <glyph glyph-name="uni0439" unicode="&#x439;" horiz-adv-x="575" 
d="M143 564v112h290v-112h-290zM420 500h96v-500h-126v284l-235 -284h-96v500h126v-284z" />
    <glyph glyph-name="uni043A" unicode="&#x43a;" horiz-adv-x="525" 
d="M520 0h-150l-182 227v-227h-129v500h129v-220l172 220h154l-201 -247z" />
    <glyph glyph-name="uni045C" unicode="&#x45c;" horiz-adv-x="525" 
d="M424 700l-111 -137h-124l80 137h155zM520 0h-150l-182 227v-227h-129v500h129v-220l172 220h154l-201 -247z" />
    <glyph glyph-name="uni043B" unicode="&#x43b;" horiz-adv-x="546" 
d="M488 500v-500h-129v376h-138v-167c0 -158 -76 -224 -211 -209v121c53 -13 82 17 82 95v284h396z" />
    <glyph glyph-name="uni043C" unicode="&#x43c;" horiz-adv-x="638" 
d="M579 500v-500h-125v292l-127 -200h-16l-128 202v-294h-124v500h127l133 -210l133 210h127z" />
    <glyph glyph-name="uni043D" unicode="&#x43d;" horiz-adv-x="575" 
d="M387 500h129v-500h-129v190h-199v-190h-129v500h129v-189h199v189z" />
    <glyph glyph-name="uni043E" unicode="&#x43e;" horiz-adv-x="594" 
d="M297 -14c-147 0 -264 115 -264 264s117 264 264 264s265 -115 265 -264s-118 -264 -265 -264zM297 112c77 0 136 57 136 138s-59 138 -136 138c-76 0 -135 -57 -135 -138s59 -138 135 -138z" />
    <glyph glyph-name="uni043F" unicode="&#x43f;" horiz-adv-x="575" 
d="M516 500v-500h-129v379h-199v-379h-129v500h457z" />
    <glyph glyph-name="uni0440" unicode="&#x440;" 
d="M350 514c134 0 244 -115 244 -264s-110 -264 -244 -264c-73 0 -126 27 -162 73v-259h-129v700h129v-59c36 46 89 73 162 73zM326 109c80 0 139 57 139 141s-59 141 -139 141c-79 0 -138 -57 -138 -141s59 -141 138 -141z" />
    <glyph glyph-name="uni0441" unicode="&#x441;" horiz-adv-x="536" 
d="M297 -14c-152 0 -264 115 -264 264s112 264 264 264c98 0 183 -52 224 -129l-111 -65c-20 41 -63 67 -114 67c-77 0 -134 -57 -134 -137c0 -79 57 -136 134 -136c52 0 95 25 115 66l112 -64c-43 -78 -128 -130 -226 -130z" />
    <glyph glyph-name="uni0442" unicode="&#x442;" horiz-adv-x="463" 
d="M453 500v-124h-156v-376h-129v376h-158v124h443z" />
    <glyph glyph-name="uni0443" unicode="&#x443;" horiz-adv-x="525" 
d="M385 500h138l-182 -500c-52 -144 -144 -207 -264 -200v120c68 -1 104 23 128 86l-202 494h137l134 -336z" />
    <glyph glyph-name="uni045E" unicode="&#x45e;" horiz-adv-x="525" 
d="M408 676v-112h-290v112h290zM385 500h138l-182 -500c-52 -144 -144 -207 -264 -200v120c68 -1 104 23 128 86l-202 494h137l134 -336z" />
    <glyph glyph-name="uni0444" unicode="&#x444;" horiz-adv-x="685" 
d="M653 250c0 -131 -92 -236 -247 -258v-192h-126v192c-155 22 -247 127 -247 258s92 236 247 258v192h126v-192c155 -22 247 -127 247 -258zM160 250c0 -66 42 -117 120 -135v270c-78 -17 -120 -68 -120 -135zM406 116c78 17 119 68 119 134c0 67 -41 117 -119 135v-269z
" />
    <glyph glyph-name="uni0445" unicode="&#x445;" horiz-adv-x="525" 
d="M520 0h-149l-108 152l-109 -152h-149l183 255l-175 245h149l101 -141l101 141h148l-175 -244z" />
    <glyph glyph-name="uni0447" unicode="&#x447;" horiz-adv-x="541" 
d="M354 500h129v-500h-129v159c-37 -12 -76 -18 -119 -18c-116 0 -200 58 -200 180v179h129v-164c0 -57 40 -75 93 -75c39 0 70 7 97 19v220z" />
    <glyph glyph-name="uni0446" unicode="&#x446;" horiz-adv-x="605" 
d="M499 121h84v-255h-126v134h-398v500h129v-379h182v379h129v-379z" />
    <glyph glyph-name="uni0448" unicode="&#x448;" horiz-adv-x="833" 
d="M645 500h129v-500h-715v500h129v-379h164v379h129v-379h164v379z" />
    <glyph glyph-name="uni0449" unicode="&#x449;" horiz-adv-x="848" 
d="M759 121h66v-255h-126v134h-640v500h129v-379h156v379h129v-379h157v379h129v-379z" />
    <glyph glyph-name="uni045F" unicode="&#x45f;" horiz-adv-x="575" 
d="M387 500h129v-500h-165v-134h-126v134h-166v500h129v-379h199v379z" />
    <glyph glyph-name="uni044C" unicode="&#x44c;" horiz-adv-x="496" 
d="M285 340c114 0 189 -68 189 -170s-75 -170 -189 -170h-226v500h129v-160h97zM286 114c36 0 62 22 62 56s-26 57 -62 57h-98v-113h98z" />
    <glyph glyph-name="uni044A" unicode="&#x44a;" horiz-adv-x="574" 
d="M363 340c113 0 188 -68 188 -170s-75 -170 -188 -170h-227v376h-136v124h265v-160h98zM363 114c36 0 62 22 62 56s-26 57 -62 57h-98v-113h98z" />
    <glyph glyph-name="uni044B" unicode="&#x44b;" horiz-adv-x="717" 
d="M285 340c114 0 189 -68 189 -170s-75 -170 -189 -170h-226v500h129v-160h97zM529 500h129v-500h-129v500zM286 114c36 0 62 22 62 56s-26 57 -62 57h-98v-113h98z" />
    <glyph glyph-name="uni0459" unicode="&#x459;" horiz-adv-x="764" 
d="M570 328c105 0 171 -62 171 -164s-69 -164 -171 -164h-221v376h-128v-167c0 -158 -76 -224 -211 -215v121c53 -7 82 23 82 101v284h386v-172h92zM571 114c27 0 52 16 52 50s-25 50 -52 50h-93v-100h93z" />
    <glyph glyph-name="uni045A" unicode="&#x45a;" horiz-adv-x="790" 
d="M589 328c104 0 178 -62 178 -164s-76 -164 -178 -164h-222v207h-187v-207h-129v500h129v-172h187v172h129v-172h93zM589 114c28 0 52 16 52 50s-24 50 -52 50h-93v-100h93z" />
    <glyph glyph-name="uni0455" unicode="&#x455;" horiz-adv-x="465" 
d="M178 358c0 -74 258 -28 258 -212c0 -108 -94 -160 -201 -160c-100 0 -174 42 -210 119l112 63c14 -41 48 -65 98 -65c41 0 69 14 69 43c0 73 -258 33 -258 209c0 102 87 159 190 159c81 0 151 -37 190 -106l-110 -60c-15 32 -43 51 -80 51c-32 0 -58 -14 -58 -41z" />
    <glyph glyph-name="uni0454" unicode="&#x454;" horiz-adv-x="537" 
d="M415 179l109 -63c-40 -78 -125 -130 -229 -130c-153 0 -262 108 -262 264s109 264 261 264c103 0 187 -51 229 -129l-109 -63c-19 39 -61 68 -121 68c-57 0 -102 -33 -122 -82h170v-116h-170c20 -49 65 -82 122 -82c63 0 105 30 122 69z" />
    <glyph glyph-name="uni044D" unicode="&#x44d;" horiz-adv-x="537" 
d="M243 514c152 0 261 -108 261 -264s-109 -264 -262 -264c-104 0 -189 52 -229 130l109 63c17 -39 59 -69 122 -69c57 0 102 33 122 82h-170v116h170c-20 49 -65 82 -122 82c-60 0 -102 -29 -121 -68l-109 63c42 78 126 129 229 129z" />
    <glyph glyph-name="uni0456" unicode="&#x456;" horiz-adv-x="247" 
d="M123 560c-43 0 -79 36 -79 79s36 80 79 80c44 0 80 -37 80 -80s-36 -79 -80 -79zM59 0v500h129v-500h-129z" />
    <glyph glyph-name="uni0457" unicode="&#x457;" horiz-adv-x="247" 
d="M28 549c-37 0 -68 30 -68 67s31 68 68 68s67 -31 67 -68s-30 -67 -67 -67zM218 549c-37 0 -68 30 -68 67s31 68 68 68s67 -31 67 -68s-30 -67 -67 -67zM59 0v500h129v-500h-129z" />
    <glyph glyph-name="uni0458" unicode="&#x458;" horiz-adv-x="264" 
d="M141 560c-44 0 -80 36 -80 79s36 80 80 80c43 0 79 -37 79 -80s-36 -79 -79 -79zM76 -10v510h129v-510c0 -147 -70 -213 -218 -204v124c61 -4 89 19 89 80z" />
    <glyph glyph-name="uni045B" unicode="&#x45b;" horiz-adv-x="583" 
d="M343 514c107 0 190 -74 190 -207v-307h-129v291c0 68 -42 103 -100 103c-63 0 -110 -37 -110 -124v-270h-129v554h-62v84h62v62h129v-62h141v-84h-141v-111c30 46 82 71 149 71z" />
    <glyph glyph-name="uni044E" unicode="&#x44e;" horiz-adv-x="811" 
d="M514 514c147 0 265 -115 265 -264s-118 -264 -265 -264c-126 0 -228 85 -254 204h-72v-190h-129v500h129v-189h73c26 118 128 203 253 203zM514 112c77 0 136 57 136 138s-59 138 -136 138c-76 0 -135 -57 -135 -138s59 -138 135 -138z" />
    <glyph glyph-name="uni044F" unicode="&#x44f;" horiz-adv-x="519" 
d="M460 500v-500h-126v156h-45l-115 -156h-149l125 171c-65 27 -105 91 -105 157c0 89 68 172 181 172h234zM236 385c-37 0 -65 -23 -65 -61c0 -37 28 -59 65 -59h98v120h-98z" />
    <glyph glyph-name="uni0452" unicode="&#x452;" horiz-adv-x="583" 
d="M343 514c107 0 190 -74 190 -207v-317c0 -147 -71 -213 -218 -204v124c61 -4 89 19 89 80v301c0 68 -42 103 -100 103c-63 0 -110 -37 -110 -124v-270h-129v554h-62v84h62v62h129v-62h141v-84h-141v-111c30 46 82 71 149 71z" />
    <glyph glyph-name="uni0432.loclBGR" horiz-adv-x="566" 
d="M419 409c73 -30 115 -97 115 -195c0 -143 -88 -228 -238 -228c-144 0 -237 96 -237 243v238c0 148 89 247 227 247c115 0 195 -67 195 -174c0 -47 -20 -88 -62 -131zM286 593c-60 0 -98 -51 -98 -126v-58l47 10c21 4 42 7 61 8c45 36 59 66 59 98c0 40 -25 68 -69 68z
M296 111c69 0 109 38 109 103c0 79 -68 109 -170 88l-47 -10v-63c0 -73 42 -118 108 -118z" />
    <glyph glyph-name="uni0433.loclBGR" horiz-adv-x="465" 
d="M333 170l112 -64c-36 -77 -110 -120 -210 -120c-108 0 -201 52 -201 160c0 184 252 138 252 212c0 27 -25 41 -56 41c-38 0 -66 -20 -82 -52l-109 60c38 68 108 107 191 107c102 0 188 -57 188 -159c0 -180 -252 -130 -252 -206c0 -30 27 -46 69 -46c50 0 84 25 98 67z
" />
    <glyph glyph-name="uni0434.loclBGR" 
d="M442 500h126v-476c0 -164 -129 -238 -261 -238c-107 0 -193 41 -237 122l110 63c21 -39 54 -70 131 -70c81 0 131 44 131 123v54c-35 -47 -89 -76 -160 -76c-142 0 -249 115 -249 256c0 140 107 256 249 256c71 0 125 -29 160 -76v62zM302 121c81 0 140 57 140 137
c0 79 -59 136 -140 136s-140 -57 -140 -136c0 -80 59 -137 140 -137z" />
    <glyph glyph-name="uni0436.loclBGR" horiz-adv-x="746" 
d="M734 0h-145l-153 223v-223h-126v223l-153 -223h-144l180 253l-170 247h144l143 -216v416h126v-416l143 216h145l-171 -247z" />
    <glyph glyph-name="uni0438.loclBGR" horiz-adv-x="577" 
d="M389 500h129v-500h-129v56c-30 -45 -82 -70 -149 -70c-106 0 -189 74 -189 207v307h129v-291c0 -68 41 -103 99 -103c63 0 110 37 110 124v270z" />
    <glyph glyph-name="uni0439.loclBGR" horiz-adv-x="577" 
d="M429 676v-112h-290v112h290zM389 500h129v-500h-129v56c-30 -45 -82 -70 -149 -70c-106 0 -189 74 -189 207v307h129v-291c0 -68 41 -103 99 -103c63 0 110 37 110 124v270z" />
    <glyph glyph-name="uni043A.loclBGR" horiz-adv-x="525" 
d="M520 0h-150l-182 227v-227h-129v700h129v-420l172 220h154l-201 -247z" />
    <glyph glyph-name="uni043B.loclBGR" horiz-adv-x="533" 
d="M530 0h-142l-122 350l-121 -350h-142l190 500h147z" />
    <glyph glyph-name="uni043F.loclBGR" horiz-adv-x="577" 
d="M337 514c106 0 189 -74 189 -207v-307h-129v291c0 68 -41 103 -99 103c-63 0 -110 -37 -110 -124v-270h-129v500h129v-56c30 45 82 70 149 70z" />
    <glyph glyph-name="uni0442.loclBGR" horiz-adv-x="852" 
d="M612 514c114 0 189 -81 189 -206v-308h-129v299c0 59 -30 95 -84 95c-57 0 -93 -38 -93 -113v-281h-129v299c0 59 -30 95 -84 95c-55 0 -94 -38 -94 -113v-281h-129v500h129v-53c28 42 75 67 139 67c62 0 108 -26 136 -72c31 45 81 72 149 72z" />
    <glyph glyph-name="uni0446.loclBGR" horiz-adv-x="616" 
d="M550 121h43v-255h-126v144c-27 11 -48 29 -62 55c-33 -51 -88 -79 -165 -79c-106 0 -189 75 -189 207v307h129v-290c0 -69 41 -104 99 -104c63 0 110 37 110 124v270h129v-347c0 -20 12 -32 32 -32z" />
    <glyph glyph-name="uni0448.loclBGR" horiz-adv-x="852" 
d="M664 500h129v-500h-129v53c-28 -42 -75 -67 -139 -67c-62 0 -108 26 -136 72c-31 -45 -81 -72 -149 -72c-114 0 -189 81 -189 206v308h129v-299c0 -59 30 -95 84 -95c57 0 93 38 93 113v281h129v-299c0 -59 30 -95 84 -95c55 0 94 38 94 113v281z" />
    <glyph glyph-name="uni0449.loclBGR" horiz-adv-x="891" 
d="M825 121h43v-255h-126v144c-26 10 -46 27 -59 50c-31 -46 -79 -74 -150 -74c-67 0 -115 27 -144 73c-31 -46 -81 -73 -149 -73c-114 0 -189 81 -189 206v308h129v-298c0 -60 30 -96 84 -96c57 0 93 38 93 113v281h129v-298c0 -60 30 -96 84 -96c55 0 94 38 94 113v281
h129v-347c0 -20 12 -32 32 -32z" />
    <glyph glyph-name="uni044C.loclBGR" horiz-adv-x="493" 
d="M268 361c132 0 203 -69 203 -182c0 -108 -84 -193 -210 -193c-132 0 -210 80 -210 200v314h126v-139h91zM261 108c50 0 84 37 84 72c0 39 -27 67 -77 67h-91v-61c0 -44 31 -78 84 -78z" />
    <glyph glyph-name="uni044A.loclBGR" horiz-adv-x="579" 
d="M354 361c132 0 202 -69 202 -182c0 -108 -84 -193 -210 -193c-132 0 -210 80 -210 200v193h-136v121h262v-139h92zM346 108c50 0 84 37 84 72c0 39 -26 67 -76 67h-92v-61c0 -44 32 -78 84 -78z" />
    <glyph glyph-name="uni044E.loclBGR" horiz-adv-x="811" 
d="M514 514c147 0 265 -115 265 -264s-118 -264 -265 -264c-126 0 -228 85 -254 204h-72v-190h-129v700h129v-389h73c26 118 128 203 253 203zM514 112c77 0 136 57 136 138s-59 138 -136 138c-76 0 -135 -57 -135 -138s59 -138 135 -138z" />
    <glyph glyph-name="uni0394" unicode="&#x394;" horiz-adv-x="653" 
d="M412 700l238 -700h-647l238 700h171zM193 129h266l-133 418z" />
    <glyph glyph-name="uni03A9" unicode="&#x3a9;" horiz-adv-x="777" 
d="M752 365c0 -94 -41 -176 -107 -233h94v-132h-277v132c90 29 153 111 153 218c0 135 -99 230 -226 230s-226 -95 -226 -230c0 -107 62 -189 152 -218v-132h-276v132h93c-66 57 -107 139 -107 233c0 197 162 349 364 349c201 0 363 -152 363 -349z" />
    <glyph glyph-name="pi" unicode="&#x3c0;" horiz-adv-x="665" 
d="M643 500v-121h-80v-379h-129v379h-199v-379h-129v379h-83v121h620z" />
    <glyph glyph-name="zero" unicode="0" horiz-adv-x="630" 
d="M315 -14c-178 0 -280 148 -280 364s102 364 280 364c179 0 280 -148 280 -364s-101 -364 -280 -364zM315 121c94 0 143 81 143 229s-49 230 -143 230s-142 -82 -142 -230s48 -229 142 -229z" />
    <glyph glyph-name="one" unicode="1" horiz-adv-x="387" 
d="M195 700h120v-700h-138v554l-132 -37l-34 118z" />
    <glyph glyph-name="two" unicode="2" horiz-adv-x="531" 
d="M27 0v103l239 246c45 47 80 93 80 140c0 56 -38 91 -91 91c-54 0 -94 -32 -117 -82l-116 68c45 100 136 148 231 148c120 0 231 -80 231 -220c0 -85 -49 -158 -115 -224l-137 -137h263v-133h-468z" />
    <glyph glyph-name="three" unicode="3" horiz-adv-x="545" 
d="M353 416c91 -27 160 -97 160 -200c0 -150 -118 -230 -250 -230c-105 0 -200 48 -240 148l118 68c17 -52 56 -81 122 -81c72 0 112 38 112 95c0 56 -40 95 -112 95h-30l-53 80l138 180h-274v129h440v-114z" />
    <glyph glyph-name="four" unicode="4" horiz-adv-x="580" 
d="M566 247v-128h-75v-119h-139v119h-331v128l233 453h148l-232 -453h182v166h139v-166h75z" />
    <glyph glyph-name="five" unicode="5" horiz-adv-x="548" 
d="M280 445c128 0 239 -79 239 -229s-118 -230 -250 -230c-109 0 -204 48 -244 150l118 69c17 -54 56 -84 126 -84c72 0 112 38 112 95c0 56 -40 95 -108 95h-212l28 389h397v-129h-269l-9 -126h72z" />
    <glyph glyph-name="six" unicode="6" horiz-adv-x="553" 
d="M285 473c145 -4 245 -103 245 -243c0 -143 -104 -244 -254 -244s-253 101 -253 244c0 54 15 102 41 141l218 329h158zM276 116c65 0 117 43 117 114c0 70 -52 113 -117 113s-116 -42 -116 -113s51 -114 116 -114z" />
    <glyph glyph-name="seven" unicode="7" horiz-adv-x="490" 
d="M13 700h452v-117l-237 -583h-146l230 568h-299v132z" />
    <glyph glyph-name="eight" unicode="8" horiz-adv-x="568" 
d="M438 364c62 -37 97 -98 97 -169c0 -129 -96 -209 -251 -209c-156 0 -251 80 -251 209c0 71 35 132 96 169c-44 32 -73 80 -73 145c0 135 105 205 228 205s227 -70 227 -205c0 -65 -28 -113 -73 -145zM284 584c-52 0 -90 -30 -90 -82c0 -51 38 -83 90 -83s90 32 90 83
c0 52 -38 82 -90 82zM284 116c66 0 114 34 114 97c0 62 -48 96 -114 96s-114 -34 -114 -96c0 -63 48 -97 114 -97z" />
    <glyph glyph-name="nine" unicode="9" horiz-adv-x="553" 
d="M530 471c0 -54 -15 -103 -42 -142h1l-218 -329h-158l156 228c-145 3 -246 102 -246 243c0 143 104 243 253 243c151 0 254 -100 254 -243zM160 471c0 -71 52 -114 116 -114c66 0 117 43 117 114s-51 113 -117 113c-64 0 -116 -43 -116 -113z" />
    <glyph glyph-name="zero.sinf" horiz-adv-x="409" 
d="M204 -174c-111 0 -181 83 -181 214s70 214 181 214s182 -83 182 -214s-71 -214 -182 -214zM204 -67c46 0 72 38 72 107s-26 107 -72 107c-45 0 -71 -38 -71 -107s26 -107 71 -107z" />
    <glyph glyph-name="one.sinf" horiz-adv-x="265" 
d="M123 240h94v-400h-107v292l-82 -23l-25 88z" />
    <glyph glyph-name="two.sinf" horiz-adv-x="349" 
d="M24 -160v70l150 149c23 22 35 43 35 61c0 22 -16 36 -41 36c-30 0 -49 -19 -62 -51l-87 50c25 59 76 99 150 99c84 0 148 -52 148 -126c0 -51 -30 -91 -68 -129l-65 -62h139v-97h-299z" />
    <glyph glyph-name="three.sinf" horiz-adv-x="345" 
d="M231 75c57 -16 90 -57 90 -114c0 -87 -59 -135 -155 -135c-81 0 -131 34 -156 89l90 52c13 -35 35 -47 66 -47s48 15 48 41c0 25 -21 40 -51 40h-19l-40 58l69 84h-145v97h275v-79z" />
    <glyph glyph-name="four.sinf" horiz-adv-x="357" 
d="M341 2v-98h-41v-64h-102v64h-187v98l129 238h114l-123 -238h67v69h102v-69h41z" />
    <glyph glyph-name="five.sinf" horiz-adv-x="336" 
d="M174 89c83 0 142 -41 142 -132c0 -87 -62 -131 -146 -131c-82 0 -131 34 -156 89l88 50c12 -32 34 -47 65 -47c34 0 51 17 51 41c0 25 -17 43 -51 43h-128l16 238h242v-97h-152l-4 -54h33z" />
    <glyph glyph-name="six.sinf" horiz-adv-x="340" 
d="M185 110c84 -6 139 -63 139 -141c0 -83 -61 -143 -154 -143c-92 0 -154 60 -154 143c0 27 7 52 19 73l125 198h110zM170 -84c33 0 55 19 55 53c0 33 -22 51 -55 51c-32 0 -54 -18 -54 -51c0 -34 22 -53 54 -53z" />
    <glyph glyph-name="seven.sinf" horiz-adv-x="295" 
d="M3 240h276v-82l-126 -318h-111l121 303h-160v97z" />
    <glyph glyph-name="eight.sinf" horiz-adv-x="349" 
d="M270 50c38 -22 58 -59 58 -101c0 -74 -56 -123 -153 -123s-154 49 -154 123c0 42 21 79 59 101c-28 19 -45 48 -45 84c0 75 61 120 140 120s140 -45 140 -120c0 -36 -17 -65 -45 -84zM175 163c-30 0 -48 -13 -48 -38s18 -39 48 -39c27 0 48 14 48 39s-21 38 -48 38z
M175 -82c33 0 52 18 52 46c0 27 -20 45 -52 45c-34 0 -53 -18 -53 -45c0 -28 19 -46 53 -46z" />
    <glyph glyph-name="nine.sinf" horiz-adv-x="340" 
d="M324 111c0 -27 -7 -52 -19 -73l-124 -198h-111l85 130c-84 6 -139 64 -139 141c0 83 62 143 154 143c93 0 154 -60 154 -143zM116 111c0 -33 22 -51 54 -51c33 0 55 18 55 51c0 34 -22 53 -55 53c-32 0 -54 -19 -54 -53z" />
    <glyph glyph-name="zero.tf" horiz-adv-x="578" 
d="M289 -14c-179 0 -280 148 -280 364s101 364 280 364c178 0 280 -148 280 -364s-102 -364 -280 -364zM289 121c94 0 142 81 142 229s-48 230 -142 230s-143 -82 -143 -230s49 -229 143 -229z" />
    <glyph glyph-name="one.tf" horiz-adv-x="578" 
d="M369 132h190v-132h-530v132h202v422l-132 -37l-34 118l184 65h120v-568z" />
    <glyph glyph-name="two.tf" horiz-adv-x="578" 
d="M34 0v103l255 231c56 50 100 96 100 148c0 50 -33 98 -107 98c-59 0 -100 -33 -130 -91l-116 68c50 104 142 157 247 157c144 0 243 -95 243 -224c0 -93 -56 -164 -143 -241l-132 -116h287v-133h-504z" />
    <glyph glyph-name="three.tf" horiz-adv-x="578" 
d="M380 424c98 -27 169 -95 169 -204c0 -151 -114 -234 -259 -234c-127 0 -224 55 -268 164l118 68c21 -61 69 -97 143 -97c84 0 128 38 128 99c0 60 -44 99 -128 99h-28l-55 81l144 171h-300v129h473v-114z" />
    <glyph glyph-name="four.tf" horiz-adv-x="578" 
d="M561 247v-128h-75v-119h-139v119h-338v128l232 453h148l-232 -453h190v161h139v-161h75z" />
    <glyph glyph-name="five.tf" horiz-adv-x="578" 
d="M296 445c142 0 253 -79 253 -229s-118 -230 -256 -230c-128 0 -225 55 -269 164l118 68c21 -61 70 -97 147 -97c82 0 122 38 122 95c0 56 -40 95 -122 95h-225l28 389h424v-129h-298l-10 -126h88z" />
    <glyph glyph-name="six.tf" horiz-adv-x="578" 
d="M291 480c163 -2 265 -102 265 -247c0 -146 -104 -247 -270 -247s-270 101 -270 247c0 62 19 116 53 158l222 309h159zM286 116c81 0 133 43 133 117s-52 118 -133 118s-132 -43 -132 -118c0 -74 51 -117 132 -117z" />
    <glyph glyph-name="seven.tf" horiz-adv-x="578" 
d="M25 700h520v-117l-265 -583h-145l256 568h-366v132z" />
    <glyph glyph-name="eight.tf" horiz-adv-x="578" 
d="M456 364c66 -37 103 -98 103 -169c0 -128 -102 -209 -270 -209s-270 81 -270 209c0 71 37 132 103 169c-49 32 -79 80 -79 145c0 134 110 205 246 205c135 0 246 -71 246 -205c0 -65 -31 -113 -79 -145zM289 584c-68 0 -109 -31 -109 -82c0 -50 41 -83 109 -83
s109 33 109 83c0 51 -41 82 -109 82zM289 116c86 0 133 36 133 97s-47 96 -133 96s-133 -35 -133 -96s47 -97 133 -97z" />
    <glyph glyph-name="nine.tf" horiz-adv-x="578" 
d="M561 467c0 -58 -16 -108 -45 -148l-229 -319h-159l159 220c-163 2 -266 101 -266 247c0 147 105 247 270 247c167 0 270 -100 270 -247zM159 467c0 -74 52 -117 132 -117c82 0 133 42 133 117s-51 117 -133 117c-80 0 -132 -43 -132 -117z" />
    <glyph glyph-name="zero.dnom" horiz-adv-x="409" 
d="M204 -14c-111 0 -181 83 -181 214s70 214 181 214s182 -83 182 -214s-71 -214 -182 -214zM204 93c46 0 72 38 72 107s-26 107 -72 107c-45 0 -71 -38 -71 -107s26 -107 71 -107z" />
    <glyph glyph-name="one.dnom" horiz-adv-x="267" 
d="M123 400h94v-400h-107v292l-82 -23l-25 88z" />
    <glyph glyph-name="two.dnom" horiz-adv-x="356" 
d="M24 0v70l150 149c23 22 35 43 35 61c0 22 -16 36 -41 36c-30 0 -49 -19 -62 -51l-87 50c25 59 76 99 150 99c84 0 148 -52 148 -126c0 -51 -30 -91 -68 -129l-65 -62h139v-97h-299z" />
    <glyph glyph-name="three.dnom" horiz-adv-x="348" 
d="M231 235c57 -16 90 -57 90 -114c0 -87 -59 -135 -155 -135c-81 0 -131 34 -156 89l90 52c13 -35 35 -47 66 -47s48 15 48 41c0 25 -21 40 -51 40h-19l-40 58l69 84h-145v97h275v-79z" />
    <glyph glyph-name="four.dnom" horiz-adv-x="357" 
d="M341 162v-98h-41v-64h-102v64h-187v98l129 238h114l-123 -238h67v69h102v-69h41z" />
    <glyph glyph-name="five.dnom" horiz-adv-x="334" 
d="M173 249c83 0 142 -41 142 -132c0 -87 -62 -131 -146 -131c-82 0 -131 34 -156 89l88 50c12 -32 34 -47 65 -47c34 0 51 17 51 41c0 25 -17 43 -51 43h-128l16 238h242v-97h-152l-4 -54h33z" />
    <glyph glyph-name="six.dnom" horiz-adv-x="340" 
d="M185 270c84 -6 139 -63 139 -141c0 -83 -61 -143 -154 -143c-92 0 -154 60 -154 143c0 27 7 52 19 73l125 198h110zM170 76c33 0 55 19 55 53c0 33 -22 51 -55 51c-32 0 -54 -18 -54 -51c0 -34 22 -53 54 -53z" />
    <glyph glyph-name="seven.dnom" horiz-adv-x="295" 
d="M3 400h276v-82l-126 -318h-111l121 303h-160v97z" />
    <glyph glyph-name="eight.dnom" horiz-adv-x="349" 
d="M270 210c38 -22 58 -59 58 -101c0 -74 -56 -123 -153 -123s-154 49 -154 123c0 42 21 79 59 101c-28 19 -45 48 -45 84c0 75 61 120 140 120s140 -45 140 -120c0 -36 -17 -65 -45 -84zM175 323c-30 0 -48 -13 -48 -38s18 -39 48 -39c27 0 48 14 48 39s-21 38 -48 38z
M175 78c33 0 52 18 52 46c0 27 -20 45 -52 45c-34 0 -53 -18 -53 -45c0 -28 19 -46 53 -46z" />
    <glyph glyph-name="nine.dnom" horiz-adv-x="340" 
d="M324 271c0 -27 -7 -52 -19 -73l-124 -198h-111l85 130c-84 6 -139 64 -139 141c0 83 62 143 154 143c93 0 154 -60 154 -143zM116 271c0 -33 22 -51 54 -51c33 0 55 18 55 51c0 34 -22 53 -55 53c-32 0 -54 -19 -54 -53z" />
    <glyph glyph-name="zero.numr" horiz-adv-x="409" 
d="M204 286c-111 0 -181 83 -181 214s70 214 181 214s182 -83 182 -214s-71 -214 -182 -214zM204 393c46 0 72 38 72 107s-26 107 -72 107c-45 0 -71 -38 -71 -107s26 -107 71 -107z" />
    <glyph glyph-name="one.numr" horiz-adv-x="267" 
d="M123 700h94v-400h-107v292l-82 -23l-25 88z" />
    <glyph glyph-name="two.numr" horiz-adv-x="356" 
d="M24 300v70l150 149c23 22 35 43 35 61c0 22 -16 36 -41 36c-30 0 -49 -19 -62 -51l-87 50c25 59 76 99 150 99c84 0 148 -52 148 -126c0 -51 -30 -91 -68 -129l-65 -62h139v-97h-299z" />
    <glyph glyph-name="three.numr" horiz-adv-x="348" 
d="M231 535c57 -16 90 -57 90 -114c0 -87 -59 -135 -155 -135c-81 0 -131 34 -156 89l90 52c13 -35 35 -47 66 -47s48 15 48 41c0 25 -21 40 -51 40h-19l-40 58l69 84h-145v97h275v-79z" />
    <glyph glyph-name="four.numr" horiz-adv-x="357" 
d="M341 462v-98h-41v-64h-102v64h-187v98l129 238h114l-123 -238h67v69h102v-69h41z" />
    <glyph glyph-name="five.numr" horiz-adv-x="334" 
d="M173 549c83 0 142 -41 142 -132c0 -87 -62 -131 -146 -131c-82 0 -131 34 -156 89l88 50c12 -32 34 -47 65 -47c34 0 51 17 51 41c0 25 -17 43 -51 43h-128l16 238h242v-97h-152l-4 -54h33z" />
    <glyph glyph-name="six.numr" horiz-adv-x="340" 
d="M185 570c84 -6 139 -63 139 -141c0 -83 -61 -143 -154 -143c-92 0 -154 60 -154 143c0 27 7 52 19 73l125 198h110zM170 376c33 0 55 19 55 53c0 33 -22 51 -55 51c-32 0 -54 -18 -54 -51c0 -34 22 -53 54 -53z" />
    <glyph glyph-name="seven.numr" horiz-adv-x="295" 
d="M3 700h276v-82l-126 -318h-111l121 303h-160v97z" />
    <glyph glyph-name="eight.numr" horiz-adv-x="349" 
d="M270 510c38 -22 58 -59 58 -101c0 -74 -56 -123 -153 -123s-154 49 -154 123c0 42 21 79 59 101c-28 19 -45 48 -45 84c0 75 61 120 140 120s140 -45 140 -120c0 -36 -17 -65 -45 -84zM175 623c-30 0 -48 -13 -48 -38s18 -39 48 -39c27 0 48 14 48 39s-21 38 -48 38z
M175 378c33 0 52 18 52 46c0 27 -20 45 -52 45c-34 0 -53 -18 -53 -45c0 -28 19 -46 53 -46z" />
    <glyph glyph-name="nine.numr" horiz-adv-x="340" 
d="M324 571c0 -27 -7 -52 -19 -73l-124 -198h-111l85 130c-84 6 -139 64 -139 141c0 83 62 143 154 143c93 0 154 -60 154 -143zM116 571c0 -33 22 -51 54 -51c33 0 55 18 55 51c0 34 -22 53 -55 53c-32 0 -54 -19 -54 -53z" />
    <glyph glyph-name="zero.sups" horiz-adv-x="409" 
d="M204 446c-111 0 -181 83 -181 214s70 214 181 214s182 -83 182 -214s-71 -214 -182 -214zM204 553c46 0 72 38 72 107s-26 107 -72 107c-45 0 -71 -38 -71 -107s26 -107 71 -107z" />
    <glyph glyph-name="one.sups" horiz-adv-x="267" 
d="M123 860h94v-400h-107v292l-82 -23l-25 88z" />
    <glyph glyph-name="two.sups" horiz-adv-x="356" 
d="M24 460v70l150 149c23 22 35 43 35 61c0 22 -16 36 -41 36c-30 0 -49 -19 -62 -51l-87 50c25 59 76 99 150 99c84 0 148 -52 148 -126c0 -51 -30 -91 -68 -129l-65 -62h139v-97h-299z" />
    <glyph glyph-name="three.sups" horiz-adv-x="348" 
d="M231 695c57 -16 90 -57 90 -114c0 -87 -59 -135 -155 -135c-81 0 -131 34 -156 89l90 52c13 -35 35 -47 66 -47s48 15 48 41c0 25 -21 40 -51 40h-19l-40 58l69 84h-145v97h275v-79z" />
    <glyph glyph-name="four.sups" horiz-adv-x="357" 
d="M341 622v-98h-41v-64h-102v64h-187v98l129 238h114l-123 -238h67v69h102v-69h41z" />
    <glyph glyph-name="five.sups" horiz-adv-x="334" 
d="M173 709c83 0 142 -41 142 -132c0 -87 -62 -131 -146 -131c-82 0 -131 34 -156 89l88 50c12 -32 34 -47 65 -47c34 0 51 17 51 41c0 25 -17 43 -51 43h-128l16 238h242v-97h-152l-4 -54h33z" />
    <glyph glyph-name="six.sups" horiz-adv-x="340" 
d="M185 730c84 -6 139 -63 139 -141c0 -83 -61 -143 -154 -143c-92 0 -154 60 -154 143c0 27 7 52 19 73l125 198h110zM170 536c33 0 55 19 55 53c0 33 -22 51 -55 51c-32 0 -54 -18 -54 -51c0 -34 22 -53 54 -53z" />
    <glyph glyph-name="seven.sups" horiz-adv-x="295" 
d="M3 860h276v-82l-126 -318h-111l121 303h-160v97z" />
    <glyph glyph-name="eight.sups" horiz-adv-x="349" 
d="M270 670c38 -22 58 -59 58 -101c0 -74 -56 -123 -153 -123s-154 49 -154 123c0 42 21 79 59 101c-28 19 -45 48 -45 84c0 75 61 120 140 120s140 -45 140 -120c0 -36 -17 -65 -45 -84zM175 783c-30 0 -48 -13 -48 -38s18 -39 48 -39c27 0 48 14 48 39s-21 38 -48 38z
M175 538c33 0 52 18 52 46c0 27 -20 45 -52 45c-34 0 -53 -18 -53 -45c0 -28 19 -46 53 -46z" />
    <glyph glyph-name="nine.sups" horiz-adv-x="340" 
d="M324 731c0 -27 -7 -52 -19 -73l-124 -198h-111l85 130c-84 6 -139 64 -139 141c0 83 62 143 154 143c93 0 154 -60 154 -143zM116 731c0 -33 22 -51 54 -51c33 0 55 18 55 51c0 34 -22 53 -55 53c-32 0 -54 -19 -54 -53z" />
    <glyph glyph-name="fraction" unicode="&#x2044;" horiz-adv-x="190" 
d="M-60 0h-90l400 700h90z" />
    <glyph glyph-name="onehalf" unicode="&#xbd;" horiz-adv-x="813" 
d="M217 300h-107v292l-82 -23l-25 88l120 43h94v-400zM517 700h90l-400 -700h-90zM641 97h139v-97h-299v70l150 149c23 22 35 43 35 61c0 22 -16 36 -41 36c-30 0 -49 -19 -62 -51l-87 50c25 59 76 99 150 99c84 0 148 -52 148 -126c0 -51 -30 -91 -68 -129z" />
    <glyph glyph-name="onequarter" unicode="&#xbc;" horiz-adv-x="814" 
d="M217 300h-107v292l-82 -23l-25 88l120 43h94v-400zM517 700h90l-400 -700h-90zM798 162v-98h-41v-64h-102v64h-187v98l129 238h114l-123 -238h67v69h102v-69h41z" />
    <glyph glyph-name="threequarters" unicode="&#xbe;" horiz-adv-x="895" 
d="M321 421c0 -87 -59 -135 -155 -135c-81 0 -131 34 -156 89l90 52c13 -35 35 -47 66 -47s48 15 48 41c0 25 -21 40 -51 40h-19l-40 58l69 84h-145v97h275v-79l-72 -86c57 -16 90 -57 90 -114zM598 700h90l-400 -700h-90zM879 162v-98h-41v-64h-102v64h-187v98l129 238h114
l-123 -238h67v69h102v-69h41z" />
    <glyph glyph-name="oneeighth" unicode="&#x215b;" horiz-adv-x="806" 
d="M217 300h-107v292l-82 -23l-25 88l120 43h94v-400zM517 700h90l-400 -700h-90zM727 210c38 -22 58 -59 58 -101c0 -74 -56 -123 -153 -123s-154 49 -154 123c0 42 21 79 59 101c-28 19 -45 48 -45 84c0 75 61 120 140 120s140 -45 140 -120c0 -36 -17 -65 -45 -84z
M632 323c-30 0 -48 -13 -48 -38s18 -39 48 -39c27 0 48 14 48 39s-21 38 -48 38zM632 78c33 0 52 18 52 46c0 27 -20 45 -52 45c-34 0 -53 -18 -53 -45c0 -28 19 -46 53 -46z" />
    <glyph glyph-name="threeeighths" unicode="&#x215c;" horiz-adv-x="887" 
d="M321 421c0 -87 -59 -135 -155 -135c-81 0 -131 34 -156 89l90 52c13 -35 35 -47 66 -47s48 15 48 41c0 25 -21 40 -51 40h-19l-40 58l69 84h-145v97h275v-79l-72 -86c57 -16 90 -57 90 -114zM598 700h90l-400 -700h-90zM808 210c38 -22 58 -59 58 -101
c0 -74 -56 -123 -153 -123s-154 49 -154 123c0 42 21 79 59 101c-28 19 -45 48 -45 84c0 75 61 120 140 120s140 -45 140 -120c0 -36 -17 -65 -45 -84zM713 323c-30 0 -48 -13 -48 -38s18 -39 48 -39c27 0 48 14 48 39s-21 38 -48 38zM713 78c33 0 52 18 52 46
c0 27 -20 45 -52 45c-34 0 -53 -18 -53 -45c0 -28 19 -46 53 -46z" />
    <glyph glyph-name="fiveeighths" unicode="&#x215d;" horiz-adv-x="873" 
d="M315 417c0 -87 -62 -131 -146 -131c-82 0 -131 34 -156 89l88 50c12 -32 34 -47 65 -47c34 0 51 17 51 41c0 25 -17 43 -51 43h-128l16 238h242v-97h-152l-4 -54h33c83 0 142 -41 142 -132zM584 700h90l-400 -700h-90zM794 210c38 -22 58 -59 58 -101
c0 -74 -56 -123 -153 -123s-154 49 -154 123c0 42 21 79 59 101c-28 19 -45 48 -45 84c0 75 61 120 140 120s140 -45 140 -120c0 -36 -17 -65 -45 -84zM699 323c-30 0 -48 -13 -48 -38s18 -39 48 -39c27 0 48 14 48 39s-21 38 -48 38zM699 78c33 0 52 18 52 46
c0 27 -20 45 -52 45c-34 0 -53 -18 -53 -45c0 -28 19 -46 53 -46z" />
    <glyph glyph-name="seveneighths" unicode="&#x215e;" horiz-adv-x="834" 
d="M153 300h-111l121 303h-160v97h276v-82zM545 700h90l-400 -700h-90zM755 210c38 -22 58 -59 58 -101c0 -74 -56 -123 -153 -123s-154 49 -154 123c0 42 21 79 59 101c-28 19 -45 48 -45 84c0 75 61 120 140 120s140 -45 140 -120c0 -36 -17 -65 -45 -84zM660 323
c-30 0 -48 -13 -48 -38s18 -39 48 -39c27 0 48 14 48 39s-21 38 -48 38zM660 78c33 0 52 18 52 46c0 27 -20 45 -52 45c-34 0 -53 -18 -53 -45c0 -28 19 -46 53 -46z" />
    <glyph glyph-name="asterisk" unicode="*" horiz-adv-x="398" 
d="M346 609v-80l-91 7l55 -70l-68 -42l-43 84l-43 -84l-67 42l54 70l-90 -7v80l90 -8l-54 71l67 42l43 -84l43 84l68 -42l-55 -71z" />
    <glyph glyph-name="backslash" unicode="\" horiz-adv-x="523" 
d="M433 -100l-400 900h57l400 -900h-57z" />
    <glyph glyph-name="periodcentered" unicode="&#xb7;" horiz-adv-x="268" 
d="M134 262c-47 0 -85 38 -85 85s38 85 85 85s85 -38 85 -85s-38 -85 -85 -85z" />
    <glyph glyph-name="bullet" unicode="&#x2022;" horiz-adv-x="360" 
d="M182 213c-77 0 -139 62 -139 139c0 75 62 136 139 136c75 0 136 -61 136 -136c0 -77 -61 -139 -136 -139z" />
    <glyph glyph-name="colon" unicode=":" horiz-adv-x="268" 
d="M134 345c-47 0 -85 38 -85 85s38 85 85 85s85 -38 85 -85s-38 -85 -85 -85zM134 -13c-47 0 -85 38 -85 85s38 85 85 85s85 -38 85 -85s-38 -85 -85 -85z" />
    <glyph glyph-name="comma" unicode="," horiz-adv-x="278" 
d="M229 138l-75 -278h-105l40 278h140z" />
    <glyph glyph-name="ellipsis" unicode="&#x2026;" horiz-adv-x="723" 
d="M134 -13c-47 0 -85 38 -85 85s38 85 85 85s85 -38 85 -85s-38 -85 -85 -85zM362 -13c-47 0 -85 38 -85 85s38 85 85 85s85 -38 85 -85s-38 -85 -85 -85zM589 -13c-47 0 -85 38 -85 85s38 85 85 85s85 -38 85 -85s-38 -85 -85 -85z" />
    <glyph glyph-name="exclam" unicode="!" horiz-adv-x="268" 
d="M83 235l-27 265v200h155v-200l-26 -265h-102zM134 -13c-47 0 -85 38 -85 85s38 85 85 85s85 -38 85 -85s-38 -85 -85 -85z" />
    <glyph glyph-name="exclamdown" unicode="&#xa1;" horiz-adv-x="268" 
d="M134 513c47 0 85 -38 85 -85s-38 -85 -85 -85s-85 38 -85 85s38 85 85 85zM83 265h102l26 -265v-200h-155v200z" />
    <glyph glyph-name="numbersign" unicode="#" horiz-adv-x="616" 
d="M577 395h-108l-15 -90h109l-16 -97h-110l-26 -158h-102l26 158h-102l-26 -158h-101l26 158h-109l16 97h110l15 90h-111l16 98h111l26 157h101l-26 -157h102l26 157h102l-26 -157h108zM352 305l15 90h-102l-15 -90h102z" />
    <glyph glyph-name="period" unicode="." horiz-adv-x="268" 
d="M134 -13c-47 0 -85 38 -85 85s38 85 85 85s85 -38 85 -85s-38 -85 -85 -85z" />
    <glyph glyph-name="question" unicode="?" horiz-adv-x="553" 
d="M195 235c0 132 168 173 168 272c0 46 -33 73 -91 73c-59 0 -98 -35 -119 -89l-118 68c41 101 136 155 242 155c113 0 224 -68 224 -197c0 -150 -168 -194 -168 -282h-138zM264 -13c-47 0 -85 38 -85 85s38 85 85 85s85 -38 85 -85s-38 -85 -85 -85z" />
    <glyph glyph-name="questiondown" unicode="&#xbf;" horiz-adv-x="553" 
d="M289 513c47 0 85 -38 85 -85s-38 -85 -85 -85s-85 38 -85 85s38 85 85 85zM358 265c0 -132 -168 -173 -168 -272c0 -46 33 -73 91 -73c59 0 98 35 119 89l118 -68c-41 -101 -136 -155 -242 -155c-113 0 -224 68 -224 197c0 150 168 194 168 282h138z" />
    <glyph glyph-name="quotedbl" unicode="&#x22;" horiz-adv-x="378" 
d="M60 470l-17 230h122l-17 -230h-88zM230 470l-17 230h122l-17 -230h-88z" />
    <glyph glyph-name="quotesingle" unicode="'" horiz-adv-x="208" 
d="M60 470l-17 230h122l-17 -230h-88z" />
    <glyph glyph-name="semicolon" unicode=";" horiz-adv-x="279" 
d="M145 345c-47 0 -85 38 -85 85s38 85 85 85s85 -38 85 -85s-38 -85 -85 -85zM229 138l-75 -278h-105l40 278h140z" />
    <glyph glyph-name="slash" unicode="/" horiz-adv-x="523" 
d="M90 -100h-57l400 900h57z" />
    <glyph glyph-name="underscore" unicode="_" horiz-adv-x="520" 
d="M33 -171v124h455v-124h-455z" />
    <glyph glyph-name="braceleft" unicode="{" horiz-adv-x="359" 
d="M339 -107c-144 -10 -210 58 -210 186v148c0 58 -30 66 -79 62v125c49 -4 79 4 79 62v148c0 128 66 196 210 186v-124c-52 6 -81 -4 -81 -62v-148c0 -61 -20 -102 -60 -124c40 -23 60 -64 60 -125v-148c0 -58 29 -68 81 -62v-124z" />
    <glyph glyph-name="braceright" unicode="}" horiz-adv-x="359" 
d="M20 -107v124c52 -6 81 4 81 62v148c0 61 20 102 60 125c-40 22 -60 63 -60 124v148c0 58 -29 68 -81 62v124c144 10 210 -58 210 -186v-148c0 -58 30 -66 79 -62v-125c-49 4 -79 -4 -79 -62v-148c0 -128 -66 -196 -210 -186z" />
    <glyph glyph-name="bracketleft" unicode="[" horiz-adv-x="310" 
d="M290 676h-108v-652h108v-124h-237v900h237v-124z" />
    <glyph glyph-name="bracketright" unicode="]" horiz-adv-x="310" 
d="M257 800v-900h-237v124h108v652h-108v124h237z" />
    <glyph glyph-name="parenleft" unicode="(" horiz-adv-x="307" 
d="M163 -100c-70 140 -110 290 -110 450s40 310 110 450h129c-70 -140 -110 -290 -110 -450s40 -310 110 -450h-129z" />
    <glyph glyph-name="parenright" unicode=")" horiz-adv-x="307" 
d="M144 -100h-129c70 140 110 290 110 450s-40 310 -110 450h129c70 -140 110 -290 110 -450s-40 -310 -110 -450z" />
    <glyph glyph-name="emdash" unicode="&#x2014;" horiz-adv-x="745" 
d="M65 240v124h615v-124h-615z" />
    <glyph glyph-name="endash" unicode="&#x2013;" horiz-adv-x="645" 
d="M65 240v124h515v-124h-515z" />
    <glyph glyph-name="hyphen" unicode="-" horiz-adv-x="505" 
d="M65 240v124h375v-124h-375z" />
    <glyph glyph-name="guillemotleft" unicode="&#xab;" horiz-adv-x="545" 
d="M292 497l-110 -188l110 -187h-119l-110 187l110 188h119zM482 497l-110 -188l110 -187h-119l-110 187l110 188h119z" />
    <glyph glyph-name="guillemotright" unicode="&#xbb;" horiz-adv-x="545" 
d="M182 497l110 -188l-110 -187h-119l110 187l-110 188h119zM372 497l110 -188l-110 -187h-119l110 187l-110 188h119z" />
    <glyph glyph-name="guilsinglleft" unicode="&#x2039;" horiz-adv-x="355" 
d="M292 497l-110 -188l110 -187h-119l-110 187l110 188h119z" />
    <glyph glyph-name="guilsinglright" unicode="&#x203a;" horiz-adv-x="355" 
d="M182 497l110 -188l-110 -187h-119l110 187l-110 188h119z" />
    <glyph glyph-name="quotedblbase" unicode="&#x201e;" horiz-adv-x="463" 
d="M229 138l-75 -278h-105l40 278h140zM414 138l-75 -278h-105l40 278h140z" />
    <glyph glyph-name="quotedblleft" unicode="&#x201c;" horiz-adv-x="463" 
d="M49 422l75 278h105l-40 -278h-140zM234 422l75 278h105l-40 -278h-140z" />
    <glyph glyph-name="quotedblright" unicode="&#x201d;" horiz-adv-x="463" 
d="M229 701l-75 -278h-105l40 278h140zM414 701l-75 -278h-105l40 278h140z" />
    <glyph glyph-name="quoteleft" unicode="&#x2018;" horiz-adv-x="278" 
d="M49 422l75 278h105l-40 -278h-140z" />
    <glyph glyph-name="quoteright" unicode="&#x2019;" horiz-adv-x="278" 
d="M229 701l-75 -278h-105l40 278h140z" />
    <glyph glyph-name="quotesinglbase" unicode="&#x201a;" horiz-adv-x="278" 
d="M229 138l-75 -278h-105l40 278h140z" />
    <glyph glyph-name="space" unicode=" " horiz-adv-x="250" 
 />
    <glyph glyph-name="cent" unicode="&#xa2;" horiz-adv-x="536" 
d="M411 280l112 -64c-43 -78 -128 -130 -226 -130c-21 0 -42 2 -61 7l-30 -93h-58l35 110c-91 41 -150 131 -150 240c0 149 112 264 264 264c16 0 32 -1 48 -4l29 90h58l-34 -106c53 -21 97 -60 123 -109l-111 -65c-11 23 -29 41 -52 52l-82 -257c6 -1 13 -1 20 -1
c52 0 95 25 115 66zM162 350c0 -51 24 -93 61 -116l82 253h-9c-77 0 -134 -57 -134 -137z" />
    <glyph glyph-name="currency" unicode="&#xa4;" horiz-adv-x="543" 
d="M486 350c0 -50 -17 -96 -45 -131l70 -70l-38 -38l-71 71c-35 -27 -80 -42 -130 -42s-95 15 -131 41l-70 -70l-38 38l69 70c-28 35 -45 81 -45 131s17 96 45 132l-69 69l38 38l70 -70c36 26 81 42 131 42c49 0 94 -16 130 -42l71 70l38 -38l-70 -70c28 -36 45 -81 45 -131
zM272 262c51 0 87 37 87 88c0 52 -36 88 -87 88c-52 0 -87 -36 -87 -88c0 -51 35 -88 87 -88z" />
    <glyph glyph-name="dollar" unicode="$" horiz-adv-x="549" 
d="M524 196c0 -121 -86 -194 -202 -208v-88h-67v87c-112 8 -195 65 -230 158l119 69c21 -52 56 -83 111 -91v173c-1 0 -2 1 -3 1c-93 36 -196 81 -196 214c0 124 94 192 199 202v87h67v-89c83 -10 154 -56 192 -141l-116 -68c-16 40 -41 64 -76 73v-167
c91 -36 202 -72 202 -212zM193 510c0 -29 16 -49 62 -72v140c-40 -8 -62 -34 -62 -68zM322 125c45 10 64 39 64 70c0 35 -23 55 -64 74v-144z" />
    <glyph glyph-name="Euro" unicode="&#x20ac;" horiz-adv-x="611" 
d="M475 204l114 -65c-44 -99 -124 -153 -229 -153c-151 0 -248 107 -274 271h-70v78h63v15v24h-63v77h71c28 160 124 263 273 263c102 0 180 -52 226 -146l-115 -66c-25 53 -59 78 -111 78c-70 0 -115 -45 -134 -129h205v-77h-215v-24v-15h215v-78h-207
c18 -89 64 -136 136 -136c54 0 89 27 115 83z" />
    <glyph glyph-name="florin" unicode="&#x192;" horiz-adv-x="441" 
d="M441 576c-43 21 -97 6 -108 -56l-18 -106h91v-124h-112l-56 -331c-25 -148 -123 -190 -238 -160v128c44 -20 98 -6 108 56l52 307h-84v124h106l22 131c25 148 123 190 237 160v-129z" />
    <glyph glyph-name="uni20BD" unicode="&#x20bd;" horiz-adv-x="601" 
d="M349 243h-124v-55h223v-88h-223v-100h-137v100h-75v88h75v55h-75v121h75v336h261c132 0 236 -104 236 -232c0 -129 -104 -225 -236 -225zM225 571v-207h124c56 0 99 46 99 104s-43 103 -99 103h-124z" />
    <glyph glyph-name="sterling" unicode="&#xa3;" horiz-adv-x="581" 
d="M243 133h327v-133h-537v133h73v141h-61v121h61v100c0 152 113 219 220 219c102 0 180 -55 217 -146l-119 -68c-17 52 -44 80 -95 80c-47 0 -86 -29 -86 -90v-95h203v-121h-203v-141z" />
    <glyph glyph-name="yen" unicode="&#xa5;" horiz-adv-x="601" 
d="M619 700l-190 -338h102v-80h-147l-5 -9v-36h152v-81h-152v-156h-137v156h-171v81h171v36l-5 9h-166v80h121l-189 338h156l152 -292l152 292h156z" />
    <glyph glyph-name="cent.tf" horiz-adv-x="578" 
d="M431 280l112 -64c-43 -78 -128 -130 -226 -130c-21 0 -42 2 -61 7l-30 -93h-58l35 110c-91 41 -150 131 -150 240c0 149 112 264 264 264c16 0 32 -1 48 -4l29 90h58l-34 -106c53 -21 97 -60 123 -109l-111 -65c-11 23 -29 41 -52 52l-82 -257c6 -1 13 -1 20 -1
c52 0 95 25 115 66zM182 350c0 -51 24 -93 61 -116l82 253h-9c-77 0 -134 -57 -134 -137z" />
    <glyph glyph-name="dollar.tf" horiz-adv-x="578" 
d="M553 195c0 -120 -86 -194 -214 -207v-88h-67v87c-126 8 -210 72 -247 168l119 69c22 -57 58 -96 128 -105v174c-2 0 -4 1 -6 2c-103 37 -210 82 -210 218c0 125 98 193 216 200v87h67v-89c90 -12 161 -60 199 -147l-116 -68c-15 40 -40 70 -83 81v-169
c110 -40 214 -77 214 -213zM193 514c0 -33 20 -54 79 -80v148c-56 -5 -79 -33 -79 -68zM339 119c55 8 76 36 76 70c0 36 -22 54 -76 78v-148z" />
    <glyph glyph-name="Euro.tf" horiz-adv-x="578" 
d="M446 207l113 -65c-36 -94 -114 -156 -215 -156c-143 0 -233 107 -257 271h-66v78h60v15v24h-60v77h68c25 160 114 263 255 263c97 0 174 -58 211 -147l-115 -66c-17 47 -53 79 -96 79c-62 0 -101 -45 -117 -129h174v-77h-182v-24v-15h182v-78h-175
c15 -89 54 -136 118 -136c46 0 84 35 102 86z" />
    <glyph glyph-name="florin.tf" horiz-adv-x="578" 
d="M555 576c-61 21 -109 4 -125 -56l-29 -106h122v-124h-156l-90 -331c-40 -146 -137 -190 -254 -160v128c61 -20 108 -4 124 56l84 307h-119v124h152l36 131c40 145 138 190 255 160v-129z" />
    <glyph glyph-name="uni20BD.tf" horiz-adv-x="578" 
d="M319 243h-96v-55h195v-88h-195v-100h-138v100h-75v88h75v55h-75v121h75v336h234c132 0 236 -104 236 -232c0 -129 -104 -225 -236 -225zM223 571v-207h96c56 0 99 46 99 104s-43 103 -99 103h-96z" />
    <glyph glyph-name="sterling.tf" horiz-adv-x="578" 
d="M241 133h327v-133h-538v133h73v141h-60v121h60v100c0 152 113 219 220 219c102 0 181 -55 217 -146l-118 -68c-17 52 -44 80 -95 80c-47 0 -86 -29 -86 -90v-95h210v-121h-210v-141z" />
    <glyph glyph-name="yen.tf" horiz-adv-x="578" 
d="M576 700l-191 -338h134v-80h-161v-45h161v-81h-161v-156h-138v156h-161v81h161v45h-161v80h134l-191 338h156l131 -252l131 252h156z" />
    <glyph glyph-name="plus" unicode="+" horiz-adv-x="555" 
d="M503 411v-121h-165v-165h-121v165h-164v121h164v164h121v-164h165z" />
    <glyph glyph-name="minus" unicode="&#x2212;" horiz-adv-x="555" 
d="M53 290v121h450v-121h-450z" />
    <glyph glyph-name="multiply" unicode="&#xd7;" horiz-adv-x="512" 
d="M462 471l-121 -121l121 -121l-86 -84l-120 120l-120 -120l-86 84l121 121l-121 121l86 84l120 -120l120 120z" />
    <glyph glyph-name="divide" unicode="&#xf7;" horiz-adv-x="565" 
d="M283 463c-46 0 -82 36 -82 82s36 81 82 81s81 -35 81 -81s-35 -82 -81 -82zM45 290v121h475v-121h-475zM283 74c-46 0 -82 36 -82 82s36 81 82 81s81 -35 81 -81s-35 -82 -81 -82z" />
    <glyph glyph-name="equal" unicode="=" horiz-adv-x="525" 
d="M45 393v121h435v-121h-435zM45 186v121h435v-121h-435z" />
    <glyph glyph-name="notequal" unicode="&#x2260;" horiz-adv-x="525" 
d="M480 393h-158l-39 -86h197v-121h-251l-59 -131h-80l59 131h-104v121h158l39 86h-197v121h251l59 131h80l-59 -131h104v-121z" />
    <glyph glyph-name="greater" unicode="&#x3e;" horiz-adv-x="528" 
d="M45 598l438 -190v-115l-438 -190v134l291 113l-291 114v134z" />
    <glyph glyph-name="less" unicode="&#x3c;" horiz-adv-x="528" 
d="M483 598v-134l-291 -114l291 -113v-134l-438 190v115z" />
    <glyph glyph-name="greaterequal" unicode="&#x2265;" horiz-adv-x="528" 
d="M45 653l438 -167v-114l-438 -166v134l289 89l-289 90v134zM45 55v121h438v-121h-438z" />
    <glyph glyph-name="lessequal" unicode="&#x2264;" horiz-adv-x="528" 
d="M483 653v-134l-289 -90l289 -89v-134l-438 166v114zM45 55v121h438v-121h-438z" />
    <glyph glyph-name="plusminus" unicode="&#xb1;" horiz-adv-x="555" 
d="M338 502h165v-121h-165v-146h-121v146h-164v121h164v146h121v-146zM53 53v121h450v-121h-450z" />
    <glyph glyph-name="approxequal" unicode="&#x2248;" horiz-adv-x="569" 
d="M289 379c-101 47 -129 32 -161 -2l-83 28c36 135 120 167 235 114c86 -40 122 -40 139 24l105 -51c-29 -126 -120 -168 -235 -113zM150 157l-105 51c29 127 120 168 235 113c101 -47 128 -31 161 2l83 -28c-36 -134 -119 -167 -235 -114c-86 40 -122 40 -139 -24z" />
    <glyph glyph-name="asciitilde" unicode="~" horiz-adv-x="599" 
d="M449 443l105 -51c-36 -134 -135 -169 -250 -113c-101 47 -129 47 -154 -24l-105 50c36 134 135 169 250 114c101 -48 128 -47 154 24z" />
    <glyph glyph-name="logicalnot" unicode="&#xac;" horiz-adv-x="550" 
d="M45 411h460v-240h-129v119h-331v121z" />
    <glyph glyph-name="emptyset" unicode="&#x2205;" horiz-adv-x="804" 
d="M660 604c64 -65 104 -155 104 -254c0 -200 -162 -362 -362 -362c-70 0 -136 20 -192 55l-50 -63h-107l92 115c-65 66 -105 156 -105 255c0 200 162 362 362 362c70 0 136 -20 192 -55l50 63h108zM130 350c0 -71 27 -136 71 -185l337 423c-39 23 -86 36 -136 36
c-151 0 -272 -121 -272 -274zM402 76c152 0 272 122 272 274c0 72 -26 136 -70 185l-338 -423c40 -23 86 -36 136 -36z" />
    <glyph glyph-name="infinity" unicode="&#x221e;" horiz-adv-x="808" 
d="M575 525c103 0 181 -70 181 -175s-78 -175 -181 -175c-69 0 -127 42 -171 87c-44 -45 -102 -87 -171 -87c-104 0 -182 70 -182 175s78 175 182 175c69 0 127 -42 171 -87c44 45 102 87 171 87zM239 291c33 0 62 24 89 59c-27 35 -56 59 -89 59c-35 0 -59 -26 -59 -59
s24 -59 59 -59zM569 291c35 0 59 26 59 59s-24 59 -59 59c-33 0 -62 -24 -89 -59c27 -35 56 -59 89 -59z" />
    <glyph glyph-name="integral" unicode="&#x222b;" horiz-adv-x="441" 
d="M0 -204v129c44 -21 96 -6 107 56l95 561c25 148 122 190 239 160v-128c-46 20 -99 6 -109 -56l-96 -562c-25 -148 -121 -190 -236 -160z" />
    <glyph glyph-name="product" unicode="&#x220f;" horiz-adv-x="640" 
d="M65 -200v900h510v-900h-129v776h-252v-776h-129z" />
    <glyph glyph-name="summation" unicode="&#x2211;" horiz-adv-x="563" 
d="M35 -200v110l213 350l-198 329v111h460v-124h-308l191 -316l-205 -336h337v-124h-490z" />
    <glyph glyph-name="radical" unicode="&#x221a;" horiz-adv-x="676" 
d="M269 0l-122 199h-102v124h176l100 -173l218 650h132l-277 -800h-125z" />
    <glyph glyph-name="uni00B5" unicode="&#xb5;" horiz-adv-x="617" 
d="M558 121h36v-121h-60c-50 0 -88 18 -111 50c-31 -42 -81 -64 -145 -64c-33 0 -64 7 -90 22v-208h-129v700h129v-290c0 -69 41 -104 99 -104c63 0 110 37 110 124v270h129v-347c0 -20 12 -32 32 -32z" />
    <glyph glyph-name="partialdiff" unicode="&#x2202;" horiz-adv-x="584" 
d="M240 714c157 0 299 -143 299 -364c0 -241 -125 -364 -279 -364c-139 0 -217 96 -217 214c0 135 84 234 226 234c51 0 98 -14 138 -40c-13 120 -75 197 -183 198c-39 1 -77 -10 -115 -32v118c39 25 82 36 131 36zM265 108c81 0 129 70 142 176c-37 26 -79 36 -120 36
c-65 0 -115 -41 -115 -116c0 -59 37 -96 93 -96z" />
    <glyph glyph-name="percent" unicode="%" horiz-adv-x="765" 
d="M214 384c-97 0 -169 73 -169 165c0 91 72 165 169 165c96 0 168 -72 168 -165c0 -92 -71 -165 -168 -165zM116 106l456 507l61 -34l-457 -508zM213 485c37 0 63 29 63 64s-26 63 -63 63c-36 0 -62 -28 -62 -63c0 -36 26 -64 62 -64zM552 -12c-97 0 -168 74 -168 165
s71 165 168 165s168 -74 168 -165s-71 -165 -168 -165zM552 89c37 0 62 30 62 64c0 36 -25 64 -62 64s-62 -28 -62 -64s25 -64 62 -64z" />
    <glyph glyph-name="perthousand" unicode="&#x2030;" horiz-adv-x="1139" 
d="M214 384c-97 0 -169 73 -169 165c0 91 72 165 169 165c96 0 168 -72 168 -165c0 -92 -71 -165 -168 -165zM116 106l456 507l61 -34l-457 -508zM213 485c37 0 63 29 63 64s-26 63 -63 63c-36 0 -62 -28 -62 -63c0 -36 26 -64 62 -64zM552 -12c-97 0 -168 74 -168 165
s71 165 168 165s168 -74 168 -165s-71 -165 -168 -165zM926 -12c-97 0 -169 74 -169 165s72 165 169 165c96 0 168 -74 168 -165s-72 -165 -168 -165zM552 89c37 0 62 30 62 64c0 36 -25 64 -62 64s-62 -28 -62 -64s25 -64 62 -64zM925 89c38 0 63 30 63 64
c0 36 -25 64 -63 64c-36 0 -62 -28 -62 -64s26 -64 62 -64z" />
    <glyph glyph-name="arrowup" unicode="&#x2191;" horiz-adv-x="690" 
d="M645 400v-171l-235 235v-464h-129v465l-236 -236v171l300 300z" />
    <glyph glyph-name="uni2197" unicode="&#x2197;" horiz-adv-x="643" 
d="M174 613h424v-424l-120 -120v336l-345 -345l-88 88l345 345h-336z" />
    <glyph glyph-name="arrowright" unicode="&#x2192;" horiz-adv-x="798" 
d="M453 650l300 -300l-300 -300h-171l238 238h-475v124h475l-238 238h171z" />
    <glyph glyph-name="uni2198" unicode="&#x2198;" horiz-adv-x="643" 
d="M478 617l120 -120v-424h-424l-120 120h336l-345 345l88 88l345 -345v336z" />
    <glyph glyph-name="arrowdown" unicode="&#x2193;" horiz-adv-x="690" 
d="M410 236l235 235v-171l-300 -300l-300 300v171l236 -236v465h129v-464z" />
    <glyph glyph-name="uni2199" unicode="&#x2199;" horiz-adv-x="643" 
d="M598 538l-345 -345h337l-121 -120h-424v424l121 120v-335l345 344z" />
    <glyph glyph-name="arrowleft" unicode="&#x2190;" horiz-adv-x="798" 
d="M753 412v-124h-475l238 -238h-171l-300 300l300 300h171l-238 -238h475z" />
    <glyph glyph-name="uni2196" unicode="&#x2196;" horiz-adv-x="643" 
d="M598 148l-87 -88l-345 344v-335l-121 120v424h424l121 -120h-337z" />
    <glyph glyph-name="arrowboth" unicode="&#x2194;" horiz-adv-x="1085" 
d="M768 623l272 -273l-272 -272h-168l208 210h-533l210 -210h-168l-272 272l272 273h168l-210 -211h535l-210 211h168z" />
    <glyph glyph-name="arrowupdn" unicode="&#x2195;" horiz-adv-x="635" 
d="M590 407l-208 209v-531l208 208v-168l-272 -273l-273 273v168l208 -207v529l-208 -208v168l273 273l272 -273v-168z" />
    <glyph glyph-name="lozenge" unicode="&#x25ca;" horiz-adv-x="555" 
d="M229 0l-186 350l186 350h98l186 -350l-186 -350h-98zM278 170l95 180l-95 180l-96 -180z" />
    <glyph glyph-name="at" unicode="@" horiz-adv-x="779" 
d="M397 612c223 0 350 -177 350 -342c0 -145 -71 -217 -159 -217c-67 0 -113 30 -132 79c-24 -29 -58 -46 -99 -46c-86 0 -147 70 -147 164s61 164 147 164c36 0 68 -14 91 -37v26h107v-231c0 -43 16 -73 58 -73c54 0 96 52 96 171c0 174 -136 308 -312 308
c-183 0 -327 -142 -327 -328c0 -189 146 -328 345 -328c63 0 116 8 162 25v-36c-44 -15 -97 -23 -162 -23c-218 0 -382 152 -382 362c0 200 156 362 364 362zM384 182c37 0 63 28 63 68c0 41 -26 68 -63 68c-38 0 -65 -27 -65 -68c0 -40 27 -68 65 -68z" />
    <glyph glyph-name="ampersand" unicode="&#x26;" horiz-adv-x="673" 
d="M652 40l-110 -63l-64 69c-50 -37 -112 -60 -188 -60c-142 0 -245 79 -245 208c0 81 40 156 117 201c-20 32 -34 69 -34 117c0 119 93 202 219 202c98 0 183 -51 223 -150l-118 -68c-18 52 -53 84 -103 84c-48 0 -83 -31 -83 -74c0 -42 25 -71 57 -106l150 -164
c15 33 26 72 34 116l116 -66c-12 -50 -32 -101 -61 -147zM299 113c36 0 67 9 93 25l-151 164c-1 1 -2 2 -2 3c-40 -25 -55 -62 -55 -97c0 -56 38 -95 115 -95z" />
    <glyph glyph-name="paragraph" unicode="&#xb6;" horiz-adv-x="669" 
d="M623 700v-113h-62v-787h-121v787h-79v-787h-121v470c-119 0 -215 97 -215 215c0 119 96 215 215 215h383z" />
    <glyph glyph-name="section" unicode="&#xa7;" horiz-adv-x="542" 
d="M505 284c0 -52 -23 -97 -59 -128c20 -25 33 -57 33 -100c0 -111 -90 -168 -201 -168c-107 0 -184 38 -221 126l115 66c20 -57 56 -78 106 -78c48 0 72 21 72 54c0 44 -73 64 -148 95c-76 32 -153 77 -153 174c0 54 24 96 62 125c-19 25 -30 57 -30 99
c0 108 91 165 191 165c85 0 163 -41 200 -126l-106 -58c-21 46 -52 70 -94 70c-37 0 -62 -19 -62 -51c0 -45 65 -66 137 -95c77 -31 158 -74 158 -170zM178 332c0 -39 36 -61 81 -78c29 -11 62 -21 94 -35c15 13 23 28 23 50c0 43 -39 62 -89 82c-27 10 -56 20 -85 32
c-16 -12 -24 -28 -24 -51z" />
    <glyph glyph-name="copyright" unicode="&#xa9;" horiz-adv-x="789" 
d="M395 -12c-200 0 -362 162 -362 362s162 362 362 362s362 -162 362 -362s-162 -362 -362 -362zM395 22c179 0 324 147 324 328s-145 328 -324 328c-180 0 -325 -147 -325 -328s145 -328 325 -328zM398 154c-109 0 -198 89 -198 196s89 196 198 196c69 0 133 -36 167 -96
l-96 -56c-12 23 -38 41 -74 41c-52 0 -84 -41 -84 -85s32 -85 84 -85c36 0 62 19 74 42l97 -57c-34 -59 -99 -96 -168 -96z" />
    <glyph glyph-name="registered" unicode="&#xae;" horiz-adv-x="789" 
d="M395 712c200 0 362 -162 362 -362s-162 -362 -362 -362s-362 162 -362 362s162 362 362 362zM395 22c179 0 324 147 324 328s-145 328 -324 328c-180 0 -325 -147 -325 -328s145 -328 325 -328zM550 412c0 -49 -21 -87 -55 -111l76 -136h-115l-53 110h-38v-110h-107v370
h149c79 0 143 -49 143 -123zM365 438v-73h33c28 0 45 15 45 36c0 26 -17 37 -45 37h-33z" />
    <glyph glyph-name="trademark" unicode="&#x2122;" horiz-adv-x="473" 
d="M204 700v-56h-55v-144h-61v144h-55v56h171zM383 700h58v-200h-58v109l-48 -73h-5l-48 73v-109h-58v200h58l51 -77z" />
    <glyph glyph-name="degree" unicode="&#xb0;" horiz-adv-x="401" 
d="M201 480c-97 0 -168 75 -168 165c0 91 71 165 168 165s168 -74 168 -165c0 -90 -69 -165 -168 -165zM201 585c35 0 59 25 59 60c0 34 -24 60 -59 60s-59 -26 -59 -60s24 -60 59 -60z" />
    <glyph glyph-name="bar" unicode="|" horiz-adv-x="259" 
d="M65 -200v920h129v-920h-129z" />
    <glyph glyph-name="brokenbar" unicode="&#xa6;" horiz-adv-x="259" 
d="M65 350v370h129v-370h-129zM65 -200v370h129v-370h-129z" />
    <glyph glyph-name="dagger" unicode="&#x2020;" horiz-adv-x="480" 
d="M435 565v-124h-130v-441h-129v441h-131v124h131v135h129v-135h130z" />
    <glyph glyph-name="daggerdbl" unicode="&#x2021;" horiz-adv-x="480" 
d="M435 441h-130v-182h130v-124h-130v-135h-129v135h-131v124h131v182h-131v124h131v135h129v-135h130v-124z" />
    <glyph glyph-name="estimated" unicode="&#x212e;" horiz-adv-x="790" 
d="M395 710c221 0 370 -161 370 -360c0 -10 -5 -15 -15 -15h-560c-10 0 -15 -5 -15 -15v-192c0 -8 2 -13 7 -19c54 -57 128 -89 233 -89c99 0 177 36 231 97c5 6 10 9 18 9h37c13 0 18 -9 9 -19c-67 -72 -168 -117 -295 -117c-241 0 -390 161 -390 360s149 360 370 360z
M615 572c0 8 -2 13 -7 19c-54 57 -128 89 -213 89s-159 -32 -213 -89c-5 -6 -7 -11 -7 -19v-192c0 -10 5 -15 15 -15h410c10 0 15 5 15 15v192z" />
    <glyph glyph-name="uni2116" unicode="&#x2116;" horiz-adv-x="1039" 
d="M839 383c-97 0 -168 75 -168 165c0 91 71 165 168 165s168 -74 168 -165c0 -90 -69 -165 -168 -165zM470 700h138v-700h-105l-300 428v-428h-138v700h105l300 -427v427zM839 488c35 0 59 25 59 60c0 34 -24 60 -59 60s-59 -26 -59 -60s24 -60 59 -60zM684 208v121h312
v-121h-312z" />
    <glyph glyph-name="asciicircum" unicode="^" horiz-adv-x="560" 
d="M329 700l191 -330h-139l-101 182l-101 -182h-139l191 330h98z" />
    <glyph glyph-name="uni0308" unicode="&#x308;" horiz-adv-x="0" 
d="M-277 549c-37 0 -68 30 -68 67s31 68 68 68s67 -31 67 -68s-30 -67 -67 -67zM-87 549c-37 0 -68 30 -68 67s31 68 68 68s67 -31 67 -68s-30 -67 -67 -67z" />
    <glyph glyph-name="uni0307" unicode="&#x307;" horiz-adv-x="0" 
d="M-97 551c-43 0 -78 36 -78 78s35 77 78 77c42 0 77 -35 77 -77s-35 -78 -77 -78z" />
    <glyph glyph-name="gravecomb" unicode="&#x300;" horiz-adv-x="0" 
d="M-20 563l-80 137h-155l111 -137h124z" />
    <glyph glyph-name="acutecomb" unicode="&#x301;" horiz-adv-x="0" 
d="M-255 563h124l111 137h-155z" />
    <glyph glyph-name="uni030B" unicode="&#x30b;" horiz-adv-x="0" 
d="M-415 555h128l84 138h-134zM-242 555h128l94 138h-134z" />
    <glyph glyph-name="uni0302" unicode="&#x302;" horiz-adv-x="0" 
d="M-20 555h-128l-43 65l-44 -65h-128l106 145h131z" />
    <glyph glyph-name="uni030C" unicode="&#x30c;" horiz-adv-x="0" 
d="M-148 700h128l-106 -145h-131l-106 145h128l44 -65z" />
    <glyph glyph-name="uni0306" unicode="&#x306;" horiz-adv-x="0" 
d="M-187 547c-105 0 -166 53 -166 145h115c0 -35 18 -52 51 -52c34 0 52 17 52 52h115c0 -92 -60 -145 -167 -145z" />
    <glyph glyph-name="uni030A" unicode="&#x30a;" horiz-adv-x="0" 
d="M-150 539c-74 0 -126 51 -126 119c0 67 52 118 126 118c76 0 126 -51 126 -118c0 -68 -50 -119 -126 -119zM-150 620c27 0 40 16 40 38c0 21 -13 37 -40 37c-25 0 -39 -16 -39 -37c0 -22 14 -38 39 -38z" />
    <glyph glyph-name="tildecomb" unicode="&#x303;" horiz-adv-x="0" 
d="M-351 560c0 159 96 176 182 121c39 -25 52 -26 52 24h105c0 -159 -97 -176 -182 -121c-39 25 -53 26 -53 -24h-104z" />
    <glyph glyph-name="uni0304" unicode="&#x304;" horiz-adv-x="0" 
d="M-310 564v105h290v-105h-290z" />
    <glyph glyph-name="uni0312" unicode="&#x312;" horiz-adv-x="0" 
d="M-122 975l-30 -200h122l10 200h-102z" />
    <glyph glyph-name="uni0326" unicode="&#x326;" horiz-adv-x="0" 
d="M-50 -263l30 200h-122l-10 -200h102z" />
    <glyph glyph-name="uni0327" unicode="&#x327;" horiz-adv-x="0" 
d="M-90 -46c34 -8 70 -32 70 -78c0 -60 -52 -102 -220 -92v91c73 -5 108 3 108 20c0 16 -24 22 -63 25v80h105v-46z" />
    <glyph glyph-name="uni0328" unicode="&#x328;" horiz-adv-x="0" 
d="M-108 -214c-55 0 -96 29 -96 88c0 38 26 84 66 126h110c-33 -35 -52 -71 -52 -95c-1 -17 8 -27 25 -27c8 -1 17 1 27 5v-81c-24 -10 -48 -16 -80 -16z" />
    <glyph glyph-name="acute" unicode="&#xb4;" horiz-adv-x="275" 
d="M20 563h124l111 137h-155z" />
    <glyph glyph-name="breve" unicode="&#x2d8;" horiz-adv-x="373" 
d="M186 547c-105 0 -166 53 -166 145h115c0 -35 18 -52 51 -52c34 0 52 17 52 52h115c0 -92 -60 -145 -167 -145z" />
    <glyph glyph-name="caron" unicode="&#x2c7;" horiz-adv-x="383" 
d="M235 700h128l-106 -145h-131l-106 145h128l44 -65z" />
    <glyph glyph-name="cedilla" unicode="&#xb8;" horiz-adv-x="260" 
d="M170 -46c34 -8 70 -32 70 -78c0 -60 -52 -102 -220 -92v91c73 -5 108 3 108 20c0 16 -24 22 -63 25v80h105v-46z" />
    <glyph glyph-name="circumflex" unicode="&#x2c6;" horiz-adv-x="383" 
d="M363 555h-128l-43 65l-44 -65h-128l106 145h131z" />
    <glyph glyph-name="dieresis" unicode="&#xa8;" horiz-adv-x="365" 
d="M88 549c-37 0 -68 30 -68 67s31 68 68 68s67 -31 67 -68s-30 -67 -67 -67zM278 549c-37 0 -68 30 -68 67s31 68 68 68s67 -31 67 -68s-30 -67 -67 -67z" />
    <glyph glyph-name="dotaccent" unicode="&#x2d9;" horiz-adv-x="203" 
d="M98 551c-43 0 -78 36 -78 78s35 77 78 77c42 0 77 -35 77 -77s-35 -78 -77 -78z" />
    <glyph glyph-name="grave" unicode="`" horiz-adv-x="275" 
d="M255 563l-80 137h-155l111 -137h124z" />
    <glyph glyph-name="hungarumlaut" unicode="&#x2dd;" horiz-adv-x="435" 
d="M20 555h128l84 138h-134zM193 555h128l94 138h-134z" />
    <glyph glyph-name="macron" unicode="&#xaf;" horiz-adv-x="330" 
d="M20 564v105h290v-105h-290z" />
    <glyph glyph-name="ogonek" unicode="&#x2db;" horiz-adv-x="216" 
d="M116 -214c-55 0 -96 29 -96 88c0 38 26 84 66 126h110c-33 -35 -52 -71 -52 -95c-1 -17 8 -27 25 -27c8 -1 17 1 27 5v-81c-24 -10 -48 -16 -80 -16z" />
    <glyph glyph-name="ring" unicode="&#x2da;" horiz-adv-x="293" 
d="M146 539c-74 0 -126 51 -126 119c0 67 52 118 126 118c76 0 126 -51 126 -118c0 -68 -50 -119 -126 -119zM146 620c27 0 40 16 40 38c0 21 -13 37 -40 37c-25 0 -39 -16 -39 -37c0 -22 14 -38 39 -38z" />
    <glyph glyph-name="tilde" unicode="&#x2dc;" horiz-adv-x="379" 
d="M21 560c0 159 96 176 182 121c39 -25 52 -26 52 24h105c0 -159 -97 -176 -182 -121c-39 25 -53 26 -53 -24h-104z" />
    <glyph glyph-name="brevecy" horiz-adv-x="360" 
d="M35 564v112h290v-112h-290z" />
    </font>
</defs>
</svg>
