<?xml version="1.0" standalone="no"?>
<!DOCTYPE svg PUBLIC "-//W3C//DTD SVG 1.1//EN" "http://www.w3.org/Graphics/SVG/1.1/DTD/svg11.dtd" >
<svg xmlns="http://www.w3.org/2000/svg" xmlns:xlink="http://www.w3.org/1999/xlink" version="1.1">
<metadata>
Created by FontForge 20170910 at Tue Dec 13 19:07:40 2016
 By Jimmy Wärting
Copyright \(c\) 2016 by Jason Vandenberg. All rights reserved.
</metadata>
<defs>
<font id="Town23Lines-Regular" horiz-adv-x="794" >
  <font-face 
    font-family="Town 23 Lines"
    font-weight="400"
    font-stretch="normal"
    units-per-em="1000"
    panose-1="0 0 5 0 0 0 0 0 0 0"
    ascent="750"
    descent="-250"
    x-height="700"
    cap-height="700"
    bbox="-464 -273 1013 926"
    underline-thickness="50"
    underline-position="-100"
    stemh="78"
    stemv="88"
    unicode-range="U+0020-2212"
  />
<missing-glyph horiz-adv-x="600" 
d="M0 0v740h600v-740h-600zM30 30h540v680h-540v-680zM92 75l-27 23l212 272l-213 273l28 21l208 -265l208 266l27 -22l-213 -273l214 -273l-29 -21l-207 265z" />
    <glyph glyph-name=".notdef" horiz-adv-x="600" 
d="M0 0v740h600v-740h-600zM30 30h540v680h-540v-680zM92 75l-27 23l212 272l-213 273l28 21l208 -265l208 266l27 -22l-213 -273l214 -273l-29 -21l-207 265z" />
    <glyph glyph-name="A" unicode="A" horiz-adv-x="662" 
d="M634 0l-311 720h17l312 -720h-18zM596 0l-292 677l9 21l301 -698h-18zM10 0l284 656l281 -656h-18l-59 138h-334l-59 -138h-18l236 549l-10 23l-247 -572h-18l256 593l-9 21l-267 -614h-18zM198 218h266l-133 311zM185 186h293l-7 16h-280zM171 154h320l-7 16h-306z" />
    <glyph glyph-name="Aacute" unicode="&#xc1;" horiz-adv-x="662" 
d="M298 749l87 161h20l-91 -161h-16zM328 749l101 161h20l-105 -161h-16zM357 749l115 161h20l-119 -161h-16zM634 0l-311 720h17l312 -720h-18zM596 0l-292 677l9 21l301 -698h-18zM10 0l284 656l281 -656h-18l-59 138h-334l-59 -138h-18l236 549l-10 23l-247 -572h-18
l256 593l-9 21l-267 -614h-18zM198 218h266l-133 311zM185 186h293l-7 16h-280zM171 154h320l-7 16h-306z" />
    <glyph glyph-name="Abreve" unicode="&#x102;" horiz-adv-x="662" 
d="M330 748c-93 0 -164 85 -164 163h16c0 -76 71 -147 148 -147c78 0 149 71 149 147h16c0 -78 -71 -163 -165 -163zM330 778c-69 0 -134 64 -134 133h16c0 -60 58 -117 118 -117c61 0 119 57 119 117h16c0 -69 -65 -133 -135 -133zM330 810c-51 0 -102 50 -102 101h16
c0 -42 44 -85 86 -85c43 0 87 43 87 85h16c0 -51 -51 -101 -103 -101zM634 0l-311 720h17l312 -720h-18zM596 0l-292 677l9 21l301 -698h-18zM10 0l284 656l281 -656h-18l-59 138h-334l-59 -138h-18l236 549l-10 23l-247 -572h-18l256 593l-9 21l-267 -614h-18zM198 218h266
l-133 311zM185 186h293l-7 16h-280zM171 154h320l-7 16h-306z" />
    <glyph glyph-name="Acircumflex" unicode="&#xc2;" horiz-adv-x="662" 
d="M171 748l152 177h16l151 -177h-16l-143 165l-144 -165h-16zM200 748l131 144l130 -144h-16l-114 124l-115 -124h-16zM228 748l103 105l102 -105h-16l-86 88l-87 -88h-16zM634 0l-311 720h17l312 -720h-18zM596 0l-292 677l9 21l301 -698h-18zM10 0l284 656l281 -656h-18
l-59 138h-334l-59 -138h-18l236 549l-10 23l-247 -572h-18l256 593l-9 21l-267 -614h-18zM198 218h266l-133 311zM185 186h293l-7 16h-280zM171 154h320l-7 16h-306z" />
    <glyph glyph-name="Adieresis" unicode="&#xc4;" horiz-adv-x="662" 
d="M246 777c-28 0 -52 24 -52 52c0 29 24 52 52 52c29 0 52 -23 52 -52c0 -28 -23 -52 -52 -52zM417 777c-28 0 -52 24 -52 52c0 29 24 52 52 52c29 0 52 -23 52 -52c0 -28 -23 -52 -52 -52zM246 793c20 0 36 16 36 36s-16 36 -36 36s-36 -16 -36 -36c0 -19 17 -36 36 -36z
M417 793c20 0 36 16 36 36s-16 36 -36 36s-36 -16 -36 -36c0 -19 17 -36 36 -36zM246 809c-10 0 -20 10 -20 20c0 11 9 20 20 20s20 -9 20 -20s-9 -20 -20 -20zM417 809c-10 0 -20 10 -20 20c0 11 9 20 20 20s20 -9 20 -20s-9 -20 -20 -20zM246 823c3 0 6 3 6 6s-3 6 -6 6
s-6 -3 -6 -6s3 -6 6 -6zM417 823c3 0 6 3 6 6s-3 6 -6 6s-6 -3 -6 -6s3 -6 6 -6zM634 0l-311 720h17l312 -720h-18zM596 0l-292 677l9 21l301 -698h-18zM10 0l284 656l281 -656h-18l-59 138h-334l-59 -138h-18l236 549l-10 23l-247 -572h-18l256 593l-9 21l-267 -614h-18z
M198 218h266l-133 311zM185 186h293l-7 16h-280zM171 154h320l-7 16h-306z" />
    <glyph glyph-name="Agrave" unicode="&#xc0;" horiz-adv-x="662" 
d="M293 749l-119 161h20l115 -161h-16zM322 749l-105 161h20l101 -161h-16zM352 749l-91 161h20l87 -161h-16zM634 0l-311 720h17l312 -720h-18zM596 0l-292 677l9 21l301 -698h-18zM10 0l284 656l281 -656h-18l-59 138h-334l-59 -138h-18l236 549l-10 23l-247 -572h-18
l256 593l-9 21l-267 -614h-18zM198 218h266l-133 311zM185 186h293l-7 16h-280zM171 154h320l-7 16h-306z" />
    <glyph glyph-name="Amacron" unicode="&#x100;" horiz-adv-x="662" 
d="M156 851v16h351v-16h-351zM156 820v16h351v-16h-351zM156 789v16h351v-16h-351zM634 0l-311 720h17l312 -720h-18zM596 0l-292 677l9 21l301 -698h-18zM10 0l284 656l281 -656h-18l-59 138h-334l-59 -138h-18l236 549l-10 23l-247 -572h-18l256 593l-9 21l-267 -614h-18z
M198 218h266l-133 311zM185 186h293l-7 16h-280zM171 154h320l-7 16h-306z" />
    <glyph glyph-name="Aogonek" unicode="&#x104;" horiz-adv-x="662" 
d="M558 -131c0 -17 14 -32 39 -32c12 0 27 3 47 10v-17c-19 -6 -34 -9 -47 -9c-32 0 -55 20 -55 48c0 18 10 32 16 40l76 91l-311 720h17l312 -720l-81 -100c-6 -8 -13 -18 -13 -31zM521 -141c0 -29 26 -53 63 -53c19 0 36 6 60 15v-17c-19 -7 -39 -14 -60 -14
c-45 0 -79 31 -79 69c0 23 10 42 27 63l64 78l-292 677l9 21l301 -698l-70 -88c-15 -19 -23 -35 -23 -53zM487 -144c0 -46 36 -78 87 -78c15 0 36 3 70 18v-17c-13 -6 -41 -17 -72 -17c-60 0 -101 41 -101 93c0 30 11 53 33 80l53 65l-59 138h-334l-59 -138h-18l236 549
l-10 23l-247 -572h-18l256 593l-9 21l-267 -614h-18l284 656l281 -656l-60 -76c-26 -33 -28 -51 -28 -68zM331 529l-133 -311h266zM191 202l-6 -16h293l-7 16h-280zM171 154h320l-7 16h-306z" />
    <glyph glyph-name="Aring" unicode="&#xc5;" horiz-adv-x="662" 
d="M332 738c-52 0 -93 41 -93 92c0 49 41 91 93 91c50 0 93 -42 93 -91c0 -51 -43 -92 -93 -92zM332 754c42 0 77 35 77 76c0 40 -36 75 -77 75c-42 0 -77 -34 -77 -75c0 -42 34 -76 77 -76zM332 770c-34 0 -61 27 -61 60c0 32 28 59 61 59c32 0 61 -28 61 -59
c0 -32 -28 -60 -61 -60zM332 786c24 0 45 21 45 44c0 22 -22 43 -45 43c-24 0 -45 -20 -45 -43c0 -24 20 -44 45 -44zM634 0l-311 720h17l312 -720h-18zM596 0l-292 677l9 21l301 -698h-18zM10 0l284 656l281 -656h-18l-59 138h-334l-59 -138h-18l236 549l-10 23l-247 -572
h-18l256 593l-9 21l-267 -614h-18zM198 218h266l-133 311zM185 186h293l-7 16h-280zM171 154h320l-7 16h-306z" />
    <glyph glyph-name="Atilde" unicode="&#xc3;" horiz-adv-x="662" 
d="M144 759c0 77 30 143 110 143c43 0 72 -22 99 -41c21 -15 37 -27 54 -27c37 0 47 35 48 66h14c-2 -51 -23 -82 -62 -82c-17 0 -33 9 -63 30c-27 19 -52 38 -90 38c-61 0 -96 -45 -96 -127h-14zM169 759c0 70 31 112 86 112c32 0 57 -17 81 -34s45 -34 72 -34
c46 0 72 34 72 97h14c0 -71 -31 -113 -86 -113c-33 0 -57 20 -81 36s-44 32 -72 32c-46 0 -72 -35 -72 -96h-14zM409 756c-43 0 -73 24 -100 42c-21 14 -35 26 -52 26c-36 0 -48 -32 -48 -65h-14c0 49 22 81 62 81c22 0 40 -14 61 -29c27 -19 53 -39 91 -39
c61 0 97 45 97 128h14c0 -77 -30 -144 -111 -144zM634 0l-311 720h17l312 -720h-18zM596 0l-292 677l9 21l301 -698h-18zM10 0l284 656l281 -656h-18l-59 138h-334l-59 -138h-18l236 549l-10 23l-247 -572h-18l256 593l-9 21l-267 -614h-18zM198 218h266l-133 311zM185 186
h293l-7 16h-280zM171 154h320l-7 16h-306z" />
    <glyph glyph-name="AE" unicode="&#xc6;" horiz-adv-x="968" 
d="M8 0l460 700h20v-700h-16v139h-267l-91 -139h-20l378 574v36l-401 -610h-20l421 639v38l-444 -677h-20zM508 0v700h16v-700h-16zM544 0v700h371v-16h-355v-17h355v-16h-355v-17h355v-16h-355v-241h315v-16h-315v-17h315v-16h-315v-17h315v-16h-315v-213h365v-16h-365v-17
h365v-16h-365v-17h365v-16h-381zM259 221h213v323zM238 188h234v17h-223zM216 155h256v17h-245z" />
    <glyph glyph-name="B" unicode="B" horiz-adv-x="599" 
d="M71 0v634h212c98 0 153 -41 153 -117c0 -54 -27 -92 -75 -110c9 -2 18 -3 26 -5c43 24 69 65 69 117c0 81 -66 132 -172 132h-213v16h213c115 0 188 -58 188 -148c0 -52 -23 -95 -64 -123c7 -2 13 -4 19 -7c41 32 65 78 65 131c0 96 -84 164 -207 164h-214v16h214
c143 0 223 -84 223 -180c0 -50 -23 -102 -64 -138c74 -37 114 -106 114 -181c0 -112 -88 -201 -245 -201h-170v618h-20v-618h-16v618h-20v-618h-16zM159 410h124c88 0 137 39 137 107c0 67 -49 101 -137 101h-124v-208zM159 16h154c139 0 229 74 229 185
c0 113 -94 193 -229 193h-154v-17h153c128 0 210 -68 210 -174c0 -105 -81 -170 -210 -170h-153v-17zM159 49h153c121 0 194 58 194 154c0 97 -75 158 -194 158h-153v-17h152c112 0 174 -50 174 -140c0 -89 -62 -138 -174 -138h-152v-17zM159 82h152c102 0 158 41 158 122
s-55 124 -158 124h-152v-246z" />
    <glyph glyph-name="C" unicode="C" horiz-adv-x="689" 
d="M397 -15c-198 0 -352 153 -352 365s154 365 352 365c86 0 166 -25 245 -100l-9 -13c-70 67 -144 97 -236 97c-192 0 -336 -149 -336 -349s144 -349 336 -349c94 0 170 33 249 109l9 -13c-75 -72 -154 -112 -258 -112zM397 18c-181 1 -316 142 -316 332
c0 189 134 330 315 332c86 1 160 -28 228 -92l-9 -13c-66 62 -136 90 -219 89c-172 -2 -299 -136 -299 -316c0 -181 128 -315 300 -316c86 -1 157 30 231 104l9 -15c-75 -73 -151 -106 -240 -105zM396 51c-160 0 -279 128 -279 299s119 299 277 299c75 3 146 -25 212 -84
l-9 -13c-70 63 -137 84 -202 81c-146 0 -262 -117 -262 -283s116 -283 263 -283c91 -3 157 39 215 97l9 -14c-73 -70 -143 -102 -224 -99z" />
    <glyph glyph-name="Cacute" unicode="&#x106;" horiz-adv-x="689" 
d="M355 750l87 161h20l-91 -161h-16zM385 750l101 161h20l-105 -161h-16zM414 750l115 161h20l-119 -161h-16zM397 -15c-198 0 -352 153 -352 365s154 365 352 365c86 0 166 -25 245 -100l-9 -13c-70 67 -144 97 -236 97c-192 0 -336 -149 -336 -349s144 -349 336 -349
c94 0 170 33 249 109l9 -13c-75 -72 -154 -112 -258 -112zM397 18c-181 1 -316 142 -316 332c0 189 134 330 315 332c86 1 160 -28 228 -92l-9 -13c-66 62 -136 90 -219 89c-172 -2 -299 -136 -299 -316c0 -181 128 -315 300 -316c86 -1 157 30 231 104l9 -15
c-75 -73 -151 -106 -240 -105zM396 51c-160 0 -279 128 -279 299s119 299 277 299c75 3 146 -25 212 -84l-9 -13c-70 63 -137 84 -202 81c-146 0 -262 -117 -262 -283s116 -283 263 -283c91 -3 157 39 215 97l9 -14c-73 -70 -143 -102 -224 -99z" />
    <glyph glyph-name="Ccaron" unicode="&#x10c;" horiz-adv-x="689" 
d="M380 735l-152 177h16l144 -165l143 165h16l-151 -177h-16zM388 768l-131 144h16l115 -124l114 124h16zM388 807l-103 105h16l87 -88l86 88h16zM397 -15c-198 0 -352 153 -352 365s154 365 352 365c86 0 166 -25 245 -100l-9 -13c-70 67 -144 97 -236 97
c-192 0 -336 -149 -336 -349s144 -349 336 -349c94 0 170 33 249 109l9 -13c-75 -72 -154 -112 -258 -112zM397 18c-181 1 -316 142 -316 332c0 189 134 330 315 332c86 1 160 -28 228 -92l-9 -13c-66 62 -136 90 -219 89c-172 -2 -299 -136 -299 -316
c0 -181 128 -315 300 -316c86 -1 157 30 231 104l9 -15c-75 -73 -151 -106 -240 -105zM396 51c-160 0 -279 128 -279 299s119 299 277 299c75 3 146 -25 212 -84l-9 -13c-70 63 -137 84 -202 81c-146 0 -262 -117 -262 -283s116 -283 263 -283c91 -3 157 39 215 97l9 -14
c-73 -70 -143 -102 -224 -99z" />
    <glyph glyph-name="Ccedilla" unicode="&#xc7;" horiz-adv-x="689" 
d="M397 -15c-198 0 -352 153 -352 365s154 365 352 365c86 0 166 -25 245 -100l-9 -13c-70 67 -144 97 -236 97c-192 0 -336 -149 -336 -349s144 -349 336 -349c94 0 170 33 249 109l9 -13c-75 -72 -154 -112 -258 -112zM397 18c-181 1 -316 142 -316 332
c0 189 134 330 315 332c86 1 160 -28 228 -92l-9 -13c-66 62 -136 90 -219 89c-172 -2 -299 -136 -299 -316c0 -181 128 -315 300 -316c86 -1 157 30 231 104l9 -15c-75 -73 -151 -106 -240 -105zM396 51c-160 0 -279 128 -279 299s119 299 277 299c75 3 146 -25 212 -84
l-9 -13c-70 63 -137 84 -202 81c-146 0 -262 -117 -262 -283s116 -283 263 -283c91 -3 157 39 215 97l9 -14c-73 -70 -143 -102 -224 -99zM400 -243c-34 0 -72 9 -90 14v17c36 -10 67 -15 90 -15c63 0 112 39 112 87c0 46 -45 81 -110 81c-14 0 -25 0 -45 -3v14
c15 3 31 3 45 3c75 0 126 -40 126 -95c0 -58 -56 -103 -128 -103zM390 -217c-28 0 -62 7 -80 12v16c22 -6 54 -12 80 -12c51 0 89 27 89 63c0 32 -35 55 -89 55h-33v12c12 1 22 1 33 1c64 0 105 -26 105 -68c0 -46 -45 -79 -105 -79zM380 -191c-20 0 -50 4 -70 10v17
c15 -5 47 -11 70 -11c46 0 66 21 66 40c0 16 -21 29 -68 29h-21v14h21c52 0 84 -14 84 -43c0 -33 -34 -56 -82 -56z" />
    <glyph glyph-name="Ccircumflex" unicode="&#x108;" horiz-adv-x="689" 
d="M228 749l152 177h16l151 -177h-16l-143 165l-144 -165h-16zM257 749l131 144l130 -144h-16l-114 124l-115 -124h-16zM285 749l103 105l102 -105h-16l-86 88l-87 -88h-16zM397 -15c-198 0 -352 153 -352 365s154 365 352 365c86 0 166 -25 245 -100l-9 -13
c-70 67 -144 97 -236 97c-192 0 -336 -149 -336 -349s144 -349 336 -349c94 0 170 33 249 109l9 -13c-75 -72 -154 -112 -258 -112zM397 18c-181 1 -316 142 -316 332c0 189 134 330 315 332c86 1 160 -28 228 -92l-9 -13c-66 62 -136 90 -219 89
c-172 -2 -299 -136 -299 -316c0 -181 128 -315 300 -316c86 -1 157 30 231 104l9 -15c-75 -73 -151 -106 -240 -105zM396 51c-160 0 -279 128 -279 299s119 299 277 299c75 3 146 -25 212 -84l-9 -13c-70 63 -137 84 -202 81c-146 0 -262 -117 -262 -283s116 -283 263 -283
c91 -3 157 39 215 97l9 -14c-73 -70 -143 -102 -224 -99z" />
    <glyph glyph-name="Cdotaccent" unicode="&#x10a;" horiz-adv-x="689" 
d="M388 778c-28 0 -52 24 -52 52c0 29 24 52 52 52c29 0 52 -23 52 -52c0 -28 -23 -52 -52 -52zM388 794c20 0 36 16 36 36s-16 36 -36 36s-36 -16 -36 -36c0 -19 17 -36 36 -36zM388 810c-10 0 -20 10 -20 20c0 11 9 20 20 20s20 -9 20 -20s-9 -20 -20 -20zM388 824
c3 0 6 3 6 6s-3 6 -6 6s-6 -3 -6 -6s3 -6 6 -6zM397 -15c-198 0 -352 153 -352 365s154 365 352 365c86 0 166 -25 245 -100l-9 -13c-70 67 -144 97 -236 97c-192 0 -336 -149 -336 -349s144 -349 336 -349c94 0 170 33 249 109l9 -13c-75 -72 -154 -112 -258 -112zM397 18
c-181 1 -316 142 -316 332c0 189 134 330 315 332c86 1 160 -28 228 -92l-9 -13c-66 62 -136 90 -219 89c-172 -2 -299 -136 -299 -316c0 -181 128 -315 300 -316c86 -1 157 30 231 104l9 -15c-75 -73 -151 -106 -240 -105zM396 51c-160 0 -279 128 -279 299
s119 299 277 299c75 3 146 -25 212 -84l-9 -13c-70 63 -137 84 -202 81c-146 0 -262 -117 -262 -283s116 -283 263 -283c91 -3 157 39 215 97l9 -14c-73 -70 -143 -102 -224 -99z" />
    <glyph glyph-name="D" unicode="D" horiz-adv-x="674" 
d="M71 0v634h173c198 0 313 -105 313 -284s-115 -284 -313 -284h-85v-17h85c209 0 333 112 333 301c0 188 -124 301 -333 301h-173v16h173c218 0 349 -120 349 -317c0 -198 -131 -317 -349 -317h-85v-17h86c228 0 368 128 368 334s-140 334 -368 334h-174v16h174
c259 0 384 -156 384 -350s-125 -350 -384 -350h-102v618h-20v-618h-16v618h-20v-618h-16zM159 82h85c210 0 297 117 297 268s-87 268 -297 268h-85v-536z" />
    <glyph glyph-name="Eth" unicode="&#xd0;" horiz-adv-x="674" 
d="M245 700c259 0 384 -156 384 -350s-125 -350 -384 -350h-102v618h-20v-618h-16v618h-20v-618h-16v312h-67v16h67v15h-67v16h67v15h-67v16h67v244h173c198 0 313 -105 313 -284s-115 -284 -313 -284h-85v-17h85c209 0 333 112 333 301c0 188 -124 301 -333 301h-173v16
h173c218 0 349 -120 349 -317c0 -198 -131 -317 -349 -317h-85v-17h86c228 0 368 128 368 334s-140 334 -368 334h-174v16h174zM244 618h-85v-228h146v-16h-146v-15h146v-16h-146v-15h146v-16h-146v-230h85c210 0 297 117 297 268s-87 268 -297 268z" />
    <glyph glyph-name="Dcaron" unicode="&#x10e;" horiz-adv-x="674" 
d="M325 735l-152 177h16l144 -165l143 165h16l-151 -177h-16zM333 768l-131 144h16l115 -124l114 124h16zM333 807l-103 105h16l87 -88l86 88h16zM71 0v634h173c198 0 313 -105 313 -284s-115 -284 -313 -284h-85v-17h85c209 0 333 112 333 301c0 188 -124 301 -333 301
h-173v16h173c218 0 349 -120 349 -317c0 -198 -131 -317 -349 -317h-85v-17h86c228 0 368 128 368 334s-140 334 -368 334h-174v16h174c259 0 384 -156 384 -350s-125 -350 -384 -350h-102v618h-20v-618h-16v618h-20v-618h-16zM159 82h85c210 0 297 117 297 268
s-87 268 -297 268h-85v-536z" />
    <glyph glyph-name="Dcroat" unicode="&#x110;" horiz-adv-x="674" 
d="M245 700c259 0 384 -156 384 -350s-125 -350 -384 -350h-102v618h-20v-618h-16v618h-20v-618h-16v312h-67v16h67v15h-67v16h67v15h-67v16h67v244h173c198 0 313 -105 313 -284s-115 -284 -313 -284h-85v-17h85c209 0 333 112 333 301c0 188 -124 301 -333 301h-173v16
h173c218 0 349 -120 349 -317c0 -198 -131 -317 -349 -317h-85v-17h86c228 0 368 128 368 334s-140 334 -368 334h-174v16h174zM244 618h-85v-228h146v-16h-146v-15h146v-16h-146v-15h146v-16h-146v-230h85c210 0 297 117 297 268s-87 268 -297 268z" />
    <glyph glyph-name="E" unicode="E" horiz-adv-x="567" 
d="M71 684v16h443v-16h-443zM71 651v16h443v-16h-443zM71 0v634h443v-16h-355v-241h315v-16h-315v-17h315v-16h-315v-17h315v-16h-315v-213h365v-16h-365v-17h365v-16h-365v-17h365v-16h-381v618h-20v-618h-16v618h-20v-618h-16z" />
    <glyph glyph-name="Eacute" unicode="&#xc9;" horiz-adv-x="567" 
d="M277 750l87 161h20l-91 -161h-16zM307 750l101 161h20l-105 -161h-16zM336 750l115 161h20l-119 -161h-16zM71 684v16h443v-16h-443zM71 651v16h443v-16h-443zM71 0v634h443v-16h-355v-241h315v-16h-315v-17h315v-16h-315v-17h315v-16h-315v-213h365v-16h-365v-17h365
v-16h-365v-17h365v-16h-381v618h-20v-618h-16v618h-20v-618h-16z" />
    <glyph glyph-name="Ebreve" unicode="&#x114;" horiz-adv-x="567" 
d="M309 749c-93 0 -164 85 -164 163h16c0 -76 71 -147 148 -147c78 0 149 71 149 147h16c0 -78 -71 -163 -165 -163zM309 779c-69 0 -134 64 -134 133h16c0 -60 58 -117 118 -117c61 0 119 57 119 117h16c0 -69 -65 -133 -135 -133zM309 811c-51 0 -102 50 -102 101h16
c0 -42 44 -85 86 -85c43 0 87 43 87 85h16c0 -51 -51 -101 -103 -101zM71 684v16h443v-16h-443zM71 651v16h443v-16h-443zM71 0v634h443v-16h-355v-241h315v-16h-315v-17h315v-16h-315v-17h315v-16h-315v-213h365v-16h-365v-17h365v-16h-365v-17h365v-16h-381v618h-20v-618
h-16v618h-20v-618h-16z" />
    <glyph glyph-name="Ecaron" unicode="&#x11a;" horiz-adv-x="567" 
d="M302 735l-152 177h16l144 -165l143 165h16l-151 -177h-16zM310 768l-131 144h16l115 -124l114 124h16zM310 807l-103 105h16l87 -88l86 88h16zM71 684v16h443v-16h-443zM71 651v16h443v-16h-443zM71 0v634h443v-16h-355v-241h315v-16h-315v-17h315v-16h-315v-17h315v-16
h-315v-213h365v-16h-365v-17h365v-16h-365v-17h365v-16h-381v618h-20v-618h-16v618h-20v-618h-16z" />
    <glyph glyph-name="Ecircumflex" unicode="&#xca;" horiz-adv-x="567" 
d="M150 749l152 177h16l151 -177h-16l-143 165l-144 -165h-16zM179 749l131 144l130 -144h-16l-114 124l-115 -124h-16zM207 749l103 105l102 -105h-16l-86 88l-87 -88h-16zM71 684v16h443v-16h-443zM71 651v16h443v-16h-443zM71 0v634h443v-16h-355v-241h315v-16h-315v-17
h315v-16h-315v-17h315v-16h-315v-213h365v-16h-365v-17h365v-16h-365v-17h365v-16h-381v618h-20v-618h-16v618h-20v-618h-16z" />
    <glyph glyph-name="Edieresis" unicode="&#xcb;" horiz-adv-x="567" 
d="M225 778c-28 0 -52 24 -52 52c0 29 24 52 52 52c29 0 52 -23 52 -52c0 -28 -23 -52 -52 -52zM396 778c-28 0 -52 24 -52 52c0 29 24 52 52 52c29 0 52 -23 52 -52c0 -28 -23 -52 -52 -52zM225 794c20 0 36 16 36 36s-16 36 -36 36s-36 -16 -36 -36c0 -19 17 -36 36 -36z
M396 794c20 0 36 16 36 36s-16 36 -36 36s-36 -16 -36 -36c0 -19 17 -36 36 -36zM225 810c-10 0 -20 10 -20 20c0 11 9 20 20 20s20 -9 20 -20s-9 -20 -20 -20zM396 810c-10 0 -20 10 -20 20c0 11 9 20 20 20s20 -9 20 -20s-9 -20 -20 -20zM225 824c3 0 6 3 6 6s-3 6 -6 6
s-6 -3 -6 -6s3 -6 6 -6zM396 824c3 0 6 3 6 6s-3 6 -6 6s-6 -3 -6 -6s3 -6 6 -6zM71 684v16h443v-16h-443zM71 651v16h443v-16h-443zM71 0v634h443v-16h-355v-241h315v-16h-315v-17h315v-16h-315v-17h315v-16h-315v-213h365v-16h-365v-17h365v-16h-365v-17h365v-16h-381v618
h-20v-618h-16v618h-20v-618h-16z" />
    <glyph glyph-name="Edotaccent" unicode="&#x116;" horiz-adv-x="567" 
d="M310 778c-28 0 -52 24 -52 52c0 29 24 52 52 52c29 0 52 -23 52 -52c0 -28 -23 -52 -52 -52zM310 794c20 0 36 16 36 36s-16 36 -36 36s-36 -16 -36 -36c0 -19 17 -36 36 -36zM310 810c-10 0 -20 10 -20 20c0 11 9 20 20 20s20 -9 20 -20s-9 -20 -20 -20zM310 824
c3 0 6 3 6 6s-3 6 -6 6s-6 -3 -6 -6s3 -6 6 -6zM71 684v16h443v-16h-443zM71 651v16h443v-16h-443zM71 0v634h443v-16h-355v-241h315v-16h-315v-17h315v-16h-315v-17h315v-16h-315v-213h365v-16h-365v-17h365v-16h-365v-17h365v-16h-381v618h-20v-618h-16v618h-20v-618h-16z
" />
    <glyph glyph-name="Egrave" unicode="&#xc8;" horiz-adv-x="567" 
d="M272 750l-119 161h20l115 -161h-16zM301 750l-105 161h20l101 -161h-16zM331 750l-91 161h20l87 -161h-16zM71 684v16h443v-16h-443zM71 651v16h443v-16h-443zM71 0v634h443v-16h-355v-241h315v-16h-315v-17h315v-16h-315v-17h315v-16h-315v-213h365v-16h-365v-17h365
v-16h-365v-17h365v-16h-381v618h-20v-618h-16v618h-20v-618h-16z" />
    <glyph glyph-name="Emacron" unicode="&#x112;" horiz-adv-x="567" 
d="M135 852v16h351v-16h-351zM135 821v16h351v-16h-351zM135 790v16h351v-16h-351zM71 684v16h443v-16h-443zM71 651v16h443v-16h-443zM71 0v634h443v-16h-355v-241h315v-16h-315v-17h315v-16h-315v-17h315v-16h-315v-213h365v-16h-365v-17h365v-16h-365v-17h365v-16h-381
v618h-20v-618h-16v618h-20v-618h-16z" />
    <glyph glyph-name="Eogonek" unicode="&#x118;" horiz-adv-x="567" 
d="M514 700v-16h-443v16h443zM514 667v-16h-443v16h443zM424 -131c0 18 10 32 16 40l66 91h-11l-68 -88c-15 -19 -24 -35 -24 -52c0 -30 26 -54 63 -54c19 0 36 6 60 15v-17c-19 -7 -39 -14 -60 -14c-45 0 -79 31 -79 70c0 22 11 41 28 62l62 78h-10l-64 -76
c-24 -29 -34 -47 -34 -70c0 -43 36 -76 87 -76c15 0 36 3 70 18v-17c-13 -6 -41 -17 -72 -17c-59 0 -101 41 -101 92c0 33 18 57 39 81l57 65h-306v618h-20v-618h-16v618h-20v-618h-16v634h443v-16h-355v-241h315v-16h-315v-17h315v-16h-315v-17h315v-16h-315v-213h365v-16
h-365v-17h365v-16h-365v-17h365v-16l-71 -100c-6 -8 -13 -18 -13 -31c0 -17 14 -32 39 -32c12 0 27 3 47 10v-17c-19 -6 -34 -9 -47 -9c-32 0 -55 20 -55 48z" />
    <glyph glyph-name="F" unicode="F" horiz-adv-x="556" 
d="M71 684v16h443v-16h-443zM71 651v16h443v-16h-443zM71 0v634h443v-16h-355v-241h296v-16h-296v-17h296v-16h-296v-17h296v-16h-296v-295h-16v618h-20v-618h-16v618h-20v-618h-16z" />
    <glyph glyph-name="G" unicode="G" horiz-adv-x="742" 
d="M393 -15c-192 0 -348 153 -348 366c0 211 154 364 352 364c85 0 164 -24 246 -99l-10 -13c-72 67 -145 96 -236 96c-192 0 -336 -149 -336 -348s144 -350 332 -350c73 0 140 23 198 66v22c-59 -48 -124 -72 -197 -71c-178 1 -313 144 -313 332c0 190 136 333 315 332
c87 -1 159 -29 229 -91l-10 -13c-67 60 -135 87 -219 88c-171 1 -299 -135 -299 -316c0 -179 128 -315 297 -316c74 -1 138 25 197 76v24c-63 -60 -124 -86 -197 -83c-158 0 -277 129 -277 299c0 172 120 301 278 299c79 -1 146 -27 212 -83l-10 -13c-71 61 -136 79 -202 80
c-146 2 -262 -117 -262 -283s117 -283 261 -283c83 -3 143 35 197 89v139h-215v16h215v17h-215v16h215v17h-215v16h231v-317c-62 -49 -133 -75 -214 -75zM626 75v302h16v-287c-5 -5 -10 -10 -16 -15zM661 111v266h16v-246z" />
    <glyph glyph-name="Gbreve" unicode="&#x11e;" horiz-adv-x="742" 
d="M388 749c-93 0 -164 85 -164 163h16c0 -76 71 -147 148 -147c78 0 149 71 149 147h16c0 -78 -71 -163 -165 -163zM388 779c-69 0 -134 64 -134 133h16c0 -60 58 -117 118 -117c61 0 119 57 119 117h16c0 -69 -65 -133 -135 -133zM388 811c-51 0 -102 50 -102 101h16
c0 -42 44 -85 86 -85c43 0 87 43 87 85h16c0 -51 -51 -101 -103 -101zM393 -15c-192 0 -348 153 -348 366c0 211 154 364 352 364c85 0 164 -24 246 -99l-10 -13c-72 67 -145 96 -236 96c-192 0 -336 -149 -336 -348s144 -350 332 -350c73 0 140 23 198 66v22
c-59 -48 -124 -72 -197 -71c-178 1 -313 144 -313 332c0 190 136 333 315 332c87 -1 159 -29 229 -91l-10 -13c-67 60 -135 87 -219 88c-171 1 -299 -135 -299 -316c0 -179 128 -315 297 -316c74 -1 138 25 197 76v24c-63 -60 -124 -86 -197 -83c-158 0 -277 129 -277 299
c0 172 120 301 278 299c79 -1 146 -27 212 -83l-10 -13c-71 61 -136 79 -202 80c-146 2 -262 -117 -262 -283s117 -283 261 -283c83 -3 143 35 197 89v139h-215v16h215v17h-215v16h215v17h-215v16h231v-317c-62 -49 -133 -75 -214 -75zM626 75v302h16v-287
c-5 -5 -10 -10 -16 -15zM661 111v266h16v-246z" />
    <glyph glyph-name="Gcircumflex" unicode="&#x11c;" horiz-adv-x="742" 
d="M229 749l152 177h16l151 -177h-16l-143 165l-144 -165h-16zM258 749l131 144l130 -144h-16l-114 124l-115 -124h-16zM286 749l103 105l102 -105h-16l-86 88l-87 -88h-16zM393 -15c-192 0 -348 153 -348 366c0 211 154 364 352 364c85 0 164 -24 246 -99l-10 -13
c-72 67 -145 96 -236 96c-192 0 -336 -149 -336 -348s144 -350 332 -350c73 0 140 23 198 66v22c-59 -48 -124 -72 -197 -71c-178 1 -313 144 -313 332c0 190 136 333 315 332c87 -1 159 -29 229 -91l-10 -13c-67 60 -135 87 -219 88c-171 1 -299 -135 -299 -316
c0 -179 128 -315 297 -316c74 -1 138 25 197 76v24c-63 -60 -124 -86 -197 -83c-158 0 -277 129 -277 299c0 172 120 301 278 299c79 -1 146 -27 212 -83l-10 -13c-71 61 -136 79 -202 80c-146 2 -262 -117 -262 -283s117 -283 261 -283c83 -3 143 35 197 89v139h-215v16
h215v17h-215v16h215v17h-215v16h231v-317c-62 -49 -133 -75 -214 -75zM626 75v302h16v-287c-5 -5 -10 -10 -16 -15zM661 111v266h16v-246z" />
    <glyph glyph-name="Gcommaaccent" unicode="&#x122;" horiz-adv-x="742" 
d="M393 -15c-192 0 -348 153 -348 366c0 211 154 364 352 364c85 0 164 -24 246 -99l-10 -13c-72 67 -145 96 -236 96c-192 0 -336 -149 -336 -348s144 -350 332 -350c73 0 140 23 198 66v22c-59 -48 -124 -72 -197 -71c-178 1 -313 144 -313 332c0 190 136 333 315 332
c87 -1 159 -29 229 -91l-10 -13c-67 60 -135 87 -219 88c-171 1 -299 -135 -299 -316c0 -179 128 -315 297 -316c74 -1 138 25 197 76v24c-63 -60 -124 -86 -197 -83c-158 0 -277 129 -277 299c0 172 120 301 278 299c79 -1 146 -27 212 -83l-10 -13c-71 61 -136 79 -202 80
c-146 2 -262 -117 -262 -283s117 -283 261 -283c83 -3 143 35 197 89v139h-215v16h215v17h-215v16h215v17h-215v16h231v-317c-62 -49 -133 -75 -214 -75zM626 75v302h16v-287c-5 -5 -10 -10 -16 -15zM661 111v266h16v-246zM339 -224l37 78c-23 7 -39 27 -39 53
c0 30 24 54 55 54c30 0 56 -24 56 -54c0 -16 -8 -35 -27 -71l-31 -60h-16l34 68c16 32 25 49 25 63c0 21 -18 39 -41 39c-22 0 -40 -17 -40 -39s18 -39 40 -39h4l4 1l-45 -93h-16zM392 -117c-13 0 -25 10 -25 24c0 13 12 24 25 24c14 0 26 -12 26 -24c0 -13 -12 -24 -26 -24
zM392 -102c7 0 9 5 9 9s-2 8 -9 8c-6 0 -10 -4 -10 -8c0 -5 4 -9 10 -9z" />
    <glyph glyph-name="Gdotaccent" unicode="&#x120;" horiz-adv-x="742" 
d="M389 778c-28 0 -52 24 -52 52c0 29 24 52 52 52c29 0 52 -23 52 -52c0 -28 -23 -52 -52 -52zM389 794c20 0 36 16 36 36s-16 36 -36 36s-36 -16 -36 -36c0 -19 17 -36 36 -36zM389 810c-10 0 -20 10 -20 20c0 11 9 20 20 20s20 -9 20 -20s-9 -20 -20 -20zM389 824
c3 0 6 3 6 6s-3 6 -6 6s-6 -3 -6 -6s3 -6 6 -6zM393 -15c-192 0 -348 153 -348 366c0 211 154 364 352 364c85 0 164 -24 246 -99l-10 -13c-72 67 -145 96 -236 96c-192 0 -336 -149 -336 -348s144 -350 332 -350c73 0 140 23 198 66v22c-59 -48 -124 -72 -197 -71
c-178 1 -313 144 -313 332c0 190 136 333 315 332c87 -1 159 -29 229 -91l-10 -13c-67 60 -135 87 -219 88c-171 1 -299 -135 -299 -316c0 -179 128 -315 297 -316c74 -1 138 25 197 76v24c-63 -60 -124 -86 -197 -83c-158 0 -277 129 -277 299c0 172 120 301 278 299
c79 -1 146 -27 212 -83l-10 -13c-71 61 -136 79 -202 80c-146 2 -262 -117 -262 -283s117 -283 261 -283c83 -3 143 35 197 89v139h-215v16h215v17h-215v16h215v17h-215v16h231v-317c-62 -49 -133 -75 -214 -75zM626 75v302h16v-287c-5 -5 -10 -10 -16 -15zM661 111v266h16
v-246z" />
    <glyph glyph-name="H" unicode="H" horiz-adv-x="678" 
d="M71 0v700h16v-700h-16zM107 0v700h16v-700h-16zM143 0v700h16v-323h360v323h16v-700h-16v295h-360v-295h-16zM555 0v700h16v-700h-16zM591 0v700h16v-700h-16zM159 344h360v17h-360v-17zM159 311h360v17h-360v-17z" />
    <glyph glyph-name="Hbar" unicode="&#x126;" horiz-adv-x="700" 
d="M71 607v93h16v-700h-16v525h-71v16h71v17h-71v16h71v17h-71v16h71zM107 0v700h16v-700h-16zM519 607v93h16v-700h-16v295h-360v-295h-16v700h16v-93h360zM555 0v700h16v-700h-16zM700 591h-93v-17h93v-16h-93v-17h93v-16h-93v-525h-16v700h16v-93h93v-16zM519 591h-360
v-17h360v17zM519 558h-360v-17h360v17zM159 377h360v148h-360v-148zM519 344v17h-360v-17h360zM519 311v17h-360v-17h360z" />
    <glyph glyph-name="Hcircumflex" unicode="&#x124;" horiz-adv-x="678" 
d="M179 749l152 177h16l151 -177h-16l-143 165l-144 -165h-16zM208 749l131 144l130 -144h-16l-114 124l-115 -124h-16zM236 749l103 105l102 -105h-16l-86 88l-87 -88h-16zM71 0v700h16v-700h-16zM107 0v700h16v-700h-16zM143 0v700h16v-323h360v323h16v-700h-16v295h-360
v-295h-16zM555 0v700h16v-700h-16zM591 0v700h16v-700h-16zM159 344h360v17h-360v-17zM159 311h360v17h-360v-17z" />
    <glyph glyph-name="I" unicode="I" horiz-adv-x="259" 
d="M86 0v700h16v-700h-16zM122 0v700h16v-700h-16zM158 0v700h16v-700h-16z" />
    <glyph glyph-name="Iacute" unicode="&#xcd;" horiz-adv-x="259" 
d="M97 750l87 161h20l-91 -161h-16zM127 750l101 161h20l-105 -161h-16zM156 750l115 161h20l-119 -161h-16zM86 0v700h16v-700h-16zM122 0v700h16v-700h-16zM158 0v700h16v-700h-16z" />
    <glyph glyph-name="Ibreve" unicode="&#x12c;" horiz-adv-x="259" 
d="M129 749c-93 0 -164 85 -164 163h16c0 -76 71 -147 148 -147c78 0 149 71 149 147h16c0 -78 -71 -163 -165 -163zM129 779c-69 0 -134 64 -134 133h16c0 -60 58 -117 118 -117c61 0 119 57 119 117h16c0 -69 -65 -133 -135 -133zM129 811c-51 0 -102 50 -102 101h16
c0 -42 44 -85 86 -85c43 0 87 43 87 85h16c0 -51 -51 -101 -103 -101zM86 0v700h16v-700h-16zM122 0v700h16v-700h-16zM158 0v700h16v-700h-16z" />
    <glyph glyph-name="Icircumflex" unicode="&#xce;" horiz-adv-x="259" 
d="M-30 749l152 177h16l151 -177h-16l-143 165l-144 -165h-16zM-1 749l131 144l130 -144h-16l-114 124l-115 -124h-16zM27 749l103 105l102 -105h-16l-86 88l-87 -88h-16zM86 0v700h16v-700h-16zM122 0v700h16v-700h-16zM158 0v700h16v-700h-16z" />
    <glyph glyph-name="Idieresis" unicode="&#xcf;" horiz-adv-x="259" 
d="M45 778c-28 0 -52 24 -52 52c0 29 24 52 52 52c29 0 52 -23 52 -52c0 -28 -23 -52 -52 -52zM216 778c-28 0 -52 24 -52 52c0 29 24 52 52 52c29 0 52 -23 52 -52c0 -28 -23 -52 -52 -52zM45 794c20 0 36 16 36 36s-16 36 -36 36s-36 -16 -36 -36c0 -19 17 -36 36 -36z
M216 794c20 0 36 16 36 36s-16 36 -36 36s-36 -16 -36 -36c0 -19 17 -36 36 -36zM45 810c-10 0 -20 10 -20 20c0 11 9 20 20 20s20 -9 20 -20s-9 -20 -20 -20zM216 810c-10 0 -20 10 -20 20c0 11 9 20 20 20s20 -9 20 -20s-9 -20 -20 -20zM45 824c3 0 6 3 6 6s-3 6 -6 6
s-6 -3 -6 -6s3 -6 6 -6zM216 824c3 0 6 3 6 6s-3 6 -6 6s-6 -3 -6 -6s3 -6 6 -6zM86 0v700h16v-700h-16zM122 0v700h16v-700h-16zM158 0v700h16v-700h-16z" />
    <glyph glyph-name="Idotaccent" unicode="&#x130;" horiz-adv-x="259" 
d="M130 778c-28 0 -52 24 -52 52c0 29 24 52 52 52c29 0 52 -23 52 -52c0 -28 -23 -52 -52 -52zM130 794c20 0 36 16 36 36s-16 36 -36 36s-36 -16 -36 -36c0 -19 17 -36 36 -36zM130 810c-10 0 -20 10 -20 20c0 11 9 20 20 20s20 -9 20 -20s-9 -20 -20 -20zM130 824
c3 0 6 3 6 6s-3 6 -6 6s-6 -3 -6 -6s3 -6 6 -6zM86 0v700h16v-700h-16zM122 0v700h16v-700h-16zM158 0v700h16v-700h-16z" />
    <glyph glyph-name="Igrave" unicode="&#xcc;" horiz-adv-x="259" 
d="M92 750l-119 161h20l115 -161h-16zM121 750l-105 161h20l101 -161h-16zM151 750l-91 161h20l87 -161h-16zM86 0v700h16v-700h-16zM122 0v700h16v-700h-16zM158 0v700h16v-700h-16z" />
    <glyph glyph-name="Imacron" unicode="&#x12a;" horiz-adv-x="259" 
d="M41 852v16h178v-16h-178zM41 821v16h178v-16h-178zM41 790v16h178v-16h-178zM86 0v700h16v-700h-16zM122 0v700h16v-700h-16zM158 0v700h16v-700h-16z" />
    <glyph glyph-name="Iogonek" unicode="&#x12e;" horiz-adv-x="259" 
d="M19 -144c0 -46 36 -78 87 -78c15 0 36 3 70 18v-17c-13 -6 -41 -17 -72 -17c-60 0 -101 41 -101 93c0 30 11 51 33 80l50 65v700h16v-700l-55 -76c-25 -35 -28 -51 -28 -68zM53 -141c0 -29 26 -53 63 -53c19 0 36 6 60 15v-17c-19 -7 -39 -14 -60 -14
c-45 0 -79 31 -79 69c0 23 11 41 27 63l58 78v700h16v-700l-62 -88c-14 -20 -23 -35 -23 -53zM129 -163c12 0 27 3 47 10v-17c-19 -6 -34 -9 -47 -9c-32 0 -55 20 -55 48c0 18 10 32 16 40l68 91v700h16v-700l-71 -100c-6 -8 -13 -18 -13 -31c0 -17 14 -32 39 -32z" />
    <glyph glyph-name="Itilde" unicode="&#x128;" horiz-adv-x="259" 
d="M-57 760c0 77 30 143 110 143c43 0 72 -22 99 -41c21 -15 37 -27 54 -27c37 0 47 35 48 66h14c-2 -51 -23 -82 -62 -82c-17 0 -33 9 -63 30c-27 19 -52 38 -90 38c-61 0 -96 -45 -96 -127h-14zM-32 760c0 70 31 112 86 112c32 0 57 -17 81 -34s45 -34 72 -34
c46 0 72 34 72 97h14c0 -71 -31 -113 -86 -113c-33 0 -57 20 -81 36s-44 32 -72 32c-46 0 -72 -35 -72 -96h-14zM208 757c-43 0 -73 24 -100 42c-21 14 -35 26 -52 26c-36 0 -48 -32 -48 -65h-14c0 49 22 81 62 81c22 0 40 -14 61 -29c27 -19 53 -39 91 -39
c61 0 97 45 97 128h14c0 -77 -30 -144 -111 -144zM86 0v700h16v-700h-16zM122 0v700h16v-700h-16zM158 0v700h16v-700h-16z" />
    <glyph glyph-name="J" unicode="J" horiz-adv-x="469" 
d="M173 -15c-51 0 -96 14 -141 47l8 14c42 -31 83 -45 133 -45c119 0 209 90 209 209v490h16v-490c0 -133 -103 -225 -225 -225zM172 18c-44 0 -85 14 -125 41l8 14c38 -27 76 -39 117 -39c99 0 174 76 174 178v488h16v-488c0 -111 -82 -194 -190 -194zM171 51
c-37 0 -74 12 -109 35l8 14c33 -22 67 -33 101 -33c74 0 139 55 139 147v486h16v-486c0 -94 -65 -163 -155 -163z" />
    <glyph glyph-name="Jcircumflex" unicode="&#x134;" horiz-adv-x="469" 
d="M194 749l152 177h16l151 -177h-16l-143 165l-144 -165h-16zM223 749l131 144l130 -144h-16l-114 124l-115 -124h-16zM251 749l103 105l102 -105h-16l-86 88l-87 -88h-16zM173 -15c-51 0 -96 14 -141 47l8 14c42 -31 83 -45 133 -45c119 0 209 90 209 209v490h16v-490
c0 -133 -103 -225 -225 -225zM172 18c-44 0 -85 14 -125 41l8 14c38 -27 76 -39 117 -39c99 0 174 76 174 178v488h16v-488c0 -111 -82 -194 -190 -194zM171 51c-37 0 -74 12 -109 35l8 14c33 -22 67 -33 101 -33c74 0 139 55 139 147v486h16v-486c0 -94 -65 -163 -155 -163
z" />
    <glyph glyph-name="K" unicode="K" horiz-adv-x="619" 
d="M71 0v700h16v-700h-16zM107 0v700h16v-700h-16zM143 0v700h16v-319l309 319h22l-329 -339l346 -361h-22l-326 341v-341h-16zM536 0l-347 361l330 339h22l-330 -339l347 -361h-22zM585 0l-346 361l329 339h22l-329 -339l346 -361h-22z" />
    <glyph glyph-name="Kcommaaccent" unicode="&#x136;" horiz-adv-x="619" 
d="M71 0v700h16v-700h-16zM107 0v700h16v-700h-16zM143 0v700h16v-319l309 319h22l-329 -339l346 -361h-22l-326 341v-341h-16zM536 0l-347 361l330 339h22l-330 -339l347 -361h-22zM585 0l-346 361l329 339h22l-329 -339l346 -361h-22zM266 -224l37 78c-23 7 -39 27 -39 53
c0 30 24 54 55 54c30 0 56 -24 56 -54c0 -16 -8 -35 -27 -71l-31 -60h-16l34 68c16 32 25 49 25 63c0 21 -18 39 -41 39c-22 0 -40 -17 -40 -39s18 -39 40 -39h4l4 1l-45 -93h-16zM319 -117c-13 0 -25 10 -25 24c0 13 12 24 25 24c14 0 26 -12 26 -24c0 -13 -12 -24 -26 -24
zM319 -102c7 0 9 5 9 9s-2 8 -9 8c-6 0 -10 -4 -10 -8c0 -5 4 -9 10 -9z" />
    <glyph glyph-name="L" unicode="L" horiz-adv-x="539" 
d="M71 0v700h16v-700h-16zM107 0v700h16v-700h-16zM143 0v700h16v-618h367v-16h-367v-17h367v-16h-367v-17h367v-16h-383z" />
    <glyph glyph-name="Lacute" unicode="&#x139;" horiz-adv-x="539" 
d="M82 750l87 161h20l-91 -161h-16zM112 750l101 161h20l-105 -161h-16zM141 750l115 161h20l-119 -161h-16zM71 0v700h16v-700h-16zM107 0v700h16v-700h-16zM143 0v700h16v-618h367v-16h-367v-17h367v-16h-367v-17h367v-16h-383z" />
    <glyph glyph-name="Lcaron" unicode="&#x13d;" horiz-adv-x="539" 
d="M71 0v700h16v-700h-16zM107 0v700h16v-700h-16zM143 0v700h16v-618h367v-16h-367v-17h367v-16h-367v-17h367v-16h-383zM216 533v167h20l-4 -167h-16zM244 533l12 167h20l-16 -167h-16zM272 533l24 167h20l-28 -167h-16z" />
    <glyph glyph-name="Lcommaaccent" unicode="&#x13b;" horiz-adv-x="539" 
d="M71 0v700h16v-700h-16zM107 0v700h16v-700h-16zM143 0v700h16v-618h367v-16h-367v-17h367v-16h-367v-17h367v-16h-383zM244 -224l37 78c-23 7 -39 27 -39 53c0 30 24 54 55 54c30 0 56 -24 56 -54c0 -16 -8 -35 -27 -71l-31 -60h-16l34 68c16 32 25 49 25 63
c0 21 -18 39 -41 39c-22 0 -40 -17 -40 -39s18 -39 40 -39h4l4 1l-45 -93h-16zM297 -117c-13 0 -25 10 -25 24c0 13 12 24 25 24c14 0 26 -12 26 -24c0 -13 -12 -24 -26 -24zM297 -102c7 0 9 5 9 9s-2 8 -9 8c-6 0 -10 -4 -10 -8c0 -5 4 -9 10 -9z" />
    <glyph glyph-name="Ldot" unicode="&#x13f;" horiz-adv-x="539" 
d="M71 0v700h16v-700h-16zM107 0v700h16v-700h-16zM143 0v700h16v-618h367v-16h-367v-17h367v-16h-367v-17h367v-16h-383zM317 288c-32 0 -58 25 -58 57s26 57 58 57s59 -25 59 -57s-27 -57 -59 -57zM317 304c24 0 43 19 43 41s-19 41 -43 41c-23 0 -42 -18 -42 -41
s19 -41 42 -41zM317 320c-14 0 -26 11 -26 25s12 25 26 25c15 0 27 -12 27 -25s-12 -25 -27 -25zM317 336c7 0 10 5 10 9s-3 9 -10 9c-6 0 -10 -4 -10 -9s4 -9 10 -9z" />
    <glyph glyph-name="Lslash" unicode="&#x141;" horiz-adv-x="539" 
d="M71 403v297h16v-700h-16v315l-90 -48v17l90 48v18l-90 -48v18l90 48v17l-90 -48v18zM107 0v700h16v-700h-16zM526 66h-367v-17h367v-16h-367v-17h367v-16h-383v700h16v-250l137 72v-17l-137 -73v-17l137 72v-18l-137 -72v-18l137 73v-18l-137 -72v-280h367v-16z" />
    <glyph glyph-name="M" unicode="M" horiz-adv-x="778" 
d="M620 0v488l-184 -211l-365 421v17h6l312 -359l312 359h7v-16l-309 -356l14 -15l295 340v-25l-284 -328l12 -14l272 312v-613h-16v571l-20 -23v-548h-16v529l-20 -23v-506h-16zM412 249l-341 394v25l352 -407zM71 0v613l329 -379l-5 -6h-11l-225 259v-487h-16v505l-20 23
v-528h-16v547l-20 23v-570h-16z" />
    <glyph glyph-name="N" unicode="N" horiz-adv-x="696" 
d="M625 81l-554 626v13h8l458 -518v498h16v-516l20 -22v538h16v-556l20 -23v579h16v-619zM625 25l-554 626v24l554 -626v-24zM618 -20l-459 519v-499h-16v517l-20 22v-539h-16v557l-20 23v-580h-16v622l554 -627v-15h-7z" />
    <glyph glyph-name="Nacute" unicode="&#x143;" horiz-adv-x="696" 
d="M315 750l87 161h20l-91 -161h-16zM345 750l101 161h20l-105 -161h-16zM374 750l115 161h20l-119 -161h-16zM625 81l-554 626v13h8l458 -518v498h16v-516l20 -22v538h16v-556l20 -23v579h16v-619zM625 25l-554 626v24l554 -626v-24zM618 -20l-459 519v-499h-16v517l-20 22
v-539h-16v557l-20 23v-580h-16v622l554 -627v-15h-7z" />
    <glyph glyph-name="Ncaron" unicode="&#x147;" horiz-adv-x="696" 
d="M340 735l-152 177h16l144 -165l143 165h16l-151 -177h-16zM348 768l-131 144h16l115 -124l114 124h16zM348 807l-103 105h16l87 -88l86 88h16zM625 81l-554 626v13h8l458 -518v498h16v-516l20 -22v538h16v-556l20 -23v579h16v-619zM625 25l-554 626v24l554 -626v-24z
M618 -20l-459 519v-499h-16v517l-20 22v-539h-16v557l-20 23v-580h-16v622l554 -627v-15h-7z" />
    <glyph glyph-name="Ncommaaccent" unicode="&#x145;" horiz-adv-x="696" 
d="M625 81l-554 626v13h8l458 -518v498h16v-516l20 -22v538h16v-556l20 -23v579h16v-619zM625 25l-554 626v24l554 -626v-24zM618 -20l-459 519v-499h-16v517l-20 22v-539h-16v557l-20 23v-580h-16v622l554 -627v-15h-7zM294 -224l37 78c-23 7 -39 27 -39 53
c0 30 24 54 55 54c30 0 56 -24 56 -54c0 -16 -8 -35 -27 -71l-31 -60h-16l34 68c16 32 25 49 25 63c0 21 -18 39 -41 39c-22 0 -40 -17 -40 -39s18 -39 40 -39h4l4 1l-45 -93h-16zM347 -117c-13 0 -25 10 -25 24c0 13 12 24 25 24c14 0 26 -12 26 -24c0 -13 -12 -24 -26 -24
zM347 -102c7 0 9 5 9 9s-2 8 -9 8c-6 0 -10 -4 -10 -8c0 -5 4 -9 10 -9z" />
    <glyph glyph-name="Eng" unicode="&#x14a;" horiz-adv-x="696" 
d="M625 81l-554 626v13h8l458 -518v498h16v-516l20 -22v538h16v-556l20 -23v579h16v-619zM625 25l-554 626v24l554 -626v-24zM493 -173c-27 0 -59 8 -91 29l8 14c26 -17 55 -27 83 -27c64 0 116 54 116 122v25l-20 23v-43c0 -64 -42 -110 -99 -110c-23 0 -49 8 -73 22l8 14
c21 -13 45 -20 65 -20c49 0 83 39 83 94v61l-20 22v-78c0 -51 -25 -82 -66 -82c-17 0 -36 6 -55 16l8 14c18 -10 35 -14 47 -14c36 0 50 29 50 66v97l-378 427v-499h-16v517l-20 22v-539h-16v557l-20 23v-580h-16v622l554 -627v-30c0 -77 -59 -138 -132 -138z" />
    <glyph glyph-name="Ntilde" unicode="&#xd1;" horiz-adv-x="696" 
d="M161 760c0 77 30 143 110 143c43 0 72 -22 99 -41c21 -15 37 -27 54 -27c37 0 47 35 48 66h14c-2 -51 -23 -82 -62 -82c-17 0 -33 9 -63 30c-27 19 -52 38 -90 38c-61 0 -96 -45 -96 -127h-14zM186 760c0 70 31 112 86 112c32 0 57 -17 81 -34s45 -34 72 -34
c46 0 72 34 72 97h14c0 -71 -31 -113 -86 -113c-33 0 -57 20 -81 36s-44 32 -72 32c-46 0 -72 -35 -72 -96h-14zM426 757c-43 0 -73 24 -100 42c-21 14 -35 26 -52 26c-36 0 -48 -32 -48 -65h-14c0 49 22 81 62 81c22 0 40 -14 61 -29c27 -19 53 -39 91 -39
c61 0 97 45 97 128h14c0 -77 -30 -144 -111 -144zM625 81l-554 626v13h8l458 -518v498h16v-516l20 -22v538h16v-556l20 -23v579h16v-619zM625 25l-554 626v24l554 -626v-24zM618 -20l-459 519v-499h-16v517l-20 22v-539h-16v557l-20 23v-580h-16v622l554 -627v-15h-7z" />
    <glyph glyph-name="O" unicode="O" 
d="M397 -15c-194 0 -352 153 -352 365s158 365 352 365c195 0 353 -153 353 -365s-158 -365 -353 -365zM397 1c191 0 337 151 337 349s-146 349 -337 349c-190 0 -336 -151 -336 -349s146 -349 336 -349zM397 18c-178 0 -316 144 -316 332s138 332 316 332
c180 0 317 -143 317 -332s-137 -332 -317 -332zM397 34c171 0 301 136 301 316s-130 316 -301 316c-170 0 -300 -137 -300 -316s130 -316 300 -316zM397 51c-159 0 -280 129 -280 299s121 299 280 299s280 -129 280 -299s-121 -299 -280 -299zM397 67c146 0 264 117 264 283
s-118 283 -264 283c-145 0 -264 -117 -264 -283s119 -283 264 -283z" />
    <glyph glyph-name="Oacute" unicode="&#xd3;" 
d="M364 750l87 161h20l-91 -161h-16zM394 750l101 161h20l-105 -161h-16zM423 750l115 161h20l-119 -161h-16zM397 -15c-194 0 -352 153 -352 365s158 365 352 365c195 0 353 -153 353 -365s-158 -365 -353 -365zM397 1c191 0 337 151 337 349s-146 349 -337 349
c-190 0 -336 -151 -336 -349s146 -349 336 -349zM397 18c-178 0 -316 144 -316 332s138 332 316 332c180 0 317 -143 317 -332s-137 -332 -317 -332zM397 34c171 0 301 136 301 316s-130 316 -301 316c-170 0 -300 -137 -300 -316s130 -316 300 -316zM397 51
c-159 0 -280 129 -280 299s121 299 280 299s280 -129 280 -299s-121 -299 -280 -299zM397 67c146 0 264 117 264 283s-118 283 -264 283c-145 0 -264 -117 -264 -283s119 -283 264 -283z" />
    <glyph glyph-name="Obreve" unicode="&#x14e;" 
d="M396 749c-93 0 -164 85 -164 163h16c0 -76 71 -147 148 -147c78 0 149 71 149 147h16c0 -78 -71 -163 -165 -163zM396 779c-69 0 -134 64 -134 133h16c0 -60 58 -117 118 -117c61 0 119 57 119 117h16c0 -69 -65 -133 -135 -133zM396 811c-51 0 -102 50 -102 101h16
c0 -42 44 -85 86 -85c43 0 87 43 87 85h16c0 -51 -51 -101 -103 -101zM397 -15c-194 0 -352 153 -352 365s158 365 352 365c195 0 353 -153 353 -365s-158 -365 -353 -365zM397 1c191 0 337 151 337 349s-146 349 -337 349c-190 0 -336 -151 -336 -349s146 -349 336 -349z
M397 18c-178 0 -316 144 -316 332s138 332 316 332c180 0 317 -143 317 -332s-137 -332 -317 -332zM397 34c171 0 301 136 301 316s-130 316 -301 316c-170 0 -300 -137 -300 -316s130 -316 300 -316zM397 51c-159 0 -280 129 -280 299s121 299 280 299s280 -129 280 -299
s-121 -299 -280 -299zM397 67c146 0 264 117 264 283s-118 283 -264 283c-145 0 -264 -117 -264 -283s119 -283 264 -283z" />
    <glyph glyph-name="Ocircumflex" unicode="&#xd4;" 
d="M237 749l152 177h16l151 -177h-16l-143 165l-144 -165h-16zM266 749l131 144l130 -144h-16l-114 124l-115 -124h-16zM294 749l103 105l102 -105h-16l-86 88l-87 -88h-16zM397 -15c-194 0 -352 153 -352 365s158 365 352 365c195 0 353 -153 353 -365s-158 -365 -353 -365
zM397 1c191 0 337 151 337 349s-146 349 -337 349c-190 0 -336 -151 -336 -349s146 -349 336 -349zM397 18c-178 0 -316 144 -316 332s138 332 316 332c180 0 317 -143 317 -332s-137 -332 -317 -332zM397 34c171 0 301 136 301 316s-130 316 -301 316
c-170 0 -300 -137 -300 -316s130 -316 300 -316zM397 51c-159 0 -280 129 -280 299s121 299 280 299s280 -129 280 -299s-121 -299 -280 -299zM397 67c146 0 264 117 264 283s-118 283 -264 283c-145 0 -264 -117 -264 -283s119 -283 264 -283z" />
    <glyph glyph-name="Odieresis" unicode="&#xd6;" 
d="M312 778c-28 0 -52 24 -52 52c0 29 24 52 52 52c29 0 52 -23 52 -52c0 -28 -23 -52 -52 -52zM483 778c-28 0 -52 24 -52 52c0 29 24 52 52 52c29 0 52 -23 52 -52c0 -28 -23 -52 -52 -52zM312 794c20 0 36 16 36 36s-16 36 -36 36s-36 -16 -36 -36c0 -19 17 -36 36 -36z
M483 794c20 0 36 16 36 36s-16 36 -36 36s-36 -16 -36 -36c0 -19 17 -36 36 -36zM312 810c-10 0 -20 10 -20 20c0 11 9 20 20 20s20 -9 20 -20s-9 -20 -20 -20zM483 810c-10 0 -20 10 -20 20c0 11 9 20 20 20s20 -9 20 -20s-9 -20 -20 -20zM312 824c3 0 6 3 6 6s-3 6 -6 6
s-6 -3 -6 -6s3 -6 6 -6zM483 824c3 0 6 3 6 6s-3 6 -6 6s-6 -3 -6 -6s3 -6 6 -6zM397 -15c-194 0 -352 153 -352 365s158 365 352 365c195 0 353 -153 353 -365s-158 -365 -353 -365zM397 1c191 0 337 151 337 349s-146 349 -337 349c-190 0 -336 -151 -336 -349
s146 -349 336 -349zM397 18c-178 0 -316 144 -316 332s138 332 316 332c180 0 317 -143 317 -332s-137 -332 -317 -332zM397 34c171 0 301 136 301 316s-130 316 -301 316c-170 0 -300 -137 -300 -316s130 -316 300 -316zM397 51c-159 0 -280 129 -280 299s121 299 280 299
s280 -129 280 -299s-121 -299 -280 -299zM397 67c146 0 264 117 264 283s-118 283 -264 283c-145 0 -264 -117 -264 -283s119 -283 264 -283z" />
    <glyph glyph-name="Ograve" unicode="&#xd2;" 
d="M359 750l-119 161h20l115 -161h-16zM388 750l-105 161h20l101 -161h-16zM418 750l-91 161h20l87 -161h-16zM397 -15c-194 0 -352 153 -352 365s158 365 352 365c195 0 353 -153 353 -365s-158 -365 -353 -365zM397 1c191 0 337 151 337 349s-146 349 -337 349
c-190 0 -336 -151 -336 -349s146 -349 336 -349zM397 18c-178 0 -316 144 -316 332s138 332 316 332c180 0 317 -143 317 -332s-137 -332 -317 -332zM397 34c171 0 301 136 301 316s-130 316 -301 316c-170 0 -300 -137 -300 -316s130 -316 300 -316zM397 51
c-159 0 -280 129 -280 299s121 299 280 299s280 -129 280 -299s-121 -299 -280 -299zM397 67c146 0 264 117 264 283s-118 283 -264 283c-145 0 -264 -117 -264 -283s119 -283 264 -283z" />
    <glyph glyph-name="Ohungarumlaut" unicode="&#x150;" 
d="M287 750l77 161h20l-81 -161h-16zM317 750l91 161h20l-95 -161h-16zM346 750l105 161h20l-109 -161h-16zM456 750l77 161h20l-81 -161h-16zM486 750l91 161h20l-95 -161h-16zM515 750l105 161h20l-109 -161h-16zM397 -15c-194 0 -352 153 -352 365s158 365 352 365
c195 0 353 -153 353 -365s-158 -365 -353 -365zM397 1c191 0 337 151 337 349s-146 349 -337 349c-190 0 -336 -151 -336 -349s146 -349 336 -349zM397 18c-178 0 -316 144 -316 332s138 332 316 332c180 0 317 -143 317 -332s-137 -332 -317 -332zM397 34
c171 0 301 136 301 316s-130 316 -301 316c-170 0 -300 -137 -300 -316s130 -316 300 -316zM397 51c-159 0 -280 129 -280 299s121 299 280 299s280 -129 280 -299s-121 -299 -280 -299zM397 67c146 0 264 117 264 283s-118 283 -264 283c-145 0 -264 -117 -264 -283
s119 -283 264 -283z" />
    <glyph glyph-name="Omacron" unicode="&#x14c;" 
d="M222 852v16h351v-16h-351zM222 821v16h351v-16h-351zM222 790v16h351v-16h-351zM397 -15c-194 0 -352 153 -352 365s158 365 352 365c195 0 353 -153 353 -365s-158 -365 -353 -365zM397 1c191 0 337 151 337 349s-146 349 -337 349c-190 0 -336 -151 -336 -349
s146 -349 336 -349zM397 18c-178 0 -316 144 -316 332s138 332 316 332c180 0 317 -143 317 -332s-137 -332 -317 -332zM397 34c171 0 301 136 301 316s-130 316 -301 316c-170 0 -300 -137 -300 -316s130 -316 300 -316zM397 51c-159 0 -280 129 -280 299s121 299 280 299
s280 -129 280 -299s-121 -299 -280 -299zM397 67c146 0 264 117 264 283s-118 283 -264 283c-145 0 -264 -117 -264 -283s119 -283 264 -283z" />
    <glyph glyph-name="Oslash" unicode="&#xd8;" 
d="M589 659c97 -63 161 -174 161 -309c0 -212 -158 -365 -353 -365c-40 0 -78 6 -114 19l-32 -69h-18l34 74c-5 2 -10 5 -15 7l-38 -81h-18l42 88c-5 2 -10 5 -15 8l-45 -96h-18l48 104c-98 63 -163 175 -163 311c0 212 158 365 352 365c41 0 81 -7 117 -20l32 68h18
l-34 -73c5 -2 10 -5 15 -7l37 80h18l-41 -87c5 -2 11 -5 16 -8l44 95h18zM397 1c191 0 337 151 337 349s-146 349 -337 349c-190 0 -336 -151 -336 -349s146 -349 336 -349zM397 682c180 0 317 -143 317 -332s-137 -332 -317 -332c-178 0 -316 144 -316 332s138 332 316 332
zM397 34c171 0 301 136 301 316s-130 316 -301 316c-170 0 -300 -137 -300 -316s130 -316 300 -316zM397 649c159 0 280 -129 280 -299s-121 -299 -280 -299s-280 129 -280 299s121 299 280 299zM133 350c0 -101 44 -184 112 -234l234 504c-26 9 -53 13 -82 13
c-145 0 -264 -117 -264 -283zM273 99l237 509l-15 6l-237 -507c5 -3 10 -6 15 -8zM524 600l-237 -509l16 -6l236 506zM397 67c146 0 264 117 264 283c0 100 -43 182 -108 231l-235 -502c25 -8 51 -12 79 -12z" />
    <glyph glyph-name="Otilde" unicode="&#xd5;" 
d="M210 760c0 77 30 143 110 143c43 0 72 -22 99 -41c21 -15 37 -27 54 -27c37 0 47 35 48 66h14c-2 -51 -23 -82 -62 -82c-17 0 -33 9 -63 30c-27 19 -52 38 -90 38c-61 0 -96 -45 -96 -127h-14zM235 760c0 70 31 112 86 112c32 0 57 -17 81 -34s45 -34 72 -34
c46 0 72 34 72 97h14c0 -71 -31 -113 -86 -113c-33 0 -57 20 -81 36s-44 32 -72 32c-46 0 -72 -35 -72 -96h-14zM475 757c-43 0 -73 24 -100 42c-21 14 -35 26 -52 26c-36 0 -48 -32 -48 -65h-14c0 49 22 81 62 81c22 0 40 -14 61 -29c27 -19 53 -39 91 -39
c61 0 97 45 97 128h14c0 -77 -30 -144 -111 -144zM397 -15c-194 0 -352 153 -352 365s158 365 352 365c195 0 353 -153 353 -365s-158 -365 -353 -365zM397 1c191 0 337 151 337 349s-146 349 -337 349c-190 0 -336 -151 -336 -349s146 -349 336 -349zM397 18
c-178 0 -316 144 -316 332s138 332 316 332c180 0 317 -143 317 -332s-137 -332 -317 -332zM397 34c171 0 301 136 301 316s-130 316 -301 316c-170 0 -300 -137 -300 -316s130 -316 300 -316zM397 51c-159 0 -280 129 -280 299s121 299 280 299s280 -129 280 -299
s-121 -299 -280 -299zM397 67c146 0 264 117 264 283s-118 283 -264 283c-145 0 -264 -117 -264 -283s119 -283 264 -283z" />
    <glyph glyph-name="OE" unicode="&#x152;" horiz-adv-x="1016" 
d="M410 0c-241 0 -365 156 -365 350s124 350 365 350h126v-700h-126zM556 0v700h16v-700h-16zM592 0v700h371v-16h-355v-17h355v-16h-355v-17h355v-16h-355v-241h315v-16h-315v-17h315v-16h-315v-17h315v-16h-315v-213h365v-16h-365v-17h365v-16h-365v-17h365v-16h-381z
M410 16h110v17h-109c-203 0 -330 123 -330 317s127 317 330 317h109v17h-110c-214 0 -349 -130 -349 -334s135 -334 349 -334zM411 49h109v17h-109c-183 0 -294 107 -294 284s111 284 294 284h109v17h-109c-195 0 -314 -115 -314 -301c0 -185 120 -301 314 -301zM411 82h109
v536h-109c-191 0 -278 -117 -278 -268s87 -268 278 -268z" />
    <glyph glyph-name="P" unicode="P" horiz-adv-x="565" 
d="M71 0v634h197c118 0 189 -60 189 -159s-71 -157 -189 -157h-109v-17h110c127 0 208 68 208 175s-81 175 -208 175h-198v16h198c135 0 224 -75 224 -191s-88 -191 -224 -191h-110v-17h111c146 0 243 84 243 208c0 123 -98 208 -243 208h-199v16h199
c164 0 259 -101 259 -224c0 -124 -95 -224 -259 -224h-111v-252h-16v618h-20v-618h-16v618h-20v-618h-16zM159 334h109c109 0 173 51 173 141c0 91 -65 143 -173 143h-109v-284z" />
    <glyph glyph-name="Thorn" unicode="&#xde;" horiz-adv-x="570" 
d="M71 0v700h16v-700h-16zM107 0v700h16v-700h-16zM143 0v700h16v-116h111c164 0 259 -101 259 -224c0 -124 -95 -224 -259 -224h-111v-136h-16zM159 152h111c146 0 243 84 243 208c0 123 -98 208 -243 208h-111v-17h110c135 0 224 -75 224 -191s-88 -191 -224 -191h-110
v-17zM159 185h110c127 0 208 68 208 175s-81 175 -208 175h-110v-17h109c118 0 189 -60 189 -159s-71 -157 -189 -157h-109v-17zM159 218h109c109 0 173 51 173 141c0 91 -65 143 -173 143h-109v-284z" />
    <glyph glyph-name="Q" unicode="Q" 
d="M353 -160v148c-174 21 -308 167 -308 362c0 212 158 365 352 365c195 0 353 -153 353 -365c0 -196 -134 -341 -309 -362v-148h-16v357h16v-127c126 21 220 132 220 280c0 166 -118 283 -264 283c-145 0 -264 -117 -264 -283c0 -149 95 -258 220 -279v126h16v-357h-16z
M353 4v17c-156 21 -272 157 -272 329c0 188 138 332 316 332c180 0 317 -143 317 -332c0 -173 -115 -308 -273 -329v-17c169 21 293 163 293 346c0 198 -146 349 -337 349c-190 0 -336 -151 -336 -349c0 -182 124 -325 292 -346zM353 37v17c-136 22 -236 142 -236 296
c0 170 121 299 280 299s280 -129 280 -299c0 -154 -99 -274 -236 -296v-17c149 21 257 149 257 313c0 180 -130 316 -301 316c-170 0 -300 -137 -300 -316c0 -163 109 -292 256 -313zM389 -160v357h16v-357h-16z" />
    <glyph glyph-name="R" unicode="R" horiz-adv-x="593" 
d="M71 0v634h197c118 0 189 -60 189 -159s-71 -157 -189 -157h-109v-17h110c127 0 208 68 208 175s-81 175 -208 175h-198v16h198c135 0 224 -75 224 -191s-88 -191 -224 -191h-110v-17h111c146 0 243 84 243 208c0 123 -98 208 -243 208h-199v16h199
c164 0 259 -101 259 -224c0 -92 -52 -170 -145 -205l179 -271h-20l-175 266c-6 -2 -13 -4 -19 -5l171 -261h-20l-170 257l-21 -3l168 -254h-20l-166 253c-7 -1 -14 -1 -21 -1h-111v-252h-16v618h-20v-618h-16v618h-20v-618h-16zM159 334h109c109 0 173 51 173 141
c0 91 -65 143 -173 143h-109v-284z" />
    <glyph glyph-name="Racute" unicode="&#x154;" horiz-adv-x="593" 
d="M230 750l87 161h20l-91 -161h-16zM260 750l101 161h20l-105 -161h-16zM289 750l115 161h20l-119 -161h-16zM71 0v634h197c118 0 189 -60 189 -159s-71 -157 -189 -157h-109v-17h110c127 0 208 68 208 175s-81 175 -208 175h-198v16h198c135 0 224 -75 224 -191
s-88 -191 -224 -191h-110v-17h111c146 0 243 84 243 208c0 123 -98 208 -243 208h-199v16h199c164 0 259 -101 259 -224c0 -92 -52 -170 -145 -205l179 -271h-20l-175 266c-6 -2 -13 -4 -19 -5l171 -261h-20l-170 257l-21 -3l168 -254h-20l-166 253c-7 -1 -14 -1 -21 -1
h-111v-252h-16v618h-20v-618h-16v618h-20v-618h-16zM159 334h109c109 0 173 51 173 141c0 91 -65 143 -173 143h-109v-284z" />
    <glyph glyph-name="Rcaron" unicode="&#x158;" horiz-adv-x="593" 
d="M255 735l-152 177h16l144 -165l143 165h16l-151 -177h-16zM263 768l-131 144h16l115 -124l114 124h16zM263 807l-103 105h16l87 -88l86 88h16zM71 0v634h197c118 0 189 -60 189 -159s-71 -157 -189 -157h-109v-17h110c127 0 208 68 208 175s-81 175 -208 175h-198v16h198
c135 0 224 -75 224 -191s-88 -191 -224 -191h-110v-17h111c146 0 243 84 243 208c0 123 -98 208 -243 208h-199v16h199c164 0 259 -101 259 -224c0 -92 -52 -170 -145 -205l179 -271h-20l-175 266c-6 -2 -13 -4 -19 -5l171 -261h-20l-170 257l-21 -3l168 -254h-20l-166 253
c-7 -1 -14 -1 -21 -1h-111v-252h-16v618h-20v-618h-16v618h-20v-618h-16zM159 334h109c109 0 173 51 173 141c0 91 -65 143 -173 143h-109v-284z" />
    <glyph glyph-name="Rcommaaccent" unicode="&#x156;" horiz-adv-x="593" 
d="M71 0v634h197c118 0 189 -60 189 -159s-71 -157 -189 -157h-109v-17h110c127 0 208 68 208 175s-81 175 -208 175h-198v16h198c135 0 224 -75 224 -191s-88 -191 -224 -191h-110v-17h111c146 0 243 84 243 208c0 123 -98 208 -243 208h-199v16h199
c164 0 259 -101 259 -224c0 -92 -52 -170 -145 -205l179 -271h-20l-175 266c-6 -2 -13 -4 -19 -5l171 -261h-20l-170 257l-21 -3l168 -254h-20l-166 253c-7 -1 -14 -1 -21 -1h-111v-252h-16v618h-20v-618h-16v618h-20v-618h-16zM159 334h109c109 0 173 51 173 141
c0 91 -65 143 -173 143h-109v-284zM245 -224l37 78c-23 7 -39 27 -39 53c0 30 24 54 55 54c30 0 56 -24 56 -54c0 -16 -8 -35 -27 -71l-31 -60h-16l34 68c16 32 25 49 25 63c0 21 -18 39 -41 39c-22 0 -40 -17 -40 -39s18 -39 40 -39h4l4 1l-45 -93h-16zM298 -117
c-13 0 -25 10 -25 24c0 13 12 24 25 24c14 0 26 -12 26 -24c0 -13 -12 -24 -26 -24zM298 -102c7 0 9 5 9 9s-2 8 -9 8c-6 0 -10 -4 -10 -8c0 -5 4 -9 10 -9z" />
    <glyph glyph-name="S" unicode="S" horiz-adv-x="577" 
d="M293 53c-91 0 -159 38 -209 110l13 10c47 -69 109 -104 196 -104c100 0 162 46 162 112c0 74 -77 108 -165 145c-107 45 -206 91 -206 210c0 107 81 178 212 178c82 0 160 -28 210 -100l-13 -9c-45 64 -115 93 -197 93c-121 0 -196 -63 -196 -162
c0 -114 100 -154 196 -195c86 -36 175 -75 175 -161c0 -77 -73 -127 -178 -127zM293 20c-103 0 -179 43 -235 123l13 10c55 -81 129 -117 222 -117c119 0 198 58 198 148c0 96 -90 135 -184 175c-87 37 -187 75 -187 180c0 88 71 142 177 142c80 0 143 -30 183 -85l-13 -10
c-40 55 -102 79 -171 79c-97 0 -160 -48 -160 -126c0 -86 76 -124 177 -166c76 -32 194 -74 194 -189c0 -99 -87 -164 -214 -164zM293 -13c-114 0 -200 45 -262 135l13 10c57 -84 136 -129 249 -129c142 0 234 73 234 184c0 118 -103 161 -203 203c-81 34 -169 71 -169 152
c0 66 58 106 141 106c67 0 123 -26 156 -72l-13 -9c-34 46 -87 65 -143 65c-83 0 -125 -40 -125 -91c0 -68 73 -100 159 -136c101 -43 213 -89 213 -218c0 -124 -103 -200 -250 -200z" />
    <glyph glyph-name="Sacute" unicode="&#x15a;" horiz-adv-x="577" 
d="M267 750l87 161h20l-91 -161h-16zM297 750l101 161h20l-105 -161h-16zM326 750l115 161h20l-119 -161h-16zM293 53c-91 0 -159 38 -209 110l13 10c47 -69 109 -104 196 -104c100 0 162 46 162 112c0 74 -77 108 -165 145c-107 45 -206 91 -206 210c0 107 81 178 212 178
c82 0 160 -28 210 -100l-13 -9c-45 64 -115 93 -197 93c-121 0 -196 -63 -196 -162c0 -114 100 -154 196 -195c86 -36 175 -75 175 -161c0 -77 -73 -127 -178 -127zM293 20c-103 0 -179 43 -235 123l13 10c55 -81 129 -117 222 -117c119 0 198 58 198 148
c0 96 -90 135 -184 175c-87 37 -187 75 -187 180c0 88 71 142 177 142c80 0 143 -30 183 -85l-13 -10c-40 55 -102 79 -171 79c-97 0 -160 -48 -160 -126c0 -86 76 -124 177 -166c76 -32 194 -74 194 -189c0 -99 -87 -164 -214 -164zM293 -13c-114 0 -200 45 -262 135l13 10
c57 -84 136 -129 249 -129c142 0 234 73 234 184c0 118 -103 161 -203 203c-81 34 -169 71 -169 152c0 66 58 106 141 106c67 0 123 -26 156 -72l-13 -9c-34 46 -87 65 -143 65c-83 0 -125 -40 -125 -91c0 -68 73 -100 159 -136c101 -43 213 -89 213 -218
c0 -124 -103 -200 -250 -200z" />
    <glyph glyph-name="Scaron" unicode="&#x160;" horiz-adv-x="577" 
d="M292 735l-152 177h16l144 -165l143 165h16l-151 -177h-16zM300 768l-131 144h16l115 -124l114 124h16zM300 807l-103 105h16l87 -88l86 88h16zM293 53c-91 0 -159 38 -209 110l13 10c47 -69 109 -104 196 -104c100 0 162 46 162 112c0 74 -77 108 -165 145
c-107 45 -206 91 -206 210c0 107 81 178 212 178c82 0 160 -28 210 -100l-13 -9c-45 64 -115 93 -197 93c-121 0 -196 -63 -196 -162c0 -114 100 -154 196 -195c86 -36 175 -75 175 -161c0 -77 -73 -127 -178 -127zM293 20c-103 0 -179 43 -235 123l13 10
c55 -81 129 -117 222 -117c119 0 198 58 198 148c0 96 -90 135 -184 175c-87 37 -187 75 -187 180c0 88 71 142 177 142c80 0 143 -30 183 -85l-13 -10c-40 55 -102 79 -171 79c-97 0 -160 -48 -160 -126c0 -86 76 -124 177 -166c76 -32 194 -74 194 -189
c0 -99 -87 -164 -214 -164zM293 -13c-114 0 -200 45 -262 135l13 10c57 -84 136 -129 249 -129c142 0 234 73 234 184c0 118 -103 161 -203 203c-81 34 -169 71 -169 152c0 66 58 106 141 106c67 0 123 -26 156 -72l-13 -9c-34 46 -87 65 -143 65c-83 0 -125 -40 -125 -91
c0 -68 73 -100 159 -136c101 -43 213 -89 213 -218c0 -124 -103 -200 -250 -200z" />
    <glyph glyph-name="Scedilla" unicode="&#x15e;" horiz-adv-x="577" 
d="M293 53c-91 0 -159 38 -209 110l13 10c47 -69 109 -104 196 -104c100 0 162 46 162 112c0 74 -77 108 -165 145c-107 45 -206 91 -206 210c0 107 81 178 212 178c82 0 160 -28 210 -100l-13 -9c-45 64 -115 93 -197 93c-121 0 -196 -63 -196 -162
c0 -114 100 -154 196 -195c86 -36 175 -75 175 -161c0 -77 -73 -127 -178 -127zM293 20c-103 0 -179 43 -235 123l13 10c55 -81 129 -117 222 -117c119 0 198 58 198 148c0 96 -90 135 -184 175c-87 37 -187 75 -187 180c0 88 71 142 177 142c80 0 143 -30 183 -85l-13 -10
c-40 55 -102 79 -171 79c-97 0 -160 -48 -160 -126c0 -86 76 -124 177 -166c76 -32 194 -74 194 -189c0 -99 -87 -164 -214 -164zM293 -13c-114 0 -200 45 -262 135l13 10c57 -84 136 -129 249 -129c142 0 234 73 234 184c0 118 -103 161 -203 203c-81 34 -169 71 -169 152
c0 66 58 106 141 106c67 0 123 -26 156 -72l-13 -9c-34 46 -87 65 -143 65c-83 0 -125 -40 -125 -91c0 -68 73 -100 159 -136c101 -43 213 -89 213 -218c0 -124 -103 -200 -250 -200zM305 -243c-34 0 -72 9 -90 14v17c36 -10 67 -15 90 -15c63 0 112 39 112 87
c0 46 -45 81 -110 81c-14 0 -25 0 -45 -3v14c15 3 31 3 45 3c75 0 126 -40 126 -95c0 -58 -56 -103 -128 -103zM295 -217c-28 0 -62 7 -80 12v16c22 -6 54 -12 80 -12c51 0 89 27 89 63c0 32 -35 55 -89 55h-33v12c12 1 22 1 33 1c64 0 105 -26 105 -68
c0 -46 -45 -79 -105 -79zM285 -191c-20 0 -50 4 -70 10v17c15 -5 47 -11 70 -11c46 0 66 21 66 40c0 16 -21 29 -68 29h-21v14h21c52 0 84 -14 84 -43c0 -33 -34 -56 -82 -56z" />
    <glyph glyph-name="Scircumflex" unicode="&#x15c;" horiz-adv-x="577" 
d="M140 749l152 177h16l151 -177h-16l-143 165l-144 -165h-16zM169 749l131 144l130 -144h-16l-114 124l-115 -124h-16zM197 749l103 105l102 -105h-16l-86 88l-87 -88h-16zM293 53c-91 0 -159 38 -209 110l13 10c47 -69 109 -104 196 -104c100 0 162 46 162 112
c0 74 -77 108 -165 145c-107 45 -206 91 -206 210c0 107 81 178 212 178c82 0 160 -28 210 -100l-13 -9c-45 64 -115 93 -197 93c-121 0 -196 -63 -196 -162c0 -114 100 -154 196 -195c86 -36 175 -75 175 -161c0 -77 -73 -127 -178 -127zM293 20c-103 0 -179 43 -235 123
l13 10c55 -81 129 -117 222 -117c119 0 198 58 198 148c0 96 -90 135 -184 175c-87 37 -187 75 -187 180c0 88 71 142 177 142c80 0 143 -30 183 -85l-13 -10c-40 55 -102 79 -171 79c-97 0 -160 -48 -160 -126c0 -86 76 -124 177 -166c76 -32 194 -74 194 -189
c0 -99 -87 -164 -214 -164zM293 -13c-114 0 -200 45 -262 135l13 10c57 -84 136 -129 249 -129c142 0 234 73 234 184c0 118 -103 161 -203 203c-81 34 -169 71 -169 152c0 66 58 106 141 106c67 0 123 -26 156 -72l-13 -9c-34 46 -87 65 -143 65c-83 0 -125 -40 -125 -91
c0 -68 73 -100 159 -136c101 -43 213 -89 213 -218c0 -124 -103 -200 -250 -200z" />
    <glyph glyph-name="Scommaaccent" unicode="&#x218;" horiz-adv-x="577" 
d="M293 53c-91 0 -159 38 -209 110l13 10c47 -69 109 -104 196 -104c100 0 162 46 162 112c0 74 -77 108 -165 145c-107 45 -206 91 -206 210c0 107 81 178 212 178c82 0 160 -28 210 -100l-13 -9c-45 64 -115 93 -197 93c-121 0 -196 -63 -196 -162
c0 -114 100 -154 196 -195c86 -36 175 -75 175 -161c0 -77 -73 -127 -178 -127zM293 20c-103 0 -179 43 -235 123l13 10c55 -81 129 -117 222 -117c119 0 198 58 198 148c0 96 -90 135 -184 175c-87 37 -187 75 -187 180c0 88 71 142 177 142c80 0 143 -30 183 -85l-13 -10
c-40 55 -102 79 -171 79c-97 0 -160 -48 -160 -126c0 -86 76 -124 177 -166c76 -32 194 -74 194 -189c0 -99 -87 -164 -214 -164zM293 -13c-114 0 -200 45 -262 135l13 10c57 -84 136 -129 249 -129c142 0 234 73 234 184c0 118 -103 161 -203 203c-81 34 -169 71 -169 152
c0 66 58 106 141 106c67 0 123 -26 156 -72l-13 -9c-34 46 -87 65 -143 65c-83 0 -125 -40 -125 -91c0 -68 73 -100 159 -136c101 -43 213 -89 213 -218c0 -124 -103 -200 -250 -200zM243 -224l37 78c-23 7 -39 27 -39 53c0 30 24 54 55 54c30 0 56 -24 56 -54
c0 -16 -8 -35 -27 -71l-31 -60h-16l34 68c16 32 25 49 25 63c0 21 -18 39 -41 39c-22 0 -40 -17 -40 -39s18 -39 40 -39h4l4 1l-45 -93h-16zM296 -117c-13 0 -25 10 -25 24c0 13 12 24 25 24c14 0 26 -12 26 -24c0 -13 -12 -24 -26 -24zM296 -102c7 0 9 5 9 9s-2 8 -9 8
c-6 0 -10 -4 -10 -8c0 -5 4 -9 10 -9z" />
    <glyph glyph-name="T" unicode="T" horiz-adv-x="582" 
d="M23 684v16h536v-16h-536zM23 651v16h536v-16h-536zM247 0v618h-224v16h536v-16h-224v-618h-16v618h-20v-618h-16v618h-20v-618h-16z" />
    <glyph glyph-name="Tbar" unicode="&#x166;" horiz-adv-x="582" 
d="M23 700h536v-16h-536v16zM23 651v16h536v-16h-536zM23 618v16h536v-16h-224v-179h204v-16h-204v-17h204v-16h-204v-17h204v-16h-204v-357h-16v618h-20v-618h-16v618h-20v-618h-16v357h-204v16h204v17h-204v16h204v17h-204v16h204v179h-224z" />
    <glyph glyph-name="Tcaron" unicode="&#x164;" horiz-adv-x="582" 
d="M283 735l-152 177h16l144 -165l143 165h16l-151 -177h-16zM291 768l-131 144h16l115 -124l114 124h16zM291 807l-103 105h16l87 -88l86 88h16zM23 684v16h536v-16h-536zM23 651v16h536v-16h-536zM247 0v618h-224v16h536v-16h-224v-618h-16v618h-20v-618h-16v618h-20v-618
h-16z" />
    <glyph glyph-name="uni0162" unicode="&#x162;" horiz-adv-x="582" 
d="M23 684v16h536v-16h-536zM23 651v16h536v-16h-536zM247 0v618h-224v16h536v-16h-224v-618h-16v618h-20v-618h-16v618h-20v-618h-16zM299 -243c-34 0 -72 9 -90 14v17c36 -10 67 -15 90 -15c63 0 112 39 112 87c0 46 -45 81 -110 81c-14 0 -25 0 -45 -3v14c15 3 31 3 45 3
c75 0 126 -40 126 -95c0 -58 -56 -103 -128 -103zM289 -217c-28 0 -62 7 -80 12v16c22 -6 54 -12 80 -12c51 0 89 27 89 63c0 32 -35 55 -89 55h-33v12c12 1 22 1 33 1c64 0 105 -26 105 -68c0 -46 -45 -79 -105 -79zM279 -191c-20 0 -50 4 -70 10v17c15 -5 47 -11 70 -11
c46 0 66 21 66 40c0 16 -21 29 -68 29h-21v14h21c52 0 84 -14 84 -43c0 -33 -34 -56 -82 -56z" />
    <glyph glyph-name="uni021A" unicode="&#x21a;" horiz-adv-x="582" 
d="M23 684v16h536v-16h-536zM23 651v16h536v-16h-536zM247 0v618h-224v16h536v-16h-224v-618h-16v618h-20v-618h-16v618h-20v-618h-16zM237 -224l37 78c-23 7 -39 27 -39 53c0 30 24 54 55 54c30 0 56 -24 56 -54c0 -16 -8 -35 -27 -71l-31 -60h-16l34 68c16 32 25 49 25 63
c0 21 -18 39 -41 39c-22 0 -40 -17 -40 -39s18 -39 40 -39h4l4 1l-45 -93h-16zM290 -117c-13 0 -25 10 -25 24c0 13 12 24 25 24c14 0 26 -12 26 -24c0 -13 -12 -24 -26 -24zM290 -102c7 0 9 5 9 9s-2 8 -9 8c-6 0 -10 -4 -10 -8c0 -5 4 -9 10 -9z" />
    <glyph glyph-name="U" unicode="U" horiz-adv-x="688" 
d="M344 -15c-161 0 -273 102 -273 273v442h16v-442c0 -157 100 -257 257 -257s257 100 257 257v442h16v-442c0 -171 -112 -273 -273 -273zM344 18c-145 0 -237 94 -237 242v440h16v-440c0 -140 84 -226 221 -226c136 0 221 87 221 226v440h16v-440
c0 -148 -92 -242 -237 -242zM344 51c-125 0 -201 80 -201 210v439h16v-439c0 -123 71 -194 185 -194s185 71 185 194v439h16v-439c0 -130 -76 -210 -201 -210z" />
    <glyph glyph-name="Uacute" unicode="&#xda;" horiz-adv-x="688" 
d="M311 750l87 161h20l-91 -161h-16zM341 750l101 161h20l-105 -161h-16zM370 750l115 161h20l-119 -161h-16zM344 -15c-161 0 -273 102 -273 273v442h16v-442c0 -157 100 -257 257 -257s257 100 257 257v442h16v-442c0 -171 -112 -273 -273 -273zM344 18
c-145 0 -237 94 -237 242v440h16v-440c0 -140 84 -226 221 -226c136 0 221 87 221 226v440h16v-440c0 -148 -92 -242 -237 -242zM344 51c-125 0 -201 80 -201 210v439h16v-439c0 -123 71 -194 185 -194s185 71 185 194v439h16v-439c0 -130 -76 -210 -201 -210z" />
    <glyph glyph-name="Ubreve" unicode="&#x16c;" horiz-adv-x="688" 
d="M343 749c-93 0 -164 85 -164 163h16c0 -76 71 -147 148 -147c78 0 149 71 149 147h16c0 -78 -71 -163 -165 -163zM343 779c-69 0 -134 64 -134 133h16c0 -60 58 -117 118 -117c61 0 119 57 119 117h16c0 -69 -65 -133 -135 -133zM343 811c-51 0 -102 50 -102 101h16
c0 -42 44 -85 86 -85c43 0 87 43 87 85h16c0 -51 -51 -101 -103 -101zM344 -15c-161 0 -273 102 -273 273v442h16v-442c0 -157 100 -257 257 -257s257 100 257 257v442h16v-442c0 -171 -112 -273 -273 -273zM344 18c-145 0 -237 94 -237 242v440h16v-440
c0 -140 84 -226 221 -226c136 0 221 87 221 226v440h16v-440c0 -148 -92 -242 -237 -242zM344 51c-125 0 -201 80 -201 210v439h16v-439c0 -123 71 -194 185 -194s185 71 185 194v439h16v-439c0 -130 -76 -210 -201 -210z" />
    <glyph glyph-name="Ucircumflex" unicode="&#xdb;" horiz-adv-x="688" 
d="M184 749l152 177h16l151 -177h-16l-143 165l-144 -165h-16zM213 749l131 144l130 -144h-16l-114 124l-115 -124h-16zM241 749l103 105l102 -105h-16l-86 88l-87 -88h-16zM344 -15c-161 0 -273 102 -273 273v442h16v-442c0 -157 100 -257 257 -257s257 100 257 257v442h16
v-442c0 -171 -112 -273 -273 -273zM344 18c-145 0 -237 94 -237 242v440h16v-440c0 -140 84 -226 221 -226c136 0 221 87 221 226v440h16v-440c0 -148 -92 -242 -237 -242zM344 51c-125 0 -201 80 -201 210v439h16v-439c0 -123 71 -194 185 -194s185 71 185 194v439h16v-439
c0 -130 -76 -210 -201 -210z" />
    <glyph glyph-name="Udieresis" unicode="&#xdc;" horiz-adv-x="688" 
d="M259 778c-28 0 -52 24 -52 52c0 29 24 52 52 52c29 0 52 -23 52 -52c0 -28 -23 -52 -52 -52zM430 778c-28 0 -52 24 -52 52c0 29 24 52 52 52c29 0 52 -23 52 -52c0 -28 -23 -52 -52 -52zM259 794c20 0 36 16 36 36s-16 36 -36 36s-36 -16 -36 -36c0 -19 17 -36 36 -36z
M430 794c20 0 36 16 36 36s-16 36 -36 36s-36 -16 -36 -36c0 -19 17 -36 36 -36zM259 810c-10 0 -20 10 -20 20c0 11 9 20 20 20s20 -9 20 -20s-9 -20 -20 -20zM430 810c-10 0 -20 10 -20 20c0 11 9 20 20 20s20 -9 20 -20s-9 -20 -20 -20zM259 824c3 0 6 3 6 6s-3 6 -6 6
s-6 -3 -6 -6s3 -6 6 -6zM430 824c3 0 6 3 6 6s-3 6 -6 6s-6 -3 -6 -6s3 -6 6 -6zM344 -15c-161 0 -273 102 -273 273v442h16v-442c0 -157 100 -257 257 -257s257 100 257 257v442h16v-442c0 -171 -112 -273 -273 -273zM344 18c-145 0 -237 94 -237 242v440h16v-440
c0 -140 84 -226 221 -226c136 0 221 87 221 226v440h16v-440c0 -148 -92 -242 -237 -242zM344 51c-125 0 -201 80 -201 210v439h16v-439c0 -123 71 -194 185 -194s185 71 185 194v439h16v-439c0 -130 -76 -210 -201 -210z" />
    <glyph glyph-name="Ugrave" unicode="&#xd9;" horiz-adv-x="688" 
d="M306 750l-119 161h20l115 -161h-16zM335 750l-105 161h20l101 -161h-16zM365 750l-91 161h20l87 -161h-16zM344 -15c-161 0 -273 102 -273 273v442h16v-442c0 -157 100 -257 257 -257s257 100 257 257v442h16v-442c0 -171 -112 -273 -273 -273zM344 18
c-145 0 -237 94 -237 242v440h16v-440c0 -140 84 -226 221 -226c136 0 221 87 221 226v440h16v-440c0 -148 -92 -242 -237 -242zM344 51c-125 0 -201 80 -201 210v439h16v-439c0 -123 71 -194 185 -194s185 71 185 194v439h16v-439c0 -130 -76 -210 -201 -210z" />
    <glyph glyph-name="Uhungarumlaut" unicode="&#x170;" horiz-adv-x="688" 
d="M234 750l77 161h20l-81 -161h-16zM264 750l91 161h20l-95 -161h-16zM293 750l105 161h20l-109 -161h-16zM403 750l77 161h20l-81 -161h-16zM433 750l91 161h20l-95 -161h-16zM462 750l105 161h20l-109 -161h-16zM344 -15c-161 0 -273 102 -273 273v442h16v-442
c0 -157 100 -257 257 -257s257 100 257 257v442h16v-442c0 -171 -112 -273 -273 -273zM344 18c-145 0 -237 94 -237 242v440h16v-440c0 -140 84 -226 221 -226c136 0 221 87 221 226v440h16v-440c0 -148 -92 -242 -237 -242zM344 51c-125 0 -201 80 -201 210v439h16v-439
c0 -123 71 -194 185 -194s185 71 185 194v439h16v-439c0 -130 -76 -210 -201 -210z" />
    <glyph glyph-name="Umacron" unicode="&#x16a;" horiz-adv-x="688" 
d="M169 852v16h351v-16h-351zM169 821v16h351v-16h-351zM169 790v16h351v-16h-351zM344 -15c-161 0 -273 102 -273 273v442h16v-442c0 -157 100 -257 257 -257s257 100 257 257v442h16v-442c0 -171 -112 -273 -273 -273zM344 18c-145 0 -237 94 -237 242v440h16v-440
c0 -140 84 -226 221 -226c136 0 221 87 221 226v440h16v-440c0 -148 -92 -242 -237 -242zM344 51c-125 0 -201 80 -201 210v439h16v-439c0 -123 71 -194 185 -194s185 71 185 194v439h16v-439c0 -130 -76 -210 -201 -210z" />
    <glyph glyph-name="Uogonek" unicode="&#x172;" horiz-adv-x="688" 
d="M601 700h16v-442c0 -104 -41 -182 -109 -228l-71 -99c-6 -8 -13 -18 -13 -31c0 -17 14 -32 39 -32c12 0 27 3 47 10v-17c-19 -6 -34 -9 -47 -9c-32 0 -55 20 -55 48c0 18 10 32 16 40l53 73c-6 -3 -12 -5 -18 -8l-48 -62c-15 -19 -24 -35 -24 -52c0 -30 26 -54 63 -54
c19 0 36 6 60 15v-17c-19 -7 -39 -14 -60 -14c-45 0 -79 31 -79 70c0 22 11 41 28 62l35 44c-5 -2 -10 -3 -15 -4l-32 -38c-24 -29 -34 -47 -34 -70c0 -43 36 -76 87 -76c15 0 36 3 70 18v-17c-13 -6 -41 -17 -72 -17c-59 0 -101 41 -101 92c0 33 18 57 39 81l20 23
c-17 -3 -34 -4 -52 -4c-161 0 -273 102 -273 273v442h16v-442c0 -157 100 -257 257 -257s257 100 257 257v442zM344 18c-145 0 -237 94 -237 242v440h16v-440c0 -140 84 -226 221 -226c136 0 221 87 221 226v440h16v-440c0 -148 -92 -242 -237 -242zM344 51
c-125 0 -201 80 -201 210v439h16v-439c0 -123 71 -194 185 -194s185 71 185 194v439h16v-439c0 -130 -76 -210 -201 -210z" />
    <glyph glyph-name="Uring" unicode="&#x16e;" horiz-adv-x="688" 
d="M345 739c-52 0 -93 41 -93 92c0 49 41 91 93 91c50 0 93 -42 93 -91c0 -51 -43 -92 -93 -92zM345 755c42 0 77 35 77 76c0 40 -36 75 -77 75c-42 0 -77 -34 -77 -75c0 -42 34 -76 77 -76zM345 771c-34 0 -61 27 -61 60c0 32 28 59 61 59c32 0 61 -28 61 -59
c0 -32 -28 -60 -61 -60zM345 787c24 0 45 21 45 44c0 22 -22 43 -45 43c-24 0 -45 -20 -45 -43c0 -24 20 -44 45 -44zM344 -15c-161 0 -273 102 -273 273v442h16v-442c0 -157 100 -257 257 -257s257 100 257 257v442h16v-442c0 -171 -112 -273 -273 -273zM344 18
c-145 0 -237 94 -237 242v440h16v-440c0 -140 84 -226 221 -226c136 0 221 87 221 226v440h16v-440c0 -148 -92 -242 -237 -242zM344 51c-125 0 -201 80 -201 210v439h16v-439c0 -123 71 -194 185 -194s185 71 185 194v439h16v-439c0 -130 -76 -210 -201 -210z" />
    <glyph glyph-name="Utilde" unicode="&#x168;" horiz-adv-x="688" 
d="M157 760c0 77 30 143 110 143c43 0 72 -22 99 -41c21 -15 37 -27 54 -27c37 0 47 35 48 66h14c-2 -51 -23 -82 -62 -82c-17 0 -33 9 -63 30c-27 19 -52 38 -90 38c-61 0 -96 -45 -96 -127h-14zM182 760c0 70 31 112 86 112c32 0 57 -17 81 -34s45 -34 72 -34
c46 0 72 34 72 97h14c0 -71 -31 -113 -86 -113c-33 0 -57 20 -81 36s-44 32 -72 32c-46 0 -72 -35 -72 -96h-14zM422 757c-43 0 -73 24 -100 42c-21 14 -35 26 -52 26c-36 0 -48 -32 -48 -65h-14c0 49 22 81 62 81c22 0 40 -14 61 -29c27 -19 53 -39 91 -39
c61 0 97 45 97 128h14c0 -77 -30 -144 -111 -144zM344 -15c-161 0 -273 102 -273 273v442h16v-442c0 -157 100 -257 257 -257s257 100 257 257v442h16v-442c0 -171 -112 -273 -273 -273zM344 18c-145 0 -237 94 -237 242v440h16v-440c0 -140 84 -226 221 -226
c136 0 221 87 221 226v440h16v-440c0 -148 -92 -242 -237 -242zM344 51c-125 0 -201 80 -201 210v439h16v-439c0 -123 71 -194 185 -194s185 71 185 194v439h16v-439c0 -130 -76 -210 -201 -210z" />
    <glyph glyph-name="V" unicode="V" horiz-adv-x="642" 
d="M312 -20l-302 720h18l301 -720h-17zM339 2l-291 698h18l282 -677zM358 44l-271 656h18l216 -527l216 527h18l-225 -547l9 -23l237 570h18l-246 -592l9 -22l257 614h18z" />
    <glyph glyph-name="W" unicode="W" horiz-adv-x="982" 
d="M272 -20l-262 720h18l261 -720h-17zM299 2l-251 698h18l242 -677zM688 -20l-197 507l-173 -443l-231 656h18l180 -517l195 517h18l-205 -539l9 -26l209 544l9 -23l-210 -544l8 -23l212 540l168 -446l180 517h18l-190 -539l9 -24l202 563h18l-211 -587l9 -24l222 611h18
l-239 -656l-205 540l-10 -27l206 -538l-8 -23l-207 539l-10 -26l206 -529h-18z" />
    <glyph glyph-name="Wacute" unicode="&#x1e82;" horiz-adv-x="982" 
d="M458 750l87 161h20l-91 -161h-16zM488 750l101 161h20l-105 -161h-16zM517 750l115 161h20l-119 -161h-16zM272 -20l-262 720h18l261 -720h-17zM299 2l-251 698h18l242 -677zM688 -20l-197 507l-173 -443l-231 656h18l180 -517l195 517h18l-205 -539l9 -26l209 544l9 -23
l-210 -544l8 -23l212 540l168 -446l180 517h18l-190 -539l9 -24l202 563h18l-211 -587l9 -24l222 611h18l-239 -656l-205 540l-10 -27l206 -538l-8 -23l-207 539l-10 -26l206 -529h-18z" />
    <glyph glyph-name="Wcircumflex" unicode="&#x174;" horiz-adv-x="982" 
d="M331 749l152 177h16l151 -177h-16l-143 165l-144 -165h-16zM360 749l131 144l130 -144h-16l-114 124l-115 -124h-16zM388 749l103 105l102 -105h-16l-86 88l-87 -88h-16zM272 -20l-262 720h18l261 -720h-17zM299 2l-251 698h18l242 -677zM688 -20l-197 507l-173 -443
l-231 656h18l180 -517l195 517h18l-205 -539l9 -26l209 544l9 -23l-210 -544l8 -23l212 540l168 -446l180 517h18l-190 -539l9 -24l202 563h18l-211 -587l9 -24l222 611h18l-239 -656l-205 540l-10 -27l206 -538l-8 -23l-207 539l-10 -26l206 -529h-18z" />
    <glyph glyph-name="Wdieresis" unicode="&#x1e84;" horiz-adv-x="982" 
d="M406 778c-28 0 -52 24 -52 52c0 29 24 52 52 52c29 0 52 -23 52 -52c0 -28 -23 -52 -52 -52zM577 778c-28 0 -52 24 -52 52c0 29 24 52 52 52c29 0 52 -23 52 -52c0 -28 -23 -52 -52 -52zM406 794c20 0 36 16 36 36s-16 36 -36 36s-36 -16 -36 -36c0 -19 17 -36 36 -36z
M577 794c20 0 36 16 36 36s-16 36 -36 36s-36 -16 -36 -36c0 -19 17 -36 36 -36zM406 810c-10 0 -20 10 -20 20c0 11 9 20 20 20s20 -9 20 -20s-9 -20 -20 -20zM577 810c-10 0 -20 10 -20 20c0 11 9 20 20 20s20 -9 20 -20s-9 -20 -20 -20zM406 824c3 0 6 3 6 6s-3 6 -6 6
s-6 -3 -6 -6s3 -6 6 -6zM577 824c3 0 6 3 6 6s-3 6 -6 6s-6 -3 -6 -6s3 -6 6 -6zM272 -20l-262 720h18l261 -720h-17zM299 2l-251 698h18l242 -677zM688 -20l-197 507l-173 -443l-231 656h18l180 -517l195 517h18l-205 -539l9 -26l209 544l9 -23l-210 -544l8 -23l212 540
l168 -446l180 517h18l-190 -539l9 -24l202 563h18l-211 -587l9 -24l222 611h18l-239 -656l-205 540l-10 -27l206 -538l-8 -23l-207 539l-10 -26l206 -529h-18z" />
    <glyph glyph-name="Wgrave" unicode="&#x1e80;" horiz-adv-x="982" 
d="M453 750l-119 161h20l115 -161h-16zM482 750l-105 161h20l101 -161h-16zM512 750l-91 161h20l87 -161h-16zM272 -20l-262 720h18l261 -720h-17zM299 2l-251 698h18l242 -677zM688 -20l-197 507l-173 -443l-231 656h18l180 -517l195 517h18l-205 -539l9 -26l209 544l9 -23
l-210 -544l8 -23l212 540l168 -446l180 517h18l-190 -539l9 -24l202 563h18l-211 -587l9 -24l222 611h18l-239 -656l-205 540l-10 -27l206 -538l-8 -23l-207 539l-10 -26l206 -529h-18z" />
    <glyph glyph-name="X" unicode="X" horiz-adv-x="627" 
d="M17 0l242 352l-240 348h21l480 -700h-18l-189 275l-190 -275h-18l198 288l-12 18l-211 -306h-19l220 320l-12 18l-233 -338h-19zM545 0l-481 700h20l480 -700h-19zM589 0l-481 700h19l185 -270l186 270h19l-195 -284l12 -18l207 302h20l-217 -316l12 -18l229 334h21
l-240 -348l242 -352h-19z" />
    <glyph glyph-name="uni1E8A" unicode="&#x1e8a;" horiz-adv-x="627" 
d="M313 778c-28 0 -52 24 -52 52c0 29 24 52 52 52c29 0 52 -23 52 -52c0 -28 -23 -52 -52 -52zM313 794c20 0 36 16 36 36s-16 36 -36 36s-36 -16 -36 -36c0 -19 17 -36 36 -36zM313 810c-10 0 -20 10 -20 20c0 11 9 20 20 20s20 -9 20 -20s-9 -20 -20 -20zM313 824
c3 0 6 3 6 6s-3 6 -6 6s-6 -3 -6 -6s3 -6 6 -6zM17 0l242 352l-240 348h21l480 -700h-18l-189 275l-190 -275h-18l198 288l-12 18l-211 -306h-19l220 320l-12 18l-233 -338h-19zM545 0l-481 700h20l480 -700h-19zM589 0l-481 700h19l185 -270l186 270h19l-195 -284l12 -18
l207 302h20l-217 -316l12 -18l229 334h21l-240 -348l242 -352h-19z" />
    <glyph glyph-name="Y" unicode="Y" horiz-adv-x="613" 
d="M263 0v272l-253 428h19l250 -425v-275h-16zM299 0v282l-246 418h19l243 -414v-286h-16zM335 0v292l-240 408h19l193 -329l193 329h19l-203 -344l12 -21l214 365h19l-224 -380l11 -19l237 399h19l-253 -424v-276h-16z" />
    <glyph glyph-name="Yacute" unicode="&#xdd;" horiz-adv-x="613" 
d="M274 750l87 161h20l-91 -161h-16zM304 750l101 161h20l-105 -161h-16zM333 750l115 161h20l-119 -161h-16zM263 0v272l-253 428h19l250 -425v-275h-16zM299 0v282l-246 418h19l243 -414v-286h-16zM335 0v292l-240 408h19l193 -329l193 329h19l-203 -344l12 -21l214 365
h19l-224 -380l11 -19l237 399h19l-253 -424v-276h-16z" />
    <glyph glyph-name="Ycircumflex" unicode="&#x176;" horiz-adv-x="613" 
d="M147 749l152 177h16l151 -177h-16l-143 165l-144 -165h-16zM176 749l131 144l130 -144h-16l-114 124l-115 -124h-16zM204 749l103 105l102 -105h-16l-86 88l-87 -88h-16zM263 0v272l-253 428h19l250 -425v-275h-16zM299 0v282l-246 418h19l243 -414v-286h-16zM335 0v292
l-240 408h19l193 -329l193 329h19l-203 -344l12 -21l214 365h19l-224 -380l11 -19l237 399h19l-253 -424v-276h-16z" />
    <glyph glyph-name="Ydieresis" unicode="&#x178;" horiz-adv-x="613" 
d="M222 778c-28 0 -52 24 -52 52c0 29 24 52 52 52c29 0 52 -23 52 -52c0 -28 -23 -52 -52 -52zM393 778c-28 0 -52 24 -52 52c0 29 24 52 52 52c29 0 52 -23 52 -52c0 -28 -23 -52 -52 -52zM222 794c20 0 36 16 36 36s-16 36 -36 36s-36 -16 -36 -36c0 -19 17 -36 36 -36z
M393 794c20 0 36 16 36 36s-16 36 -36 36s-36 -16 -36 -36c0 -19 17 -36 36 -36zM222 810c-10 0 -20 10 -20 20c0 11 9 20 20 20s20 -9 20 -20s-9 -20 -20 -20zM393 810c-10 0 -20 10 -20 20c0 11 9 20 20 20s20 -9 20 -20s-9 -20 -20 -20zM222 824c3 0 6 3 6 6s-3 6 -6 6
s-6 -3 -6 -6s3 -6 6 -6zM393 824c3 0 6 3 6 6s-3 6 -6 6s-6 -3 -6 -6s3 -6 6 -6zM263 0v272l-253 428h19l250 -425v-275h-16zM299 0v282l-246 418h19l243 -414v-286h-16zM335 0v292l-240 408h19l193 -329l193 329h19l-203 -344l12 -21l214 365h19l-224 -380l11 -19l237 399
h19l-253 -424v-276h-16z" />
    <glyph glyph-name="Ygrave" unicode="&#x1ef2;" horiz-adv-x="613" 
d="M269 750l-119 161h20l115 -161h-16zM298 750l-105 161h20l101 -161h-16zM328 750l-91 161h20l87 -161h-16zM263 0v272l-253 428h19l250 -425v-275h-16zM299 0v282l-246 418h19l243 -414v-286h-16zM335 0v292l-240 408h19l193 -329l193 329h19l-203 -344l12 -21l214 365
h19l-224 -380l11 -19l237 399h19l-253 -424v-276h-16z" />
    <glyph glyph-name="Z" unicode="Z" horiz-adv-x="607" 
d="M51 0v10l358 608h-309v16h318l10 17h-328v16h338l10 17h-348v16h375l-412 -700h-12zM87 0l411 700h19l-412 -700h-18zM129 0l411 700h15v-8l-361 -610h351v-16h-360l-10 -17h370v-16h-379l-11 -17h390v-16h-416z" />
    <glyph glyph-name="Zacute" unicode="&#x179;" horiz-adv-x="607" 
d="M286 750l87 161h20l-91 -161h-16zM316 750l101 161h20l-105 -161h-16zM345 750l115 161h20l-119 -161h-16zM51 0v10l358 608h-309v16h318l10 17h-328v16h338l10 17h-348v16h375l-412 -700h-12zM87 0l411 700h19l-412 -700h-18zM129 0l411 700h15v-8l-361 -610h351v-16
h-360l-10 -17h370v-16h-379l-11 -17h390v-16h-416z" />
    <glyph glyph-name="Zcaron" unicode="&#x17d;" horiz-adv-x="607" 
d="M311 735l-152 177h16l144 -165l143 165h16l-151 -177h-16zM319 768l-131 144h16l115 -124l114 124h16zM319 807l-103 105h16l87 -88l86 88h16zM51 0v10l358 608h-309v16h318l10 17h-328v16h338l10 17h-348v16h375l-412 -700h-12zM87 0l411 700h19l-412 -700h-18zM129 0
l411 700h15v-8l-361 -610h351v-16h-360l-10 -17h370v-16h-379l-11 -17h390v-16h-416z" />
    <glyph glyph-name="Zdotaccent" unicode="&#x17b;" horiz-adv-x="607" 
d="M319 778c-28 0 -52 24 -52 52c0 29 24 52 52 52c29 0 52 -23 52 -52c0 -28 -23 -52 -52 -52zM319 794c20 0 36 16 36 36s-16 36 -36 36s-36 -16 -36 -36c0 -19 17 -36 36 -36zM319 810c-10 0 -20 10 -20 20c0 11 9 20 20 20s20 -9 20 -20s-9 -20 -20 -20zM319 824
c3 0 6 3 6 6s-3 6 -6 6s-6 -3 -6 -6s3 -6 6 -6zM51 0v10l358 608h-309v16h318l10 17h-328v16h338l10 17h-348v16h375l-412 -700h-12zM87 0l411 700h19l-412 -700h-18zM129 0l411 700h15v-8l-361 -610h351v-16h-360l-10 -17h370v-16h-379l-11 -17h390v-16h-416z" />
    <glyph glyph-name="a" unicode="a" horiz-adv-x="662" 
d="M634 0l-311 720h17l312 -720h-18zM596 0l-292 677l9 21l301 -698h-18zM10 0l284 656l281 -656h-18l-59 138h-334l-59 -138h-18l236 549l-10 23l-247 -572h-18l256 593l-9 21l-267 -614h-18zM198 218h266l-133 311zM185 186h293l-7 16h-280zM171 154h320l-7 16h-306z" />
    <glyph glyph-name="aacute" unicode="&#xe1;" horiz-adv-x="662" 
d="M298 749l87 161h20l-91 -161h-16zM328 749l101 161h20l-105 -161h-16zM357 749l115 161h20l-119 -161h-16zM634 0l-311 720h17l312 -720h-18zM596 0l-292 677l9 21l301 -698h-18zM10 0l284 656l281 -656h-18l-59 138h-334l-59 -138h-18l236 549l-10 23l-247 -572h-18
l256 593l-9 21l-267 -614h-18zM198 218h266l-133 311zM185 186h293l-7 16h-280zM171 154h320l-7 16h-306z" />
    <glyph glyph-name="abreve" unicode="&#x103;" horiz-adv-x="662" 
d="M330 748c-93 0 -164 85 -164 163h16c0 -76 71 -147 148 -147c78 0 149 71 149 147h16c0 -78 -71 -163 -165 -163zM330 778c-69 0 -134 64 -134 133h16c0 -60 58 -117 118 -117c61 0 119 57 119 117h16c0 -69 -65 -133 -135 -133zM330 810c-51 0 -102 50 -102 101h16
c0 -42 44 -85 86 -85c43 0 87 43 87 85h16c0 -51 -51 -101 -103 -101zM634 0l-311 720h17l312 -720h-18zM596 0l-292 677l9 21l301 -698h-18zM10 0l284 656l281 -656h-18l-59 138h-334l-59 -138h-18l236 549l-10 23l-247 -572h-18l256 593l-9 21l-267 -614h-18zM198 218h266
l-133 311zM185 186h293l-7 16h-280zM171 154h320l-7 16h-306z" />
    <glyph glyph-name="acircumflex" unicode="&#xe2;" horiz-adv-x="662" 
d="M171 748l152 177h16l151 -177h-16l-143 165l-144 -165h-16zM200 748l131 144l130 -144h-16l-114 124l-115 -124h-16zM228 748l103 105l102 -105h-16l-86 88l-87 -88h-16zM634 0l-311 720h17l312 -720h-18zM596 0l-292 677l9 21l301 -698h-18zM10 0l284 656l281 -656h-18
l-59 138h-334l-59 -138h-18l236 549l-10 23l-247 -572h-18l256 593l-9 21l-267 -614h-18zM198 218h266l-133 311zM185 186h293l-7 16h-280zM171 154h320l-7 16h-306z" />
    <glyph glyph-name="adieresis" unicode="&#xe4;" horiz-adv-x="662" 
d="M246 777c-28 0 -52 24 -52 52c0 29 24 52 52 52c29 0 52 -23 52 -52c0 -28 -23 -52 -52 -52zM417 777c-28 0 -52 24 -52 52c0 29 24 52 52 52c29 0 52 -23 52 -52c0 -28 -23 -52 -52 -52zM246 793c20 0 36 16 36 36s-16 36 -36 36s-36 -16 -36 -36c0 -19 17 -36 36 -36z
M417 793c20 0 36 16 36 36s-16 36 -36 36s-36 -16 -36 -36c0 -19 17 -36 36 -36zM246 809c-10 0 -20 10 -20 20c0 11 9 20 20 20s20 -9 20 -20s-9 -20 -20 -20zM417 809c-10 0 -20 10 -20 20c0 11 9 20 20 20s20 -9 20 -20s-9 -20 -20 -20zM246 823c3 0 6 3 6 6s-3 6 -6 6
s-6 -3 -6 -6s3 -6 6 -6zM417 823c3 0 6 3 6 6s-3 6 -6 6s-6 -3 -6 -6s3 -6 6 -6zM634 0l-311 720h17l312 -720h-18zM596 0l-292 677l9 21l301 -698h-18zM10 0l284 656l281 -656h-18l-59 138h-334l-59 -138h-18l236 549l-10 23l-247 -572h-18l256 593l-9 21l-267 -614h-18z
M198 218h266l-133 311zM185 186h293l-7 16h-280zM171 154h320l-7 16h-306z" />
    <glyph glyph-name="agrave" unicode="&#xe0;" horiz-adv-x="662" 
d="M293 749l-119 161h20l115 -161h-16zM322 749l-105 161h20l101 -161h-16zM352 749l-91 161h20l87 -161h-16zM634 0l-311 720h17l312 -720h-18zM596 0l-292 677l9 21l301 -698h-18zM10 0l284 656l281 -656h-18l-59 138h-334l-59 -138h-18l236 549l-10 23l-247 -572h-18
l256 593l-9 21l-267 -614h-18zM198 218h266l-133 311zM185 186h293l-7 16h-280zM171 154h320l-7 16h-306z" />
    <glyph glyph-name="amacron" unicode="&#x101;" horiz-adv-x="662" 
d="M156 851v16h351v-16h-351zM156 820v16h351v-16h-351zM156 789v16h351v-16h-351zM634 0l-311 720h17l312 -720h-18zM596 0l-292 677l9 21l301 -698h-18zM10 0l284 656l281 -656h-18l-59 138h-334l-59 -138h-18l236 549l-10 23l-247 -572h-18l256 593l-9 21l-267 -614h-18z
M198 218h266l-133 311zM185 186h293l-7 16h-280zM171 154h320l-7 16h-306z" />
    <glyph glyph-name="aogonek" unicode="&#x105;" horiz-adv-x="662" 
d="M558 -131c0 -17 14 -32 39 -32c12 0 27 3 47 10v-17c-19 -6 -34 -9 -47 -9c-32 0 -55 20 -55 48c0 18 10 32 16 40l76 91l-311 720h17l312 -720l-81 -100c-6 -8 -13 -18 -13 -31zM521 -141c0 -29 26 -53 63 -53c19 0 36 6 60 15v-17c-19 -7 -39 -14 -60 -14
c-45 0 -79 31 -79 69c0 23 10 42 27 63l64 78l-292 677l9 21l301 -698l-70 -88c-15 -19 -23 -35 -23 -53zM487 -144c0 -46 36 -78 87 -78c15 0 36 3 70 18v-17c-13 -6 -41 -17 -72 -17c-60 0 -101 41 -101 93c0 30 11 53 33 80l53 65l-59 138h-334l-59 -138h-18l236 549
l-10 23l-247 -572h-18l256 593l-9 21l-267 -614h-18l284 656l281 -656l-60 -76c-26 -33 -28 -51 -28 -68zM331 529l-133 -311h266zM191 202l-6 -16h293l-7 16h-280zM171 154h320l-7 16h-306z" />
    <glyph glyph-name="aring" unicode="&#xe5;" horiz-adv-x="662" 
d="M332 738c-52 0 -93 41 -93 92c0 49 41 91 93 91c50 0 93 -42 93 -91c0 -51 -43 -92 -93 -92zM332 754c42 0 77 35 77 76c0 40 -36 75 -77 75c-42 0 -77 -34 -77 -75c0 -42 34 -76 77 -76zM332 770c-34 0 -61 27 -61 60c0 32 28 59 61 59c32 0 61 -28 61 -59
c0 -32 -28 -60 -61 -60zM332 786c24 0 45 21 45 44c0 22 -22 43 -45 43c-24 0 -45 -20 -45 -43c0 -24 20 -44 45 -44zM634 0l-311 720h17l312 -720h-18zM596 0l-292 677l9 21l301 -698h-18zM10 0l284 656l281 -656h-18l-59 138h-334l-59 -138h-18l236 549l-10 23l-247 -572
h-18l256 593l-9 21l-267 -614h-18zM198 218h266l-133 311zM185 186h293l-7 16h-280zM171 154h320l-7 16h-306z" />
    <glyph glyph-name="atilde" unicode="&#xe3;" horiz-adv-x="662" 
d="M144 759c0 77 30 143 110 143c43 0 72 -22 99 -41c21 -15 37 -27 54 -27c37 0 47 35 48 66h14c-2 -51 -23 -82 -62 -82c-17 0 -33 9 -63 30c-27 19 -52 38 -90 38c-61 0 -96 -45 -96 -127h-14zM169 759c0 70 31 112 86 112c32 0 57 -17 81 -34s45 -34 72 -34
c46 0 72 34 72 97h14c0 -71 -31 -113 -86 -113c-33 0 -57 20 -81 36s-44 32 -72 32c-46 0 -72 -35 -72 -96h-14zM409 756c-43 0 -73 24 -100 42c-21 14 -35 26 -52 26c-36 0 -48 -32 -48 -65h-14c0 49 22 81 62 81c22 0 40 -14 61 -29c27 -19 53 -39 91 -39
c61 0 97 45 97 128h14c0 -77 -30 -144 -111 -144zM634 0l-311 720h17l312 -720h-18zM596 0l-292 677l9 21l301 -698h-18zM10 0l284 656l281 -656h-18l-59 138h-334l-59 -138h-18l236 549l-10 23l-247 -572h-18l256 593l-9 21l-267 -614h-18zM198 218h266l-133 311zM185 186
h293l-7 16h-280zM171 154h320l-7 16h-306z" />
    <glyph glyph-name="ae" unicode="&#xe6;" horiz-adv-x="968" 
d="M8 0l460 700h20v-700h-16v139h-267l-91 -139h-20l378 574v36l-401 -610h-20l421 639v38l-444 -677h-20zM508 0v700h16v-700h-16zM544 0v700h371v-16h-355v-17h355v-16h-355v-17h355v-16h-355v-241h315v-16h-315v-17h315v-16h-315v-17h315v-16h-315v-213h365v-16h-365v-17
h365v-16h-365v-17h365v-16h-381zM259 221h213v323zM238 188h234v17h-223zM216 155h256v17h-245z" />
    <glyph glyph-name="b" unicode="b" horiz-adv-x="599" 
d="M71 0v634h212c98 0 153 -41 153 -117c0 -54 -27 -92 -75 -110c9 -2 18 -3 26 -5c43 24 69 65 69 117c0 81 -66 132 -172 132h-213v16h213c115 0 188 -58 188 -148c0 -52 -23 -95 -64 -123c7 -2 13 -4 19 -7c41 32 65 78 65 131c0 96 -84 164 -207 164h-214v16h214
c143 0 223 -84 223 -180c0 -50 -23 -102 -64 -138c74 -37 114 -106 114 -181c0 -112 -88 -201 -245 -201h-170v618h-20v-618h-16v618h-20v-618h-16zM159 410h124c88 0 137 39 137 107c0 67 -49 101 -137 101h-124v-208zM159 16h154c139 0 229 74 229 185
c0 113 -94 193 -229 193h-154v-17h153c128 0 210 -68 210 -174c0 -105 -81 -170 -210 -170h-153v-17zM159 49h153c121 0 194 58 194 154c0 97 -75 158 -194 158h-153v-17h152c112 0 174 -50 174 -140c0 -89 -62 -138 -174 -138h-152v-17zM159 82h152c102 0 158 41 158 122
s-55 124 -158 124h-152v-246z" />
    <glyph glyph-name="c" unicode="c" horiz-adv-x="689" 
d="M397 -15c-198 0 -352 153 -352 365s154 365 352 365c86 0 166 -25 245 -100l-9 -13c-70 67 -144 97 -236 97c-192 0 -336 -149 -336 -349s144 -349 336 -349c94 0 170 33 249 109l9 -13c-75 -72 -154 -112 -258 -112zM397 18c-181 1 -316 142 -316 332
c0 189 134 330 315 332c86 1 160 -28 228 -92l-9 -13c-66 62 -136 90 -219 89c-172 -2 -299 -136 -299 -316c0 -181 128 -315 300 -316c86 -1 157 30 231 104l9 -15c-75 -73 -151 -106 -240 -105zM396 51c-160 0 -279 128 -279 299s119 299 277 299c75 3 146 -25 212 -84
l-9 -13c-70 63 -137 84 -202 81c-146 0 -262 -117 -262 -283s116 -283 263 -283c91 -3 157 39 215 97l9 -14c-73 -70 -143 -102 -224 -99z" />
    <glyph glyph-name="cacute" unicode="&#x107;" horiz-adv-x="689" 
d="M355 750l87 161h20l-91 -161h-16zM385 750l101 161h20l-105 -161h-16zM414 750l115 161h20l-119 -161h-16zM397 -15c-198 0 -352 153 -352 365s154 365 352 365c86 0 166 -25 245 -100l-9 -13c-70 67 -144 97 -236 97c-192 0 -336 -149 -336 -349s144 -349 336 -349
c94 0 170 33 249 109l9 -13c-75 -72 -154 -112 -258 -112zM397 18c-181 1 -316 142 -316 332c0 189 134 330 315 332c86 1 160 -28 228 -92l-9 -13c-66 62 -136 90 -219 89c-172 -2 -299 -136 -299 -316c0 -181 128 -315 300 -316c86 -1 157 30 231 104l9 -15
c-75 -73 -151 -106 -240 -105zM396 51c-160 0 -279 128 -279 299s119 299 277 299c75 3 146 -25 212 -84l-9 -13c-70 63 -137 84 -202 81c-146 0 -262 -117 -262 -283s116 -283 263 -283c91 -3 157 39 215 97l9 -14c-73 -70 -143 -102 -224 -99z" />
    <glyph glyph-name="ccaron" unicode="&#x10d;" horiz-adv-x="689" 
d="M380 735l-152 177h16l144 -165l143 165h16l-151 -177h-16zM388 768l-131 144h16l115 -124l114 124h16zM388 807l-103 105h16l87 -88l86 88h16zM397 -15c-198 0 -352 153 -352 365s154 365 352 365c86 0 166 -25 245 -100l-9 -13c-70 67 -144 97 -236 97
c-192 0 -336 -149 -336 -349s144 -349 336 -349c94 0 170 33 249 109l9 -13c-75 -72 -154 -112 -258 -112zM397 18c-181 1 -316 142 -316 332c0 189 134 330 315 332c86 1 160 -28 228 -92l-9 -13c-66 62 -136 90 -219 89c-172 -2 -299 -136 -299 -316
c0 -181 128 -315 300 -316c86 -1 157 30 231 104l9 -15c-75 -73 -151 -106 -240 -105zM396 51c-160 0 -279 128 -279 299s119 299 277 299c75 3 146 -25 212 -84l-9 -13c-70 63 -137 84 -202 81c-146 0 -262 -117 -262 -283s116 -283 263 -283c91 -3 157 39 215 97l9 -14
c-73 -70 -143 -102 -224 -99z" />
    <glyph glyph-name="ccedilla" unicode="&#xe7;" horiz-adv-x="689" 
d="M397 -15c-198 0 -352 153 -352 365s154 365 352 365c86 0 166 -25 245 -100l-9 -13c-70 67 -144 97 -236 97c-192 0 -336 -149 -336 -349s144 -349 336 -349c94 0 170 33 249 109l9 -13c-75 -72 -154 -112 -258 -112zM397 18c-181 1 -316 142 -316 332
c0 189 134 330 315 332c86 1 160 -28 228 -92l-9 -13c-66 62 -136 90 -219 89c-172 -2 -299 -136 -299 -316c0 -181 128 -315 300 -316c86 -1 157 30 231 104l9 -15c-75 -73 -151 -106 -240 -105zM396 51c-160 0 -279 128 -279 299s119 299 277 299c75 3 146 -25 212 -84
l-9 -13c-70 63 -137 84 -202 81c-146 0 -262 -117 -262 -283s116 -283 263 -283c91 -3 157 39 215 97l9 -14c-73 -70 -143 -102 -224 -99zM400 -243c-34 0 -72 9 -90 14v17c36 -10 67 -15 90 -15c63 0 112 39 112 87c0 46 -45 81 -110 81c-14 0 -25 0 -45 -3v14
c15 3 31 3 45 3c75 0 126 -40 126 -95c0 -58 -56 -103 -128 -103zM390 -217c-28 0 -62 7 -80 12v16c22 -6 54 -12 80 -12c51 0 89 27 89 63c0 32 -35 55 -89 55h-33v12c12 1 22 1 33 1c64 0 105 -26 105 -68c0 -46 -45 -79 -105 -79zM380 -191c-20 0 -50 4 -70 10v17
c15 -5 47 -11 70 -11c46 0 66 21 66 40c0 16 -21 29 -68 29h-21v14h21c52 0 84 -14 84 -43c0 -33 -34 -56 -82 -56z" />
    <glyph glyph-name="ccircumflex" unicode="&#x109;" horiz-adv-x="689" 
d="M228 749l152 177h16l151 -177h-16l-143 165l-144 -165h-16zM257 749l131 144l130 -144h-16l-114 124l-115 -124h-16zM285 749l103 105l102 -105h-16l-86 88l-87 -88h-16zM397 -15c-198 0 -352 153 -352 365s154 365 352 365c86 0 166 -25 245 -100l-9 -13
c-70 67 -144 97 -236 97c-192 0 -336 -149 -336 -349s144 -349 336 -349c94 0 170 33 249 109l9 -13c-75 -72 -154 -112 -258 -112zM397 18c-181 1 -316 142 -316 332c0 189 134 330 315 332c86 1 160 -28 228 -92l-9 -13c-66 62 -136 90 -219 89
c-172 -2 -299 -136 -299 -316c0 -181 128 -315 300 -316c86 -1 157 30 231 104l9 -15c-75 -73 -151 -106 -240 -105zM396 51c-160 0 -279 128 -279 299s119 299 277 299c75 3 146 -25 212 -84l-9 -13c-70 63 -137 84 -202 81c-146 0 -262 -117 -262 -283s116 -283 263 -283
c91 -3 157 39 215 97l9 -14c-73 -70 -143 -102 -224 -99z" />
    <glyph glyph-name="cdotaccent" unicode="&#x10b;" horiz-adv-x="689" 
d="M388 778c-28 0 -52 24 -52 52c0 29 24 52 52 52c29 0 52 -23 52 -52c0 -28 -23 -52 -52 -52zM388 794c20 0 36 16 36 36s-16 36 -36 36s-36 -16 -36 -36c0 -19 17 -36 36 -36zM388 810c-10 0 -20 10 -20 20c0 11 9 20 20 20s20 -9 20 -20s-9 -20 -20 -20zM388 824
c3 0 6 3 6 6s-3 6 -6 6s-6 -3 -6 -6s3 -6 6 -6zM397 -15c-198 0 -352 153 -352 365s154 365 352 365c86 0 166 -25 245 -100l-9 -13c-70 67 -144 97 -236 97c-192 0 -336 -149 -336 -349s144 -349 336 -349c94 0 170 33 249 109l9 -13c-75 -72 -154 -112 -258 -112zM397 18
c-181 1 -316 142 -316 332c0 189 134 330 315 332c86 1 160 -28 228 -92l-9 -13c-66 62 -136 90 -219 89c-172 -2 -299 -136 -299 -316c0 -181 128 -315 300 -316c86 -1 157 30 231 104l9 -15c-75 -73 -151 -106 -240 -105zM396 51c-160 0 -279 128 -279 299
s119 299 277 299c75 3 146 -25 212 -84l-9 -13c-70 63 -137 84 -202 81c-146 0 -262 -117 -262 -283s116 -283 263 -283c91 -3 157 39 215 97l9 -14c-73 -70 -143 -102 -224 -99z" />
    <glyph glyph-name="d" unicode="d" horiz-adv-x="674" 
d="M71 0v634h173c198 0 313 -105 313 -284s-115 -284 -313 -284h-85v-17h85c209 0 333 112 333 301c0 188 -124 301 -333 301h-173v16h173c218 0 349 -120 349 -317c0 -198 -131 -317 -349 -317h-85v-17h86c228 0 368 128 368 334s-140 334 -368 334h-174v16h174
c259 0 384 -156 384 -350s-125 -350 -384 -350h-102v618h-20v-618h-16v618h-20v-618h-16zM159 82h85c210 0 297 117 297 268s-87 268 -297 268h-85v-536z" />
    <glyph glyph-name="eth" unicode="&#xf0;" horiz-adv-x="674" 
d="M245 700c259 0 384 -156 384 -350s-125 -350 -384 -350h-102v618h-20v-618h-16v618h-20v-618h-16v312h-67v16h67v15h-67v16h67v15h-67v16h67v244h173c198 0 313 -105 313 -284s-115 -284 -313 -284h-85v-17h85c209 0 333 112 333 301c0 188 -124 301 -333 301h-173v16
h173c218 0 349 -120 349 -317c0 -198 -131 -317 -349 -317h-85v-17h86c228 0 368 128 368 334s-140 334 -368 334h-174v16h174zM244 618h-85v-228h146v-16h-146v-15h146v-16h-146v-15h146v-16h-146v-230h85c210 0 297 117 297 268s-87 268 -297 268z" />
    <glyph glyph-name="dcaron" unicode="&#x10f;" horiz-adv-x="674" 
d="M325 735l-152 177h16l144 -165l143 165h16l-151 -177h-16zM333 768l-131 144h16l115 -124l114 124h16zM333 807l-103 105h16l87 -88l86 88h16zM71 0v634h173c198 0 313 -105 313 -284s-115 -284 -313 -284h-85v-17h85c209 0 333 112 333 301c0 188 -124 301 -333 301
h-173v16h173c218 0 349 -120 349 -317c0 -198 -131 -317 -349 -317h-85v-17h86c228 0 368 128 368 334s-140 334 -368 334h-174v16h174c259 0 384 -156 384 -350s-125 -350 -384 -350h-102v618h-20v-618h-16v618h-20v-618h-16zM159 82h85c210 0 297 117 297 268
s-87 268 -297 268h-85v-536z" />
    <glyph glyph-name="dcroat" unicode="&#x111;" horiz-adv-x="674" 
d="M245 700c259 0 384 -156 384 -350s-125 -350 -384 -350h-102v618h-20v-618h-16v618h-20v-618h-16v312h-67v16h67v15h-67v16h67v15h-67v16h67v244h173c198 0 313 -105 313 -284s-115 -284 -313 -284h-85v-17h85c209 0 333 112 333 301c0 188 -124 301 -333 301h-173v16
h173c218 0 349 -120 349 -317c0 -198 -131 -317 -349 -317h-85v-17h86c228 0 368 128 368 334s-140 334 -368 334h-174v16h174zM244 618h-85v-228h146v-16h-146v-15h146v-16h-146v-15h146v-16h-146v-230h85c210 0 297 117 297 268s-87 268 -297 268z" />
    <glyph glyph-name="e" unicode="e" horiz-adv-x="567" 
d="M71 684v16h443v-16h-443zM71 651v16h443v-16h-443zM71 0v634h443v-16h-355v-241h315v-16h-315v-17h315v-16h-315v-17h315v-16h-315v-213h365v-16h-365v-17h365v-16h-365v-17h365v-16h-381v618h-20v-618h-16v618h-20v-618h-16z" />
    <glyph glyph-name="eacute" unicode="&#xe9;" horiz-adv-x="567" 
d="M277 750l87 161h20l-91 -161h-16zM307 750l101 161h20l-105 -161h-16zM336 750l115 161h20l-119 -161h-16zM71 684v16h443v-16h-443zM71 651v16h443v-16h-443zM71 0v634h443v-16h-355v-241h315v-16h-315v-17h315v-16h-315v-17h315v-16h-315v-213h365v-16h-365v-17h365
v-16h-365v-17h365v-16h-381v618h-20v-618h-16v618h-20v-618h-16z" />
    <glyph glyph-name="ebreve" unicode="&#x115;" horiz-adv-x="567" 
d="M309 749c-93 0 -164 85 -164 163h16c0 -76 71 -147 148 -147c78 0 149 71 149 147h16c0 -78 -71 -163 -165 -163zM309 779c-69 0 -134 64 -134 133h16c0 -60 58 -117 118 -117c61 0 119 57 119 117h16c0 -69 -65 -133 -135 -133zM309 811c-51 0 -102 50 -102 101h16
c0 -42 44 -85 86 -85c43 0 87 43 87 85h16c0 -51 -51 -101 -103 -101zM71 684v16h443v-16h-443zM71 651v16h443v-16h-443zM71 0v634h443v-16h-355v-241h315v-16h-315v-17h315v-16h-315v-17h315v-16h-315v-213h365v-16h-365v-17h365v-16h-365v-17h365v-16h-381v618h-20v-618
h-16v618h-20v-618h-16z" />
    <glyph glyph-name="ecaron" unicode="&#x11b;" horiz-adv-x="567" 
d="M302 735l-152 177h16l144 -165l143 165h16l-151 -177h-16zM310 768l-131 144h16l115 -124l114 124h16zM310 807l-103 105h16l87 -88l86 88h16zM71 684v16h443v-16h-443zM71 651v16h443v-16h-443zM71 0v634h443v-16h-355v-241h315v-16h-315v-17h315v-16h-315v-17h315v-16
h-315v-213h365v-16h-365v-17h365v-16h-365v-17h365v-16h-381v618h-20v-618h-16v618h-20v-618h-16z" />
    <glyph glyph-name="ecircumflex" unicode="&#xea;" horiz-adv-x="567" 
d="M150 749l152 177h16l151 -177h-16l-143 165l-144 -165h-16zM179 749l131 144l130 -144h-16l-114 124l-115 -124h-16zM207 749l103 105l102 -105h-16l-86 88l-87 -88h-16zM71 684v16h443v-16h-443zM71 651v16h443v-16h-443zM71 0v634h443v-16h-355v-241h315v-16h-315v-17
h315v-16h-315v-17h315v-16h-315v-213h365v-16h-365v-17h365v-16h-365v-17h365v-16h-381v618h-20v-618h-16v618h-20v-618h-16z" />
    <glyph glyph-name="edieresis" unicode="&#xeb;" horiz-adv-x="567" 
d="M225 778c-28 0 -52 24 -52 52c0 29 24 52 52 52c29 0 52 -23 52 -52c0 -28 -23 -52 -52 -52zM396 778c-28 0 -52 24 -52 52c0 29 24 52 52 52c29 0 52 -23 52 -52c0 -28 -23 -52 -52 -52zM225 794c20 0 36 16 36 36s-16 36 -36 36s-36 -16 -36 -36c0 -19 17 -36 36 -36z
M396 794c20 0 36 16 36 36s-16 36 -36 36s-36 -16 -36 -36c0 -19 17 -36 36 -36zM225 810c-10 0 -20 10 -20 20c0 11 9 20 20 20s20 -9 20 -20s-9 -20 -20 -20zM396 810c-10 0 -20 10 -20 20c0 11 9 20 20 20s20 -9 20 -20s-9 -20 -20 -20zM225 824c3 0 6 3 6 6s-3 6 -6 6
s-6 -3 -6 -6s3 -6 6 -6zM396 824c3 0 6 3 6 6s-3 6 -6 6s-6 -3 -6 -6s3 -6 6 -6zM71 684v16h443v-16h-443zM71 651v16h443v-16h-443zM71 0v634h443v-16h-355v-241h315v-16h-315v-17h315v-16h-315v-17h315v-16h-315v-213h365v-16h-365v-17h365v-16h-365v-17h365v-16h-381v618
h-20v-618h-16v618h-20v-618h-16z" />
    <glyph glyph-name="edotaccent" unicode="&#x117;" horiz-adv-x="567" 
d="M310 778c-28 0 -52 24 -52 52c0 29 24 52 52 52c29 0 52 -23 52 -52c0 -28 -23 -52 -52 -52zM310 794c20 0 36 16 36 36s-16 36 -36 36s-36 -16 -36 -36c0 -19 17 -36 36 -36zM310 810c-10 0 -20 10 -20 20c0 11 9 20 20 20s20 -9 20 -20s-9 -20 -20 -20zM310 824
c3 0 6 3 6 6s-3 6 -6 6s-6 -3 -6 -6s3 -6 6 -6zM71 684v16h443v-16h-443zM71 651v16h443v-16h-443zM71 0v634h443v-16h-355v-241h315v-16h-315v-17h315v-16h-315v-17h315v-16h-315v-213h365v-16h-365v-17h365v-16h-365v-17h365v-16h-381v618h-20v-618h-16v618h-20v-618h-16z
" />
    <glyph glyph-name="egrave" unicode="&#xe8;" horiz-adv-x="567" 
d="M272 750l-119 161h20l115 -161h-16zM301 750l-105 161h20l101 -161h-16zM331 750l-91 161h20l87 -161h-16zM71 684v16h443v-16h-443zM71 651v16h443v-16h-443zM71 0v634h443v-16h-355v-241h315v-16h-315v-17h315v-16h-315v-17h315v-16h-315v-213h365v-16h-365v-17h365
v-16h-365v-17h365v-16h-381v618h-20v-618h-16v618h-20v-618h-16z" />
    <glyph glyph-name="emacron" unicode="&#x113;" horiz-adv-x="567" 
d="M135 852v16h351v-16h-351zM135 821v16h351v-16h-351zM135 790v16h351v-16h-351zM71 684v16h443v-16h-443zM71 651v16h443v-16h-443zM71 0v634h443v-16h-355v-241h315v-16h-315v-17h315v-16h-315v-17h315v-16h-315v-213h365v-16h-365v-17h365v-16h-365v-17h365v-16h-381
v618h-20v-618h-16v618h-20v-618h-16z" />
    <glyph glyph-name="eogonek" unicode="&#x119;" horiz-adv-x="567" 
d="M514 700v-16h-443v16h443zM514 667v-16h-443v16h443zM424 -131c0 18 10 32 16 40l66 91h-11l-68 -88c-15 -19 -24 -35 -24 -52c0 -30 26 -54 63 -54c19 0 36 6 60 15v-17c-19 -7 -39 -14 -60 -14c-45 0 -79 31 -79 70c0 22 11 41 28 62l62 78h-10l-64 -76
c-24 -29 -34 -47 -34 -70c0 -43 36 -76 87 -76c15 0 36 3 70 18v-17c-13 -6 -41 -17 -72 -17c-59 0 -101 41 -101 92c0 33 18 57 39 81l57 65h-306v618h-20v-618h-16v618h-20v-618h-16v634h443v-16h-355v-241h315v-16h-315v-17h315v-16h-315v-17h315v-16h-315v-213h365v-16
h-365v-17h365v-16h-365v-17h365v-16l-71 -100c-6 -8 -13 -18 -13 -31c0 -17 14 -32 39 -32c12 0 27 3 47 10v-17c-19 -6 -34 -9 -47 -9c-32 0 -55 20 -55 48z" />
    <glyph glyph-name="f" unicode="f" horiz-adv-x="556" 
d="M71 684v16h443v-16h-443zM71 651v16h443v-16h-443zM71 0v634h443v-16h-355v-241h296v-16h-296v-17h296v-16h-296v-17h296v-16h-296v-295h-16v618h-20v-618h-16v618h-20v-618h-16z" />
    <glyph glyph-name="g" unicode="g" horiz-adv-x="742" 
d="M393 -15c-192 0 -348 153 -348 366c0 211 154 364 352 364c85 0 164 -24 246 -99l-10 -13c-72 67 -145 96 -236 96c-192 0 -336 -149 -336 -348s144 -350 332 -350c73 0 140 23 198 66v22c-59 -48 -124 -72 -197 -71c-178 1 -313 144 -313 332c0 190 136 333 315 332
c87 -1 159 -29 229 -91l-10 -13c-67 60 -135 87 -219 88c-171 1 -299 -135 -299 -316c0 -179 128 -315 297 -316c74 -1 138 25 197 76v24c-63 -60 -124 -86 -197 -83c-158 0 -277 129 -277 299c0 172 120 301 278 299c79 -1 146 -27 212 -83l-10 -13c-71 61 -136 79 -202 80
c-146 2 -262 -117 -262 -283s117 -283 261 -283c83 -3 143 35 197 89v139h-215v16h215v17h-215v16h215v17h-215v16h231v-317c-62 -49 -133 -75 -214 -75zM626 75v302h16v-287c-5 -5 -10 -10 -16 -15zM661 111v266h16v-246z" />
    <glyph glyph-name="gbreve" unicode="&#x11f;" horiz-adv-x="742" 
d="M388 749c-93 0 -164 85 -164 163h16c0 -76 71 -147 148 -147c78 0 149 71 149 147h16c0 -78 -71 -163 -165 -163zM388 779c-69 0 -134 64 -134 133h16c0 -60 58 -117 118 -117c61 0 119 57 119 117h16c0 -69 -65 -133 -135 -133zM388 811c-51 0 -102 50 -102 101h16
c0 -42 44 -85 86 -85c43 0 87 43 87 85h16c0 -51 -51 -101 -103 -101zM393 -15c-192 0 -348 153 -348 366c0 211 154 364 352 364c85 0 164 -24 246 -99l-10 -13c-72 67 -145 96 -236 96c-192 0 -336 -149 -336 -348s144 -350 332 -350c73 0 140 23 198 66v22
c-59 -48 -124 -72 -197 -71c-178 1 -313 144 -313 332c0 190 136 333 315 332c87 -1 159 -29 229 -91l-10 -13c-67 60 -135 87 -219 88c-171 1 -299 -135 -299 -316c0 -179 128 -315 297 -316c74 -1 138 25 197 76v24c-63 -60 -124 -86 -197 -83c-158 0 -277 129 -277 299
c0 172 120 301 278 299c79 -1 146 -27 212 -83l-10 -13c-71 61 -136 79 -202 80c-146 2 -262 -117 -262 -283s117 -283 261 -283c83 -3 143 35 197 89v139h-215v16h215v17h-215v16h215v17h-215v16h231v-317c-62 -49 -133 -75 -214 -75zM626 75v302h16v-287
c-5 -5 -10 -10 -16 -15zM661 111v266h16v-246z" />
    <glyph glyph-name="gcircumflex" unicode="&#x11d;" horiz-adv-x="742" 
d="M229 749l152 177h16l151 -177h-16l-143 165l-144 -165h-16zM258 749l131 144l130 -144h-16l-114 124l-115 -124h-16zM286 749l103 105l102 -105h-16l-86 88l-87 -88h-16zM393 -15c-192 0 -348 153 -348 366c0 211 154 364 352 364c85 0 164 -24 246 -99l-10 -13
c-72 67 -145 96 -236 96c-192 0 -336 -149 -336 -348s144 -350 332 -350c73 0 140 23 198 66v22c-59 -48 -124 -72 -197 -71c-178 1 -313 144 -313 332c0 190 136 333 315 332c87 -1 159 -29 229 -91l-10 -13c-67 60 -135 87 -219 88c-171 1 -299 -135 -299 -316
c0 -179 128 -315 297 -316c74 -1 138 25 197 76v24c-63 -60 -124 -86 -197 -83c-158 0 -277 129 -277 299c0 172 120 301 278 299c79 -1 146 -27 212 -83l-10 -13c-71 61 -136 79 -202 80c-146 2 -262 -117 -262 -283s117 -283 261 -283c83 -3 143 35 197 89v139h-215v16
h215v17h-215v16h215v17h-215v16h231v-317c-62 -49 -133 -75 -214 -75zM626 75v302h16v-287c-5 -5 -10 -10 -16 -15zM661 111v266h16v-246z" />
    <glyph glyph-name="gcommaaccent" unicode="&#x123;" horiz-adv-x="742" 
d="M393 -15c-192 0 -348 153 -348 366c0 211 154 364 352 364c85 0 164 -24 246 -99l-10 -13c-72 67 -145 96 -236 96c-192 0 -336 -149 -336 -348s144 -350 332 -350c73 0 140 23 198 66v22c-59 -48 -124 -72 -197 -71c-178 1 -313 144 -313 332c0 190 136 333 315 332
c87 -1 159 -29 229 -91l-10 -13c-67 60 -135 87 -219 88c-171 1 -299 -135 -299 -316c0 -179 128 -315 297 -316c74 -1 138 25 197 76v24c-63 -60 -124 -86 -197 -83c-158 0 -277 129 -277 299c0 172 120 301 278 299c79 -1 146 -27 212 -83l-10 -13c-71 61 -136 79 -202 80
c-146 2 -262 -117 -262 -283s117 -283 261 -283c83 -3 143 35 197 89v139h-215v16h215v17h-215v16h215v17h-215v16h231v-317c-62 -49 -133 -75 -214 -75zM626 75v302h16v-287c-5 -5 -10 -10 -16 -15zM661 111v266h16v-246zM339 -224l37 78c-23 7 -39 27 -39 53
c0 30 24 54 55 54c30 0 56 -24 56 -54c0 -16 -8 -35 -27 -71l-31 -60h-16l34 68c16 32 25 49 25 63c0 21 -18 39 -41 39c-22 0 -40 -17 -40 -39s18 -39 40 -39h4l4 1l-45 -93h-16zM392 -117c-13 0 -25 10 -25 24c0 13 12 24 25 24c14 0 26 -12 26 -24c0 -13 -12 -24 -26 -24
zM392 -102c7 0 9 5 9 9s-2 8 -9 8c-6 0 -10 -4 -10 -8c0 -5 4 -9 10 -9z" />
    <glyph glyph-name="gdotaccent" unicode="&#x121;" horiz-adv-x="742" 
d="M389 778c-28 0 -52 24 -52 52c0 29 24 52 52 52c29 0 52 -23 52 -52c0 -28 -23 -52 -52 -52zM389 794c20 0 36 16 36 36s-16 36 -36 36s-36 -16 -36 -36c0 -19 17 -36 36 -36zM389 810c-10 0 -20 10 -20 20c0 11 9 20 20 20s20 -9 20 -20s-9 -20 -20 -20zM389 824
c3 0 6 3 6 6s-3 6 -6 6s-6 -3 -6 -6s3 -6 6 -6zM393 -15c-192 0 -348 153 -348 366c0 211 154 364 352 364c85 0 164 -24 246 -99l-10 -13c-72 67 -145 96 -236 96c-192 0 -336 -149 -336 -348s144 -350 332 -350c73 0 140 23 198 66v22c-59 -48 -124 -72 -197 -71
c-178 1 -313 144 -313 332c0 190 136 333 315 332c87 -1 159 -29 229 -91l-10 -13c-67 60 -135 87 -219 88c-171 1 -299 -135 -299 -316c0 -179 128 -315 297 -316c74 -1 138 25 197 76v24c-63 -60 -124 -86 -197 -83c-158 0 -277 129 -277 299c0 172 120 301 278 299
c79 -1 146 -27 212 -83l-10 -13c-71 61 -136 79 -202 80c-146 2 -262 -117 -262 -283s117 -283 261 -283c83 -3 143 35 197 89v139h-215v16h215v17h-215v16h215v17h-215v16h231v-317c-62 -49 -133 -75 -214 -75zM626 75v302h16v-287c-5 -5 -10 -10 -16 -15zM661 111v266h16
v-246z" />
    <glyph glyph-name="h" unicode="h" horiz-adv-x="678" 
d="M71 0v700h16v-700h-16zM107 0v700h16v-700h-16zM143 0v700h16v-323h360v323h16v-700h-16v295h-360v-295h-16zM555 0v700h16v-700h-16zM591 0v700h16v-700h-16zM159 344h360v17h-360v-17zM159 311h360v17h-360v-17z" />
    <glyph glyph-name="hbar" unicode="&#x127;" horiz-adv-x="700" 
d="M71 607v93h16v-700h-16v525h-71v16h71v17h-71v16h71v17h-71v16h71zM107 0v700h16v-700h-16zM519 607v93h16v-700h-16v295h-360v-295h-16v700h16v-93h360zM555 0v700h16v-700h-16zM700 591h-93v-17h93v-16h-93v-17h93v-16h-93v-525h-16v700h16v-93h93v-16zM519 591h-360
v-17h360v17zM519 558h-360v-17h360v17zM159 377h360v148h-360v-148zM519 344v17h-360v-17h360zM519 311v17h-360v-17h360z" />
    <glyph glyph-name="hcircumflex" unicode="&#x125;" horiz-adv-x="678" 
d="M179 749l152 177h16l151 -177h-16l-143 165l-144 -165h-16zM208 749l131 144l130 -144h-16l-114 124l-115 -124h-16zM236 749l103 105l102 -105h-16l-86 88l-87 -88h-16zM71 0v700h16v-700h-16zM107 0v700h16v-700h-16zM143 0v700h16v-323h360v323h16v-700h-16v295h-360
v-295h-16zM555 0v700h16v-700h-16zM591 0v700h16v-700h-16zM159 344h360v17h-360v-17zM159 311h360v17h-360v-17z" />
    <glyph glyph-name="i" unicode="i" horiz-adv-x="259" 
d="M86 0v700h16v-700h-16zM122 0v700h16v-700h-16zM158 0v700h16v-700h-16z" />
    <glyph glyph-name="iacute" unicode="&#xed;" horiz-adv-x="259" 
d="M97 750l87 161h20l-91 -161h-16zM127 750l101 161h20l-105 -161h-16zM156 750l115 161h20l-119 -161h-16zM86 0v700h16v-700h-16zM122 0v700h16v-700h-16zM158 0v700h16v-700h-16z" />
    <glyph glyph-name="ibreve" unicode="&#x12d;" horiz-adv-x="259" 
d="M129 749c-93 0 -164 85 -164 163h16c0 -76 71 -147 148 -147c78 0 149 71 149 147h16c0 -78 -71 -163 -165 -163zM129 779c-69 0 -134 64 -134 133h16c0 -60 58 -117 118 -117c61 0 119 57 119 117h16c0 -69 -65 -133 -135 -133zM129 811c-51 0 -102 50 -102 101h16
c0 -42 44 -85 86 -85c43 0 87 43 87 85h16c0 -51 -51 -101 -103 -101zM86 0v700h16v-700h-16zM122 0v700h16v-700h-16zM158 0v700h16v-700h-16z" />
    <glyph glyph-name="icircumflex" unicode="&#xee;" horiz-adv-x="259" 
d="M-30 749l152 177h16l151 -177h-16l-143 165l-144 -165h-16zM-1 749l131 144l130 -144h-16l-114 124l-115 -124h-16zM27 749l103 105l102 -105h-16l-86 88l-87 -88h-16zM86 0v700h16v-700h-16zM122 0v700h16v-700h-16zM158 0v700h16v-700h-16z" />
    <glyph glyph-name="idieresis" unicode="&#xef;" horiz-adv-x="259" 
d="M45 778c-28 0 -52 24 -52 52c0 29 24 52 52 52c29 0 52 -23 52 -52c0 -28 -23 -52 -52 -52zM216 778c-28 0 -52 24 -52 52c0 29 24 52 52 52c29 0 52 -23 52 -52c0 -28 -23 -52 -52 -52zM45 794c20 0 36 16 36 36s-16 36 -36 36s-36 -16 -36 -36c0 -19 17 -36 36 -36z
M216 794c20 0 36 16 36 36s-16 36 -36 36s-36 -16 -36 -36c0 -19 17 -36 36 -36zM45 810c-10 0 -20 10 -20 20c0 11 9 20 20 20s20 -9 20 -20s-9 -20 -20 -20zM216 810c-10 0 -20 10 -20 20c0 11 9 20 20 20s20 -9 20 -20s-9 -20 -20 -20zM45 824c3 0 6 3 6 6s-3 6 -6 6
s-6 -3 -6 -6s3 -6 6 -6zM216 824c3 0 6 3 6 6s-3 6 -6 6s-6 -3 -6 -6s3 -6 6 -6zM86 0v700h16v-700h-16zM122 0v700h16v-700h-16zM158 0v700h16v-700h-16z" />
    <glyph glyph-name="i.loclTRK" horiz-adv-x="259" 
d="M130 778c-28 0 -52 24 -52 52c0 29 24 52 52 52c29 0 52 -23 52 -52c0 -28 -23 -52 -52 -52zM130 794c20 0 36 16 36 36s-16 36 -36 36s-36 -16 -36 -36c0 -19 17 -36 36 -36zM130 810c-10 0 -20 10 -20 20c0 11 9 20 20 20s20 -9 20 -20s-9 -20 -20 -20zM130 824
c3 0 6 3 6 6s-3 6 -6 6s-6 -3 -6 -6s3 -6 6 -6zM86 0v700h16v-700h-16zM122 0v700h16v-700h-16zM158 0v700h16v-700h-16z" />
    <glyph glyph-name="igrave" unicode="&#xec;" horiz-adv-x="259" 
d="M92 750l-119 161h20l115 -161h-16zM121 750l-105 161h20l101 -161h-16zM151 750l-91 161h20l87 -161h-16zM86 0v700h16v-700h-16zM122 0v700h16v-700h-16zM158 0v700h16v-700h-16z" />
    <glyph glyph-name="imacron" unicode="&#x12b;" horiz-adv-x="259" 
d="M24 852v16h212v-16h-212zM24 821v16h212v-16h-212zM24 790v16h212v-16h-212zM86 0v700h16v-700h-16zM122 0v700h16v-700h-16zM158 0v700h16v-700h-16z" />
    <glyph glyph-name="iogonek" unicode="&#x12f;" horiz-adv-x="259" 
d="M19 -144c0 -46 36 -78 87 -78c15 0 36 3 70 18v-17c-13 -6 -41 -17 -72 -17c-60 0 -101 41 -101 93c0 30 11 51 33 80l50 65v700h16v-700l-55 -76c-25 -35 -28 -51 -28 -68zM53 -141c0 -29 26 -53 63 -53c19 0 36 6 60 15v-17c-19 -7 -39 -14 -60 -14
c-45 0 -79 31 -79 69c0 23 11 41 27 63l58 78v700h16v-700l-62 -88c-14 -20 -23 -35 -23 -53zM129 -163c12 0 27 3 47 10v-17c-19 -6 -34 -9 -47 -9c-32 0 -55 20 -55 48c0 18 10 32 16 40l68 91v700h16v-700l-71 -100c-6 -8 -13 -18 -13 -31c0 -17 14 -32 39 -32z" />
    <glyph glyph-name="itilde" unicode="&#x129;" horiz-adv-x="259" 
d="M-57 760c0 77 30 143 110 143c43 0 72 -22 99 -41c21 -15 37 -27 54 -27c37 0 47 35 48 66h14c-2 -51 -23 -82 -62 -82c-17 0 -33 9 -63 30c-27 19 -52 38 -90 38c-61 0 -96 -45 -96 -127h-14zM-32 760c0 70 31 112 86 112c32 0 57 -17 81 -34s45 -34 72 -34
c46 0 72 34 72 97h14c0 -71 -31 -113 -86 -113c-33 0 -57 20 -81 36s-44 32 -72 32c-46 0 -72 -35 -72 -96h-14zM208 757c-43 0 -73 24 -100 42c-21 14 -35 26 -52 26c-36 0 -48 -32 -48 -65h-14c0 49 22 81 62 81c22 0 40 -14 61 -29c27 -19 53 -39 91 -39
c61 0 97 45 97 128h14c0 -77 -30 -144 -111 -144zM86 0v700h16v-700h-16zM122 0v700h16v-700h-16zM158 0v700h16v-700h-16z" />
    <glyph glyph-name="j" unicode="j" horiz-adv-x="469" 
d="M173 -15c-51 0 -96 14 -141 47l8 14c42 -31 83 -45 133 -45c119 0 209 90 209 209v490h16v-490c0 -133 -103 -225 -225 -225zM172 18c-44 0 -85 14 -125 41l8 14c38 -27 76 -39 117 -39c99 0 174 76 174 178v488h16v-488c0 -111 -82 -194 -190 -194zM171 51
c-37 0 -74 12 -109 35l8 14c33 -22 67 -33 101 -33c74 0 139 55 139 147v486h16v-486c0 -94 -65 -163 -155 -163z" />
    <glyph glyph-name="jcircumflex" unicode="&#x135;" horiz-adv-x="469" 
d="M194 749l152 177h16l151 -177h-16l-143 165l-144 -165h-16zM223 749l131 144l130 -144h-16l-114 124l-115 -124h-16zM251 749l103 105l102 -105h-16l-86 88l-87 -88h-16zM173 -15c-51 0 -96 14 -141 47l8 14c42 -31 83 -45 133 -45c119 0 209 90 209 209v490h16v-490
c0 -133 -103 -225 -225 -225zM172 18c-44 0 -85 14 -125 41l8 14c38 -27 76 -39 117 -39c99 0 174 76 174 178v488h16v-488c0 -111 -82 -194 -190 -194zM171 51c-37 0 -74 12 -109 35l8 14c33 -22 67 -33 101 -33c74 0 139 55 139 147v486h16v-486c0 -94 -65 -163 -155 -163
z" />
    <glyph glyph-name="k" unicode="k" horiz-adv-x="619" 
d="M71 0v700h16v-700h-16zM107 0v700h16v-700h-16zM143 0v700h16v-319l309 319h22l-329 -339l346 -361h-22l-326 341v-341h-16zM536 0l-347 361l330 339h22l-330 -339l347 -361h-22zM585 0l-346 361l329 339h22l-329 -339l346 -361h-22z" />
    <glyph glyph-name="kcommaaccent" unicode="&#x137;" horiz-adv-x="619" 
d="M71 0v700h16v-700h-16zM107 0v700h16v-700h-16zM143 0v700h16v-319l309 319h22l-329 -339l346 -361h-22l-326 341v-341h-16zM536 0l-347 361l330 339h22l-330 -339l347 -361h-22zM585 0l-346 361l329 339h22l-329 -339l346 -361h-22zM266 -224l37 78c-23 7 -39 27 -39 53
c0 30 24 54 55 54c30 0 56 -24 56 -54c0 -16 -8 -35 -27 -71l-31 -60h-16l34 68c16 32 25 49 25 63c0 21 -18 39 -41 39c-22 0 -40 -17 -40 -39s18 -39 40 -39h4l4 1l-45 -93h-16zM319 -117c-13 0 -25 10 -25 24c0 13 12 24 25 24c14 0 26 -12 26 -24c0 -13 -12 -24 -26 -24
zM319 -102c7 0 9 5 9 9s-2 8 -9 8c-6 0 -10 -4 -10 -8c0 -5 4 -9 10 -9z" />
    <glyph glyph-name="l" unicode="l" horiz-adv-x="539" 
d="M71 0v700h16v-700h-16zM107 0v700h16v-700h-16zM143 0v700h16v-618h367v-16h-367v-17h367v-16h-367v-17h367v-16h-383z" />
    <glyph glyph-name="lacute" unicode="&#x13a;" horiz-adv-x="539" 
d="M82 750l87 161h20l-91 -161h-16zM112 750l101 161h20l-105 -161h-16zM141 750l115 161h20l-119 -161h-16zM71 0v700h16v-700h-16zM107 0v700h16v-700h-16zM143 0v700h16v-618h367v-16h-367v-17h367v-16h-367v-17h367v-16h-383z" />
    <glyph glyph-name="lcaron" unicode="&#x13e;" horiz-adv-x="539" 
d="M71 0v700h16v-700h-16zM107 0v700h16v-700h-16zM143 0v700h16v-618h367v-16h-367v-17h367v-16h-367v-17h367v-16h-383zM216 533v167h20l-4 -167h-16zM244 533l12 167h20l-16 -167h-16zM272 533l24 167h20l-28 -167h-16z" />
    <glyph glyph-name="lcommaaccent" unicode="&#x13c;" horiz-adv-x="539" 
d="M71 0v700h16v-700h-16zM107 0v700h16v-700h-16zM143 0v700h16v-618h367v-16h-367v-17h367v-16h-367v-17h367v-16h-383zM244 -224l37 78c-23 7 -39 27 -39 53c0 30 24 54 55 54c30 0 56 -24 56 -54c0 -16 -8 -35 -27 -71l-31 -60h-16l34 68c16 32 25 49 25 63
c0 21 -18 39 -41 39c-22 0 -40 -17 -40 -39s18 -39 40 -39h4l4 1l-45 -93h-16zM297 -117c-13 0 -25 10 -25 24c0 13 12 24 25 24c14 0 26 -12 26 -24c0 -13 -12 -24 -26 -24zM297 -102c7 0 9 5 9 9s-2 8 -9 8c-6 0 -10 -4 -10 -8c0 -5 4 -9 10 -9z" />
    <glyph glyph-name="ldot" unicode="&#x140;" horiz-adv-x="539" 
d="M71 0v700h16v-700h-16zM107 0v700h16v-700h-16zM143 0v700h16v-618h367v-16h-367v-17h367v-16h-367v-17h367v-16h-383zM317 288c-32 0 -58 25 -58 57s26 57 58 57s59 -25 59 -57s-27 -57 -59 -57zM317 304c24 0 43 19 43 41s-19 41 -43 41c-23 0 -42 -18 -42 -41
s19 -41 42 -41zM317 320c-14 0 -26 11 -26 25s12 25 26 25c15 0 27 -12 27 -25s-12 -25 -27 -25zM317 336c7 0 10 5 10 9s-3 9 -10 9c-6 0 -10 -4 -10 -9s4 -9 10 -9z" />
    <glyph glyph-name="lslash" unicode="&#x142;" horiz-adv-x="539" 
d="M71 403v297h16v-700h-16v315l-90 -48v17l90 48v18l-90 -48v18l90 48v17l-90 -48v18zM107 0v700h16v-700h-16zM526 66h-367v-17h367v-16h-367v-17h367v-16h-383v700h16v-250l137 72v-17l-137 -73v-17l137 72v-18l-137 -72v-18l137 73v-18l-137 -72v-280h367v-16z" />
    <glyph glyph-name="m" unicode="m" horiz-adv-x="778" 
d="M620 0v488l-184 -211l-365 421v17h6l312 -359l312 359h7v-16l-309 -356l14 -15l295 340v-25l-284 -328l12 -14l272 312v-613h-16v571l-20 -23v-548h-16v529l-20 -23v-506h-16zM412 249l-341 394v25l352 -407zM71 0v613l329 -379l-5 -6h-11l-225 259v-487h-16v505l-20 23
v-528h-16v547l-20 23v-570h-16z" />
    <glyph glyph-name="n" unicode="n" horiz-adv-x="696" 
d="M625 81l-554 626v13h8l458 -518v498h16v-516l20 -22v538h16v-556l20 -23v579h16v-619zM625 25l-554 626v24l554 -626v-24zM618 -20l-459 519v-499h-16v517l-20 22v-539h-16v557l-20 23v-580h-16v622l554 -627v-15h-7z" />
    <glyph glyph-name="nacute" unicode="&#x144;" horiz-adv-x="696" 
d="M315 750l87 161h20l-91 -161h-16zM345 750l101 161h20l-105 -161h-16zM374 750l115 161h20l-119 -161h-16zM625 81l-554 626v13h8l458 -518v498h16v-516l20 -22v538h16v-556l20 -23v579h16v-619zM625 25l-554 626v24l554 -626v-24zM618 -20l-459 519v-499h-16v517l-20 22
v-539h-16v557l-20 23v-580h-16v622l554 -627v-15h-7z" />
    <glyph glyph-name="ncaron" unicode="&#x148;" horiz-adv-x="696" 
d="M340 735l-152 177h16l144 -165l143 165h16l-151 -177h-16zM348 768l-131 144h16l115 -124l114 124h16zM348 807l-103 105h16l87 -88l86 88h16zM625 81l-554 626v13h8l458 -518v498h16v-516l20 -22v538h16v-556l20 -23v579h16v-619zM625 25l-554 626v24l554 -626v-24z
M618 -20l-459 519v-499h-16v517l-20 22v-539h-16v557l-20 23v-580h-16v622l554 -627v-15h-7z" />
    <glyph glyph-name="ncommaaccent" unicode="&#x146;" horiz-adv-x="696" 
d="M625 81l-554 626v13h8l458 -518v498h16v-516l20 -22v538h16v-556l20 -23v579h16v-619zM625 25l-554 626v24l554 -626v-24zM618 -20l-459 519v-499h-16v517l-20 22v-539h-16v557l-20 23v-580h-16v622l554 -627v-15h-7zM294 -224l37 78c-23 7 -39 27 -39 53
c0 30 24 54 55 54c30 0 56 -24 56 -54c0 -16 -8 -35 -27 -71l-31 -60h-16l34 68c16 32 25 49 25 63c0 21 -18 39 -41 39c-22 0 -40 -17 -40 -39s18 -39 40 -39h4l4 1l-45 -93h-16zM347 -117c-13 0 -25 10 -25 24c0 13 12 24 25 24c14 0 26 -12 26 -24c0 -13 -12 -24 -26 -24
zM347 -102c7 0 9 5 9 9s-2 8 -9 8c-6 0 -10 -4 -10 -8c0 -5 4 -9 10 -9z" />
    <glyph glyph-name="eng" unicode="&#x14b;" horiz-adv-x="696" 
d="M625 81l-554 626v13h8l458 -518v498h16v-516l20 -22v538h16v-556l20 -23v579h16v-619zM625 25l-554 626v24l554 -626v-24zM493 -173c-27 0 -59 8 -91 29l8 14c26 -17 55 -27 83 -27c64 0 116 54 116 122v25l-20 23v-43c0 -64 -42 -110 -99 -110c-23 0 -49 8 -73 22l8 14
c21 -13 45 -20 65 -20c49 0 83 39 83 94v61l-20 22v-78c0 -51 -25 -82 -66 -82c-17 0 -36 6 -55 16l8 14c18 -10 35 -14 47 -14c36 0 50 29 50 66v97l-378 427v-499h-16v517l-20 22v-539h-16v557l-20 23v-580h-16v622l554 -627v-30c0 -77 -59 -138 -132 -138z" />
    <glyph glyph-name="ntilde" unicode="&#xf1;" horiz-adv-x="696" 
d="M161 760c0 77 30 143 110 143c43 0 72 -22 99 -41c21 -15 37 -27 54 -27c37 0 47 35 48 66h14c-2 -51 -23 -82 -62 -82c-17 0 -33 9 -63 30c-27 19 -52 38 -90 38c-61 0 -96 -45 -96 -127h-14zM186 760c0 70 31 112 86 112c32 0 57 -17 81 -34s45 -34 72 -34
c46 0 72 34 72 97h14c0 -71 -31 -113 -86 -113c-33 0 -57 20 -81 36s-44 32 -72 32c-46 0 -72 -35 -72 -96h-14zM426 757c-43 0 -73 24 -100 42c-21 14 -35 26 -52 26c-36 0 -48 -32 -48 -65h-14c0 49 22 81 62 81c22 0 40 -14 61 -29c27 -19 53 -39 91 -39
c61 0 97 45 97 128h14c0 -77 -30 -144 -111 -144zM625 81l-554 626v13h8l458 -518v498h16v-516l20 -22v538h16v-556l20 -23v579h16v-619zM625 25l-554 626v24l554 -626v-24zM618 -20l-459 519v-499h-16v517l-20 22v-539h-16v557l-20 23v-580h-16v622l554 -627v-15h-7z" />
    <glyph glyph-name="o" unicode="o" 
d="M397 -15c-194 0 -352 153 -352 365s158 365 352 365c195 0 353 -153 353 -365s-158 -365 -353 -365zM397 1c191 0 337 151 337 349s-146 349 -337 349c-190 0 -336 -151 -336 -349s146 -349 336 -349zM397 18c-178 0 -316 144 -316 332s138 332 316 332
c180 0 317 -143 317 -332s-137 -332 -317 -332zM397 34c171 0 301 136 301 316s-130 316 -301 316c-170 0 -300 -137 -300 -316s130 -316 300 -316zM397 51c-159 0 -280 129 -280 299s121 299 280 299s280 -129 280 -299s-121 -299 -280 -299zM397 67c146 0 264 117 264 283
s-118 283 -264 283c-145 0 -264 -117 -264 -283s119 -283 264 -283z" />
    <glyph glyph-name="oacute" unicode="&#xf3;" 
d="M364 750l87 161h20l-91 -161h-16zM394 750l101 161h20l-105 -161h-16zM423 750l115 161h20l-119 -161h-16zM397 -15c-194 0 -352 153 -352 365s158 365 352 365c195 0 353 -153 353 -365s-158 -365 -353 -365zM397 1c191 0 337 151 337 349s-146 349 -337 349
c-190 0 -336 -151 -336 -349s146 -349 336 -349zM397 18c-178 0 -316 144 -316 332s138 332 316 332c180 0 317 -143 317 -332s-137 -332 -317 -332zM397 34c171 0 301 136 301 316s-130 316 -301 316c-170 0 -300 -137 -300 -316s130 -316 300 -316zM397 51
c-159 0 -280 129 -280 299s121 299 280 299s280 -129 280 -299s-121 -299 -280 -299zM397 67c146 0 264 117 264 283s-118 283 -264 283c-145 0 -264 -117 -264 -283s119 -283 264 -283z" />
    <glyph glyph-name="obreve" unicode="&#x14f;" 
d="M396 749c-93 0 -164 85 -164 163h16c0 -76 71 -147 148 -147c78 0 149 71 149 147h16c0 -78 -71 -163 -165 -163zM396 779c-69 0 -134 64 -134 133h16c0 -60 58 -117 118 -117c61 0 119 57 119 117h16c0 -69 -65 -133 -135 -133zM396 811c-51 0 -102 50 -102 101h16
c0 -42 44 -85 86 -85c43 0 87 43 87 85h16c0 -51 -51 -101 -103 -101zM397 -15c-194 0 -352 153 -352 365s158 365 352 365c195 0 353 -153 353 -365s-158 -365 -353 -365zM397 1c191 0 337 151 337 349s-146 349 -337 349c-190 0 -336 -151 -336 -349s146 -349 336 -349z
M397 18c-178 0 -316 144 -316 332s138 332 316 332c180 0 317 -143 317 -332s-137 -332 -317 -332zM397 34c171 0 301 136 301 316s-130 316 -301 316c-170 0 -300 -137 -300 -316s130 -316 300 -316zM397 51c-159 0 -280 129 -280 299s121 299 280 299s280 -129 280 -299
s-121 -299 -280 -299zM397 67c146 0 264 117 264 283s-118 283 -264 283c-145 0 -264 -117 -264 -283s119 -283 264 -283z" />
    <glyph glyph-name="ocircumflex" unicode="&#xf4;" 
d="M237 749l152 177h16l151 -177h-16l-143 165l-144 -165h-16zM266 749l131 144l130 -144h-16l-114 124l-115 -124h-16zM294 749l103 105l102 -105h-16l-86 88l-87 -88h-16zM397 -15c-194 0 -352 153 -352 365s158 365 352 365c195 0 353 -153 353 -365s-158 -365 -353 -365
zM397 1c191 0 337 151 337 349s-146 349 -337 349c-190 0 -336 -151 -336 -349s146 -349 336 -349zM397 18c-178 0 -316 144 -316 332s138 332 316 332c180 0 317 -143 317 -332s-137 -332 -317 -332zM397 34c171 0 301 136 301 316s-130 316 -301 316
c-170 0 -300 -137 -300 -316s130 -316 300 -316zM397 51c-159 0 -280 129 -280 299s121 299 280 299s280 -129 280 -299s-121 -299 -280 -299zM397 67c146 0 264 117 264 283s-118 283 -264 283c-145 0 -264 -117 -264 -283s119 -283 264 -283z" />
    <glyph glyph-name="odieresis" unicode="&#xf6;" 
d="M312 778c-28 0 -52 24 -52 52c0 29 24 52 52 52c29 0 52 -23 52 -52c0 -28 -23 -52 -52 -52zM483 778c-28 0 -52 24 -52 52c0 29 24 52 52 52c29 0 52 -23 52 -52c0 -28 -23 -52 -52 -52zM312 794c20 0 36 16 36 36s-16 36 -36 36s-36 -16 -36 -36c0 -19 17 -36 36 -36z
M483 794c20 0 36 16 36 36s-16 36 -36 36s-36 -16 -36 -36c0 -19 17 -36 36 -36zM312 810c-10 0 -20 10 -20 20c0 11 9 20 20 20s20 -9 20 -20s-9 -20 -20 -20zM483 810c-10 0 -20 10 -20 20c0 11 9 20 20 20s20 -9 20 -20s-9 -20 -20 -20zM312 824c3 0 6 3 6 6s-3 6 -6 6
s-6 -3 -6 -6s3 -6 6 -6zM483 824c3 0 6 3 6 6s-3 6 -6 6s-6 -3 -6 -6s3 -6 6 -6zM397 -15c-194 0 -352 153 -352 365s158 365 352 365c195 0 353 -153 353 -365s-158 -365 -353 -365zM397 1c191 0 337 151 337 349s-146 349 -337 349c-190 0 -336 -151 -336 -349
s146 -349 336 -349zM397 18c-178 0 -316 144 -316 332s138 332 316 332c180 0 317 -143 317 -332s-137 -332 -317 -332zM397 34c171 0 301 136 301 316s-130 316 -301 316c-170 0 -300 -137 -300 -316s130 -316 300 -316zM397 51c-159 0 -280 129 -280 299s121 299 280 299
s280 -129 280 -299s-121 -299 -280 -299zM397 67c146 0 264 117 264 283s-118 283 -264 283c-145 0 -264 -117 -264 -283s119 -283 264 -283z" />
    <glyph glyph-name="ograve" unicode="&#xf2;" 
d="M359 750l-119 161h20l115 -161h-16zM388 750l-105 161h20l101 -161h-16zM418 750l-91 161h20l87 -161h-16zM397 -15c-194 0 -352 153 -352 365s158 365 352 365c195 0 353 -153 353 -365s-158 -365 -353 -365zM397 1c191 0 337 151 337 349s-146 349 -337 349
c-190 0 -336 -151 -336 -349s146 -349 336 -349zM397 18c-178 0 -316 144 -316 332s138 332 316 332c180 0 317 -143 317 -332s-137 -332 -317 -332zM397 34c171 0 301 136 301 316s-130 316 -301 316c-170 0 -300 -137 -300 -316s130 -316 300 -316zM397 51
c-159 0 -280 129 -280 299s121 299 280 299s280 -129 280 -299s-121 -299 -280 -299zM397 67c146 0 264 117 264 283s-118 283 -264 283c-145 0 -264 -117 -264 -283s119 -283 264 -283z" />
    <glyph glyph-name="ohungarumlaut" unicode="&#x151;" 
d="M287 750l77 161h20l-81 -161h-16zM317 750l91 161h20l-95 -161h-16zM346 750l105 161h20l-109 -161h-16zM456 750l77 161h20l-81 -161h-16zM486 750l91 161h20l-95 -161h-16zM515 750l105 161h20l-109 -161h-16zM397 -15c-194 0 -352 153 -352 365s158 365 352 365
c195 0 353 -153 353 -365s-158 -365 -353 -365zM397 1c191 0 337 151 337 349s-146 349 -337 349c-190 0 -336 -151 -336 -349s146 -349 336 -349zM397 18c-178 0 -316 144 -316 332s138 332 316 332c180 0 317 -143 317 -332s-137 -332 -317 -332zM397 34
c171 0 301 136 301 316s-130 316 -301 316c-170 0 -300 -137 -300 -316s130 -316 300 -316zM397 51c-159 0 -280 129 -280 299s121 299 280 299s280 -129 280 -299s-121 -299 -280 -299zM397 67c146 0 264 117 264 283s-118 283 -264 283c-145 0 -264 -117 -264 -283
s119 -283 264 -283z" />
    <glyph glyph-name="omacron" unicode="&#x14d;" 
d="M222 852v16h351v-16h-351zM222 821v16h351v-16h-351zM222 790v16h351v-16h-351zM397 -15c-194 0 -352 153 -352 365s158 365 352 365c195 0 353 -153 353 -365s-158 -365 -353 -365zM397 1c191 0 337 151 337 349s-146 349 -337 349c-190 0 -336 -151 -336 -349
s146 -349 336 -349zM397 18c-178 0 -316 144 -316 332s138 332 316 332c180 0 317 -143 317 -332s-137 -332 -317 -332zM397 34c171 0 301 136 301 316s-130 316 -301 316c-170 0 -300 -137 -300 -316s130 -316 300 -316zM397 51c-159 0 -280 129 -280 299s121 299 280 299
s280 -129 280 -299s-121 -299 -280 -299zM397 67c146 0 264 117 264 283s-118 283 -264 283c-145 0 -264 -117 -264 -283s119 -283 264 -283z" />
    <glyph glyph-name="oslash" unicode="&#xf8;" 
d="M589 659c97 -63 161 -174 161 -309c0 -212 -158 -365 -353 -365c-40 0 -78 6 -114 19l-32 -69h-18l34 74c-5 2 -10 5 -15 7l-38 -81h-18l42 88c-5 2 -10 5 -15 8l-45 -96h-18l48 104c-98 63 -163 175 -163 311c0 212 158 365 352 365c41 0 81 -7 117 -20l32 68h18
l-34 -73c5 -2 10 -5 15 -7l37 80h18l-41 -87c5 -2 11 -5 16 -8l44 95h18zM397 1c191 0 337 151 337 349s-146 349 -337 349c-190 0 -336 -151 -336 -349s146 -349 336 -349zM397 682c180 0 317 -143 317 -332s-137 -332 -317 -332c-178 0 -316 144 -316 332s138 332 316 332
zM397 34c171 0 301 136 301 316s-130 316 -301 316c-170 0 -300 -137 -300 -316s130 -316 300 -316zM397 649c159 0 280 -129 280 -299s-121 -299 -280 -299s-280 129 -280 299s121 299 280 299zM133 350c0 -101 44 -184 112 -234l234 504c-26 9 -53 13 -82 13
c-145 0 -264 -117 -264 -283zM273 99l237 509l-15 6l-237 -507c5 -3 10 -6 15 -8zM524 600l-237 -509l16 -6l236 506zM397 67c146 0 264 117 264 283c0 100 -43 182 -108 231l-235 -502c25 -8 51 -12 79 -12z" />
    <glyph glyph-name="otilde" unicode="&#xf5;" 
d="M210 760c0 77 30 143 110 143c43 0 72 -22 99 -41c21 -15 37 -27 54 -27c37 0 47 35 48 66h14c-2 -51 -23 -82 -62 -82c-17 0 -33 9 -63 30c-27 19 -52 38 -90 38c-61 0 -96 -45 -96 -127h-14zM235 760c0 70 31 112 86 112c32 0 57 -17 81 -34s45 -34 72 -34
c46 0 72 34 72 97h14c0 -71 -31 -113 -86 -113c-33 0 -57 20 -81 36s-44 32 -72 32c-46 0 -72 -35 -72 -96h-14zM475 757c-43 0 -73 24 -100 42c-21 14 -35 26 -52 26c-36 0 -48 -32 -48 -65h-14c0 49 22 81 62 81c22 0 40 -14 61 -29c27 -19 53 -39 91 -39
c61 0 97 45 97 128h14c0 -77 -30 -144 -111 -144zM397 -15c-194 0 -352 153 -352 365s158 365 352 365c195 0 353 -153 353 -365s-158 -365 -353 -365zM397 1c191 0 337 151 337 349s-146 349 -337 349c-190 0 -336 -151 -336 -349s146 -349 336 -349zM397 18
c-178 0 -316 144 -316 332s138 332 316 332c180 0 317 -143 317 -332s-137 -332 -317 -332zM397 34c171 0 301 136 301 316s-130 316 -301 316c-170 0 -300 -137 -300 -316s130 -316 300 -316zM397 51c-159 0 -280 129 -280 299s121 299 280 299s280 -129 280 -299
s-121 -299 -280 -299zM397 67c146 0 264 117 264 283s-118 283 -264 283c-145 0 -264 -117 -264 -283s119 -283 264 -283z" />
    <glyph glyph-name="oe" unicode="&#x153;" horiz-adv-x="1016" 
d="M410 0c-241 0 -365 156 -365 350s124 350 365 350h126v-700h-126zM556 0v700h16v-700h-16zM592 0v700h371v-16h-355v-17h355v-16h-355v-17h355v-16h-355v-241h315v-16h-315v-17h315v-16h-315v-17h315v-16h-315v-213h365v-16h-365v-17h365v-16h-365v-17h365v-16h-381z
M410 16h110v17h-109c-203 0 -330 123 -330 317s127 317 330 317h109v17h-110c-214 0 -349 -130 -349 -334s135 -334 349 -334zM411 49h109v17h-109c-183 0 -294 107 -294 284s111 284 294 284h109v17h-109c-195 0 -314 -115 -314 -301c0 -185 120 -301 314 -301zM411 82h109
v536h-109c-191 0 -278 -117 -278 -268s87 -268 278 -268z" />
    <glyph glyph-name="p" unicode="p" horiz-adv-x="565" 
d="M71 0v634h197c118 0 189 -60 189 -159s-71 -157 -189 -157h-109v-17h110c127 0 208 68 208 175s-81 175 -208 175h-198v16h198c135 0 224 -75 224 -191s-88 -191 -224 -191h-110v-17h111c146 0 243 84 243 208c0 123 -98 208 -243 208h-199v16h199
c164 0 259 -101 259 -224c0 -124 -95 -224 -259 -224h-111v-252h-16v618h-20v-618h-16v618h-20v-618h-16zM159 334h109c109 0 173 51 173 141c0 91 -65 143 -173 143h-109v-284z" />
    <glyph glyph-name="thorn" unicode="&#xfe;" horiz-adv-x="570" 
d="M71 0v700h16v-700h-16zM107 0v700h16v-700h-16zM143 0v700h16v-116h111c164 0 259 -101 259 -224c0 -124 -95 -224 -259 -224h-111v-136h-16zM159 152h111c146 0 243 84 243 208c0 123 -98 208 -243 208h-111v-17h110c135 0 224 -75 224 -191s-88 -191 -224 -191h-110
v-17zM159 185h110c127 0 208 68 208 175s-81 175 -208 175h-110v-17h109c118 0 189 -60 189 -159s-71 -157 -189 -157h-109v-17zM159 218h109c109 0 173 51 173 141c0 91 -65 143 -173 143h-109v-284z" />
    <glyph glyph-name="q" unicode="q" 
d="M353 -160v148c-174 21 -308 167 -308 362c0 212 158 365 352 365c195 0 353 -153 353 -365c0 -196 -134 -341 -309 -362v-148h-16v357h16v-127c126 21 220 132 220 280c0 166 -118 283 -264 283c-145 0 -264 -117 -264 -283c0 -149 95 -258 220 -279v126h16v-357h-16z
M353 4v17c-156 21 -272 157 -272 329c0 188 138 332 316 332c180 0 317 -143 317 -332c0 -173 -115 -308 -273 -329v-17c169 21 293 163 293 346c0 198 -146 349 -337 349c-190 0 -336 -151 -336 -349c0 -182 124 -325 292 -346zM353 37v17c-136 22 -236 142 -236 296
c0 170 121 299 280 299s280 -129 280 -299c0 -154 -99 -274 -236 -296v-17c149 21 257 149 257 313c0 180 -130 316 -301 316c-170 0 -300 -137 -300 -316c0 -163 109 -292 256 -313zM389 -160v357h16v-357h-16z" />
    <glyph glyph-name="r" unicode="r" horiz-adv-x="593" 
d="M71 0v634h197c118 0 189 -60 189 -159s-71 -157 -189 -157h-109v-17h110c127 0 208 68 208 175s-81 175 -208 175h-198v16h198c135 0 224 -75 224 -191s-88 -191 -224 -191h-110v-17h111c146 0 243 84 243 208c0 123 -98 208 -243 208h-199v16h199
c164 0 259 -101 259 -224c0 -92 -52 -170 -145 -205l179 -271h-20l-175 266c-6 -2 -13 -4 -19 -5l171 -261h-20l-170 257l-21 -3l168 -254h-20l-166 253c-7 -1 -14 -1 -21 -1h-111v-252h-16v618h-20v-618h-16v618h-20v-618h-16zM159 334h109c109 0 173 51 173 141
c0 91 -65 143 -173 143h-109v-284z" />
    <glyph glyph-name="racute" unicode="&#x155;" horiz-adv-x="593" 
d="M230 750l87 161h20l-91 -161h-16zM260 750l101 161h20l-105 -161h-16zM289 750l115 161h20l-119 -161h-16zM71 0v634h197c118 0 189 -60 189 -159s-71 -157 -189 -157h-109v-17h110c127 0 208 68 208 175s-81 175 -208 175h-198v16h198c135 0 224 -75 224 -191
s-88 -191 -224 -191h-110v-17h111c146 0 243 84 243 208c0 123 -98 208 -243 208h-199v16h199c164 0 259 -101 259 -224c0 -92 -52 -170 -145 -205l179 -271h-20l-175 266c-6 -2 -13 -4 -19 -5l171 -261h-20l-170 257l-21 -3l168 -254h-20l-166 253c-7 -1 -14 -1 -21 -1
h-111v-252h-16v618h-20v-618h-16v618h-20v-618h-16zM159 334h109c109 0 173 51 173 141c0 91 -65 143 -173 143h-109v-284z" />
    <glyph glyph-name="rcaron" unicode="&#x159;" horiz-adv-x="593" 
d="M255 735l-152 177h16l144 -165l143 165h16l-151 -177h-16zM263 768l-131 144h16l115 -124l114 124h16zM263 807l-103 105h16l87 -88l86 88h16zM71 0v634h197c118 0 189 -60 189 -159s-71 -157 -189 -157h-109v-17h110c127 0 208 68 208 175s-81 175 -208 175h-198v16h198
c135 0 224 -75 224 -191s-88 -191 -224 -191h-110v-17h111c146 0 243 84 243 208c0 123 -98 208 -243 208h-199v16h199c164 0 259 -101 259 -224c0 -92 -52 -170 -145 -205l179 -271h-20l-175 266c-6 -2 -13 -4 -19 -5l171 -261h-20l-170 257l-21 -3l168 -254h-20l-166 253
c-7 -1 -14 -1 -21 -1h-111v-252h-16v618h-20v-618h-16v618h-20v-618h-16zM159 334h109c109 0 173 51 173 141c0 91 -65 143 -173 143h-109v-284z" />
    <glyph glyph-name="rcommaaccent" unicode="&#x157;" horiz-adv-x="593" 
d="M71 0v634h197c118 0 189 -60 189 -159s-71 -157 -189 -157h-109v-17h110c127 0 208 68 208 175s-81 175 -208 175h-198v16h198c135 0 224 -75 224 -191s-88 -191 -224 -191h-110v-17h111c146 0 243 84 243 208c0 123 -98 208 -243 208h-199v16h199
c164 0 259 -101 259 -224c0 -92 -52 -170 -145 -205l179 -271h-20l-175 266c-6 -2 -13 -4 -19 -5l171 -261h-20l-170 257l-21 -3l168 -254h-20l-166 253c-7 -1 -14 -1 -21 -1h-111v-252h-16v618h-20v-618h-16v618h-20v-618h-16zM159 334h109c109 0 173 51 173 141
c0 91 -65 143 -173 143h-109v-284zM245 -224l37 78c-23 7 -39 27 -39 53c0 30 24 54 55 54c30 0 56 -24 56 -54c0 -16 -8 -35 -27 -71l-31 -60h-16l34 68c16 32 25 49 25 63c0 21 -18 39 -41 39c-22 0 -40 -17 -40 -39s18 -39 40 -39h4l4 1l-45 -93h-16zM298 -117
c-13 0 -25 10 -25 24c0 13 12 24 25 24c14 0 26 -12 26 -24c0 -13 -12 -24 -26 -24zM298 -102c7 0 9 5 9 9s-2 8 -9 8c-6 0 -10 -4 -10 -8c0 -5 4 -9 10 -9z" />
    <glyph glyph-name="s" unicode="s" horiz-adv-x="577" 
d="M293 53c-91 0 -159 38 -209 110l13 10c47 -69 109 -104 196 -104c100 0 162 46 162 112c0 74 -77 108 -165 145c-107 45 -206 91 -206 210c0 107 81 178 212 178c82 0 160 -28 210 -100l-13 -9c-45 64 -115 93 -197 93c-121 0 -196 -63 -196 -162
c0 -114 100 -154 196 -195c86 -36 175 -75 175 -161c0 -77 -73 -127 -178 -127zM293 20c-103 0 -179 43 -235 123l13 10c55 -81 129 -117 222 -117c119 0 198 58 198 148c0 96 -90 135 -184 175c-87 37 -187 75 -187 180c0 88 71 142 177 142c80 0 143 -30 183 -85l-13 -10
c-40 55 -102 79 -171 79c-97 0 -160 -48 -160 -126c0 -86 76 -124 177 -166c76 -32 194 -74 194 -189c0 -99 -87 -164 -214 -164zM293 -13c-114 0 -200 45 -262 135l13 10c57 -84 136 -129 249 -129c142 0 234 73 234 184c0 118 -103 161 -203 203c-81 34 -169 71 -169 152
c0 66 58 106 141 106c67 0 123 -26 156 -72l-13 -9c-34 46 -87 65 -143 65c-83 0 -125 -40 -125 -91c0 -68 73 -100 159 -136c101 -43 213 -89 213 -218c0 -124 -103 -200 -250 -200z" />
    <glyph glyph-name="sacute" unicode="&#x15b;" horiz-adv-x="577" 
d="M267 750l87 161h20l-91 -161h-16zM297 750l101 161h20l-105 -161h-16zM326 750l115 161h20l-119 -161h-16zM293 53c-91 0 -159 38 -209 110l13 10c47 -69 109 -104 196 -104c100 0 162 46 162 112c0 74 -77 108 -165 145c-107 45 -206 91 -206 210c0 107 81 178 212 178
c82 0 160 -28 210 -100l-13 -9c-45 64 -115 93 -197 93c-121 0 -196 -63 -196 -162c0 -114 100 -154 196 -195c86 -36 175 -75 175 -161c0 -77 -73 -127 -178 -127zM293 20c-103 0 -179 43 -235 123l13 10c55 -81 129 -117 222 -117c119 0 198 58 198 148
c0 96 -90 135 -184 175c-87 37 -187 75 -187 180c0 88 71 142 177 142c80 0 143 -30 183 -85l-13 -10c-40 55 -102 79 -171 79c-97 0 -160 -48 -160 -126c0 -86 76 -124 177 -166c76 -32 194 -74 194 -189c0 -99 -87 -164 -214 -164zM293 -13c-114 0 -200 45 -262 135l13 10
c57 -84 136 -129 249 -129c142 0 234 73 234 184c0 118 -103 161 -203 203c-81 34 -169 71 -169 152c0 66 58 106 141 106c67 0 123 -26 156 -72l-13 -9c-34 46 -87 65 -143 65c-83 0 -125 -40 -125 -91c0 -68 73 -100 159 -136c101 -43 213 -89 213 -218
c0 -124 -103 -200 -250 -200z" />
    <glyph glyph-name="scaron" unicode="&#x161;" horiz-adv-x="577" 
d="M292 735l-152 177h16l144 -165l143 165h16l-151 -177h-16zM300 768l-131 144h16l115 -124l114 124h16zM300 807l-103 105h16l87 -88l86 88h16zM293 53c-91 0 -159 38 -209 110l13 10c47 -69 109 -104 196 -104c100 0 162 46 162 112c0 74 -77 108 -165 145
c-107 45 -206 91 -206 210c0 107 81 178 212 178c82 0 160 -28 210 -100l-13 -9c-45 64 -115 93 -197 93c-121 0 -196 -63 -196 -162c0 -114 100 -154 196 -195c86 -36 175 -75 175 -161c0 -77 -73 -127 -178 -127zM293 20c-103 0 -179 43 -235 123l13 10
c55 -81 129 -117 222 -117c119 0 198 58 198 148c0 96 -90 135 -184 175c-87 37 -187 75 -187 180c0 88 71 142 177 142c80 0 143 -30 183 -85l-13 -10c-40 55 -102 79 -171 79c-97 0 -160 -48 -160 -126c0 -86 76 -124 177 -166c76 -32 194 -74 194 -189
c0 -99 -87 -164 -214 -164zM293 -13c-114 0 -200 45 -262 135l13 10c57 -84 136 -129 249 -129c142 0 234 73 234 184c0 118 -103 161 -203 203c-81 34 -169 71 -169 152c0 66 58 106 141 106c67 0 123 -26 156 -72l-13 -9c-34 46 -87 65 -143 65c-83 0 -125 -40 -125 -91
c0 -68 73 -100 159 -136c101 -43 213 -89 213 -218c0 -124 -103 -200 -250 -200z" />
    <glyph glyph-name="scedilla" unicode="&#x15f;" horiz-adv-x="577" 
d="M293 53c-91 0 -159 38 -209 110l13 10c47 -69 109 -104 196 -104c100 0 162 46 162 112c0 74 -77 108 -165 145c-107 45 -206 91 -206 210c0 107 81 178 212 178c82 0 160 -28 210 -100l-13 -9c-45 64 -115 93 -197 93c-121 0 -196 -63 -196 -162
c0 -114 100 -154 196 -195c86 -36 175 -75 175 -161c0 -77 -73 -127 -178 -127zM293 20c-103 0 -179 43 -235 123l13 10c55 -81 129 -117 222 -117c119 0 198 58 198 148c0 96 -90 135 -184 175c-87 37 -187 75 -187 180c0 88 71 142 177 142c80 0 143 -30 183 -85l-13 -10
c-40 55 -102 79 -171 79c-97 0 -160 -48 -160 -126c0 -86 76 -124 177 -166c76 -32 194 -74 194 -189c0 -99 -87 -164 -214 -164zM293 -13c-114 0 -200 45 -262 135l13 10c57 -84 136 -129 249 -129c142 0 234 73 234 184c0 118 -103 161 -203 203c-81 34 -169 71 -169 152
c0 66 58 106 141 106c67 0 123 -26 156 -72l-13 -9c-34 46 -87 65 -143 65c-83 0 -125 -40 -125 -91c0 -68 73 -100 159 -136c101 -43 213 -89 213 -218c0 -124 -103 -200 -250 -200zM305 -243c-34 0 -72 9 -90 14v17c36 -10 67 -15 90 -15c63 0 112 39 112 87
c0 46 -45 81 -110 81c-14 0 -25 0 -45 -3v14c15 3 31 3 45 3c75 0 126 -40 126 -95c0 -58 -56 -103 -128 -103zM295 -217c-28 0 -62 7 -80 12v16c22 -6 54 -12 80 -12c51 0 89 27 89 63c0 32 -35 55 -89 55h-33v12c12 1 22 1 33 1c64 0 105 -26 105 -68
c0 -46 -45 -79 -105 -79zM285 -191c-20 0 -50 4 -70 10v17c15 -5 47 -11 70 -11c46 0 66 21 66 40c0 16 -21 29 -68 29h-21v14h21c52 0 84 -14 84 -43c0 -33 -34 -56 -82 -56z" />
    <glyph glyph-name="scircumflex" unicode="&#x15d;" horiz-adv-x="577" 
d="M140 749l152 177h16l151 -177h-16l-143 165l-144 -165h-16zM169 749l131 144l130 -144h-16l-114 124l-115 -124h-16zM197 749l103 105l102 -105h-16l-86 88l-87 -88h-16zM293 53c-91 0 -159 38 -209 110l13 10c47 -69 109 -104 196 -104c100 0 162 46 162 112
c0 74 -77 108 -165 145c-107 45 -206 91 -206 210c0 107 81 178 212 178c82 0 160 -28 210 -100l-13 -9c-45 64 -115 93 -197 93c-121 0 -196 -63 -196 -162c0 -114 100 -154 196 -195c86 -36 175 -75 175 -161c0 -77 -73 -127 -178 -127zM293 20c-103 0 -179 43 -235 123
l13 10c55 -81 129 -117 222 -117c119 0 198 58 198 148c0 96 -90 135 -184 175c-87 37 -187 75 -187 180c0 88 71 142 177 142c80 0 143 -30 183 -85l-13 -10c-40 55 -102 79 -171 79c-97 0 -160 -48 -160 -126c0 -86 76 -124 177 -166c76 -32 194 -74 194 -189
c0 -99 -87 -164 -214 -164zM293 -13c-114 0 -200 45 -262 135l13 10c57 -84 136 -129 249 -129c142 0 234 73 234 184c0 118 -103 161 -203 203c-81 34 -169 71 -169 152c0 66 58 106 141 106c67 0 123 -26 156 -72l-13 -9c-34 46 -87 65 -143 65c-83 0 -125 -40 -125 -91
c0 -68 73 -100 159 -136c101 -43 213 -89 213 -218c0 -124 -103 -200 -250 -200z" />
    <glyph glyph-name="scommaaccent" unicode="&#x219;" horiz-adv-x="577" 
d="M293 53c-91 0 -159 38 -209 110l13 10c47 -69 109 -104 196 -104c100 0 162 46 162 112c0 74 -77 108 -165 145c-107 45 -206 91 -206 210c0 107 81 178 212 178c82 0 160 -28 210 -100l-13 -9c-45 64 -115 93 -197 93c-121 0 -196 -63 -196 -162
c0 -114 100 -154 196 -195c86 -36 175 -75 175 -161c0 -77 -73 -127 -178 -127zM293 20c-103 0 -179 43 -235 123l13 10c55 -81 129 -117 222 -117c119 0 198 58 198 148c0 96 -90 135 -184 175c-87 37 -187 75 -187 180c0 88 71 142 177 142c80 0 143 -30 183 -85l-13 -10
c-40 55 -102 79 -171 79c-97 0 -160 -48 -160 -126c0 -86 76 -124 177 -166c76 -32 194 -74 194 -189c0 -99 -87 -164 -214 -164zM293 -13c-114 0 -200 45 -262 135l13 10c57 -84 136 -129 249 -129c142 0 234 73 234 184c0 118 -103 161 -203 203c-81 34 -169 71 -169 152
c0 66 58 106 141 106c67 0 123 -26 156 -72l-13 -9c-34 46 -87 65 -143 65c-83 0 -125 -40 -125 -91c0 -68 73 -100 159 -136c101 -43 213 -89 213 -218c0 -124 -103 -200 -250 -200zM243 -224l37 78c-23 7 -39 27 -39 53c0 30 24 54 55 54c30 0 56 -24 56 -54
c0 -16 -8 -35 -27 -71l-31 -60h-16l34 68c16 32 25 49 25 63c0 21 -18 39 -41 39c-22 0 -40 -17 -40 -39s18 -39 40 -39h4l4 1l-45 -93h-16zM296 -117c-13 0 -25 10 -25 24c0 13 12 24 25 24c14 0 26 -12 26 -24c0 -13 -12 -24 -26 -24zM296 -102c7 0 9 5 9 9s-2 8 -9 8
c-6 0 -10 -4 -10 -8c0 -5 4 -9 10 -9z" />
    <glyph glyph-name="t" unicode="t" horiz-adv-x="582" 
d="M23 684v16h536v-16h-536zM23 651v16h536v-16h-536zM247 0v618h-224v16h536v-16h-224v-618h-16v618h-20v-618h-16v618h-20v-618h-16z" />
    <glyph glyph-name="tbar" unicode="&#x167;" horiz-adv-x="582" 
d="M23 700h536v-16h-536v16zM23 651v16h536v-16h-536zM23 618v16h536v-16h-224v-179h204v-16h-204v-17h204v-16h-204v-17h204v-16h-204v-357h-16v618h-20v-618h-16v618h-20v-618h-16v357h-204v16h204v17h-204v16h204v17h-204v16h204v179h-224z" />
    <glyph glyph-name="tcaron" unicode="&#x165;" horiz-adv-x="582" 
d="M283 735l-152 177h16l144 -165l143 165h16l-151 -177h-16zM291 768l-131 144h16l115 -124l114 124h16zM291 807l-103 105h16l87 -88l86 88h16zM23 684v16h536v-16h-536zM23 651v16h536v-16h-536zM247 0v618h-224v16h536v-16h-224v-618h-16v618h-20v-618h-16v618h-20v-618
h-16z" />
    <glyph glyph-name="uni0163" unicode="&#x163;" horiz-adv-x="582" 
d="M23 684v16h536v-16h-536zM23 651v16h536v-16h-536zM247 0v618h-224v16h536v-16h-224v-618h-16v618h-20v-618h-16v618h-20v-618h-16zM299 -243c-34 0 -72 9 -90 14v17c36 -10 67 -15 90 -15c63 0 112 39 112 87c0 46 -45 81 -110 81c-14 0 -25 0 -45 -3v14c15 3 31 3 45 3
c75 0 126 -40 126 -95c0 -58 -56 -103 -128 -103zM289 -217c-28 0 -62 7 -80 12v16c22 -6 54 -12 80 -12c51 0 89 27 89 63c0 32 -35 55 -89 55h-33v12c12 1 22 1 33 1c64 0 105 -26 105 -68c0 -46 -45 -79 -105 -79zM279 -191c-20 0 -50 4 -70 10v17c15 -5 47 -11 70 -11
c46 0 66 21 66 40c0 16 -21 29 -68 29h-21v14h21c52 0 84 -14 84 -43c0 -33 -34 -56 -82 -56z" />
    <glyph glyph-name="uni021B" unicode="&#x21b;" horiz-adv-x="582" 
d="M23 684v16h536v-16h-536zM23 651v16h536v-16h-536zM247 0v618h-224v16h536v-16h-224v-618h-16v618h-20v-618h-16v618h-20v-618h-16zM237 -224l37 78c-23 7 -39 27 -39 53c0 30 24 54 55 54c30 0 56 -24 56 -54c0 -16 -8 -35 -27 -71l-31 -60h-16l34 68c16 32 25 49 25 63
c0 21 -18 39 -41 39c-22 0 -40 -17 -40 -39s18 -39 40 -39h4l4 1l-45 -93h-16zM290 -117c-13 0 -25 10 -25 24c0 13 12 24 25 24c14 0 26 -12 26 -24c0 -13 -12 -24 -26 -24zM290 -102c7 0 9 5 9 9s-2 8 -9 8c-6 0 -10 -4 -10 -8c0 -5 4 -9 10 -9z" />
    <glyph glyph-name="u" unicode="u" horiz-adv-x="688" 
d="M344 -15c-161 0 -273 102 -273 273v442h16v-442c0 -157 100 -257 257 -257s257 100 257 257v442h16v-442c0 -171 -112 -273 -273 -273zM344 18c-145 0 -237 94 -237 242v440h16v-440c0 -140 84 -226 221 -226c136 0 221 87 221 226v440h16v-440
c0 -148 -92 -242 -237 -242zM344 51c-125 0 -201 80 -201 210v439h16v-439c0 -123 71 -194 185 -194s185 71 185 194v439h16v-439c0 -130 -76 -210 -201 -210z" />
    <glyph glyph-name="uacute" unicode="&#xfa;" horiz-adv-x="688" 
d="M311 750l87 161h20l-91 -161h-16zM341 750l101 161h20l-105 -161h-16zM370 750l115 161h20l-119 -161h-16zM344 -15c-161 0 -273 102 -273 273v442h16v-442c0 -157 100 -257 257 -257s257 100 257 257v442h16v-442c0 -171 -112 -273 -273 -273zM344 18
c-145 0 -237 94 -237 242v440h16v-440c0 -140 84 -226 221 -226c136 0 221 87 221 226v440h16v-440c0 -148 -92 -242 -237 -242zM344 51c-125 0 -201 80 -201 210v439h16v-439c0 -123 71 -194 185 -194s185 71 185 194v439h16v-439c0 -130 -76 -210 -201 -210z" />
    <glyph glyph-name="ubreve" unicode="&#x16d;" horiz-adv-x="688" 
d="M343 749c-93 0 -164 85 -164 163h16c0 -76 71 -147 148 -147c78 0 149 71 149 147h16c0 -78 -71 -163 -165 -163zM343 779c-69 0 -134 64 -134 133h16c0 -60 58 -117 118 -117c61 0 119 57 119 117h16c0 -69 -65 -133 -135 -133zM343 811c-51 0 -102 50 -102 101h16
c0 -42 44 -85 86 -85c43 0 87 43 87 85h16c0 -51 -51 -101 -103 -101zM344 -15c-161 0 -273 102 -273 273v442h16v-442c0 -157 100 -257 257 -257s257 100 257 257v442h16v-442c0 -171 -112 -273 -273 -273zM344 18c-145 0 -237 94 -237 242v440h16v-440
c0 -140 84 -226 221 -226c136 0 221 87 221 226v440h16v-440c0 -148 -92 -242 -237 -242zM344 51c-125 0 -201 80 -201 210v439h16v-439c0 -123 71 -194 185 -194s185 71 185 194v439h16v-439c0 -130 -76 -210 -201 -210z" />
    <glyph glyph-name="ucircumflex" unicode="&#xfb;" horiz-adv-x="688" 
d="M184 749l152 177h16l151 -177h-16l-143 165l-144 -165h-16zM213 749l131 144l130 -144h-16l-114 124l-115 -124h-16zM241 749l103 105l102 -105h-16l-86 88l-87 -88h-16zM344 -15c-161 0 -273 102 -273 273v442h16v-442c0 -157 100 -257 257 -257s257 100 257 257v442h16
v-442c0 -171 -112 -273 -273 -273zM344 18c-145 0 -237 94 -237 242v440h16v-440c0 -140 84 -226 221 -226c136 0 221 87 221 226v440h16v-440c0 -148 -92 -242 -237 -242zM344 51c-125 0 -201 80 -201 210v439h16v-439c0 -123 71 -194 185 -194s185 71 185 194v439h16v-439
c0 -130 -76 -210 -201 -210z" />
    <glyph glyph-name="udieresis" unicode="&#xfc;" horiz-adv-x="688" 
d="M259 778c-28 0 -52 24 -52 52c0 29 24 52 52 52c29 0 52 -23 52 -52c0 -28 -23 -52 -52 -52zM430 778c-28 0 -52 24 -52 52c0 29 24 52 52 52c29 0 52 -23 52 -52c0 -28 -23 -52 -52 -52zM259 794c20 0 36 16 36 36s-16 36 -36 36s-36 -16 -36 -36c0 -19 17 -36 36 -36z
M430 794c20 0 36 16 36 36s-16 36 -36 36s-36 -16 -36 -36c0 -19 17 -36 36 -36zM259 810c-10 0 -20 10 -20 20c0 11 9 20 20 20s20 -9 20 -20s-9 -20 -20 -20zM430 810c-10 0 -20 10 -20 20c0 11 9 20 20 20s20 -9 20 -20s-9 -20 -20 -20zM259 824c3 0 6 3 6 6s-3 6 -6 6
s-6 -3 -6 -6s3 -6 6 -6zM430 824c3 0 6 3 6 6s-3 6 -6 6s-6 -3 -6 -6s3 -6 6 -6zM344 -15c-161 0 -273 102 -273 273v442h16v-442c0 -157 100 -257 257 -257s257 100 257 257v442h16v-442c0 -171 -112 -273 -273 -273zM344 18c-145 0 -237 94 -237 242v440h16v-440
c0 -140 84 -226 221 -226c136 0 221 87 221 226v440h16v-440c0 -148 -92 -242 -237 -242zM344 51c-125 0 -201 80 -201 210v439h16v-439c0 -123 71 -194 185 -194s185 71 185 194v439h16v-439c0 -130 -76 -210 -201 -210z" />
    <glyph glyph-name="ugrave" unicode="&#xf9;" horiz-adv-x="688" 
d="M306 750l-119 161h20l115 -161h-16zM335 750l-105 161h20l101 -161h-16zM365 750l-91 161h20l87 -161h-16zM344 -15c-161 0 -273 102 -273 273v442h16v-442c0 -157 100 -257 257 -257s257 100 257 257v442h16v-442c0 -171 -112 -273 -273 -273zM344 18
c-145 0 -237 94 -237 242v440h16v-440c0 -140 84 -226 221 -226c136 0 221 87 221 226v440h16v-440c0 -148 -92 -242 -237 -242zM344 51c-125 0 -201 80 -201 210v439h16v-439c0 -123 71 -194 185 -194s185 71 185 194v439h16v-439c0 -130 -76 -210 -201 -210z" />
    <glyph glyph-name="uhungarumlaut" unicode="&#x171;" horiz-adv-x="688" 
d="M234 750l77 161h20l-81 -161h-16zM264 750l91 161h20l-95 -161h-16zM293 750l105 161h20l-109 -161h-16zM403 750l77 161h20l-81 -161h-16zM433 750l91 161h20l-95 -161h-16zM462 750l105 161h20l-109 -161h-16zM344 -15c-161 0 -273 102 -273 273v442h16v-442
c0 -157 100 -257 257 -257s257 100 257 257v442h16v-442c0 -171 -112 -273 -273 -273zM344 18c-145 0 -237 94 -237 242v440h16v-440c0 -140 84 -226 221 -226c136 0 221 87 221 226v440h16v-440c0 -148 -92 -242 -237 -242zM344 51c-125 0 -201 80 -201 210v439h16v-439
c0 -123 71 -194 185 -194s185 71 185 194v439h16v-439c0 -130 -76 -210 -201 -210z" />
    <glyph glyph-name="umacron" unicode="&#x16b;" horiz-adv-x="688" 
d="M169 852v16h351v-16h-351zM169 821v16h351v-16h-351zM169 790v16h351v-16h-351zM344 -15c-161 0 -273 102 -273 273v442h16v-442c0 -157 100 -257 257 -257s257 100 257 257v442h16v-442c0 -171 -112 -273 -273 -273zM344 18c-145 0 -237 94 -237 242v440h16v-440
c0 -140 84 -226 221 -226c136 0 221 87 221 226v440h16v-440c0 -148 -92 -242 -237 -242zM344 51c-125 0 -201 80 -201 210v439h16v-439c0 -123 71 -194 185 -194s185 71 185 194v439h16v-439c0 -130 -76 -210 -201 -210z" />
    <glyph glyph-name="uogonek" unicode="&#x173;" horiz-adv-x="688" 
d="M601 700h16v-442c0 -104 -41 -182 -109 -228l-71 -99c-6 -8 -13 -18 -13 -31c0 -17 14 -32 39 -32c12 0 27 3 47 10v-17c-19 -6 -34 -9 -47 -9c-32 0 -55 20 -55 48c0 18 10 32 16 40l53 73c-6 -3 -12 -5 -18 -8l-48 -62c-15 -19 -24 -35 -24 -52c0 -30 26 -54 63 -54
c19 0 36 6 60 15v-17c-19 -7 -39 -14 -60 -14c-45 0 -79 31 -79 70c0 22 11 41 28 62l35 44c-5 -2 -10 -3 -15 -4l-32 -38c-24 -29 -34 -47 -34 -70c0 -43 36 -76 87 -76c15 0 36 3 70 18v-17c-13 -6 -41 -17 -72 -17c-59 0 -101 41 -101 92c0 33 18 57 39 81l20 23
c-17 -3 -34 -4 -52 -4c-161 0 -273 102 -273 273v442h16v-442c0 -157 100 -257 257 -257s257 100 257 257v442zM344 18c-145 0 -237 94 -237 242v440h16v-440c0 -140 84 -226 221 -226c136 0 221 87 221 226v440h16v-440c0 -148 -92 -242 -237 -242zM344 51
c-125 0 -201 80 -201 210v439h16v-439c0 -123 71 -194 185 -194s185 71 185 194v439h16v-439c0 -130 -76 -210 -201 -210z" />
    <glyph glyph-name="uring" unicode="&#x16f;" horiz-adv-x="688" 
d="M345 739c-52 0 -93 41 -93 92c0 49 41 91 93 91c50 0 93 -42 93 -91c0 -51 -43 -92 -93 -92zM345 755c42 0 77 35 77 76c0 40 -36 75 -77 75c-42 0 -77 -34 -77 -75c0 -42 34 -76 77 -76zM345 771c-34 0 -61 27 -61 60c0 32 28 59 61 59c32 0 61 -28 61 -59
c0 -32 -28 -60 -61 -60zM345 787c24 0 45 21 45 44c0 22 -22 43 -45 43c-24 0 -45 -20 -45 -43c0 -24 20 -44 45 -44zM344 -15c-161 0 -273 102 -273 273v442h16v-442c0 -157 100 -257 257 -257s257 100 257 257v442h16v-442c0 -171 -112 -273 -273 -273zM344 18
c-145 0 -237 94 -237 242v440h16v-440c0 -140 84 -226 221 -226c136 0 221 87 221 226v440h16v-440c0 -148 -92 -242 -237 -242zM344 51c-125 0 -201 80 -201 210v439h16v-439c0 -123 71 -194 185 -194s185 71 185 194v439h16v-439c0 -130 -76 -210 -201 -210z" />
    <glyph glyph-name="utilde" unicode="&#x169;" horiz-adv-x="688" 
d="M157 760c0 77 30 143 110 143c43 0 72 -22 99 -41c21 -15 37 -27 54 -27c37 0 47 35 48 66h14c-2 -51 -23 -82 -62 -82c-17 0 -33 9 -63 30c-27 19 -52 38 -90 38c-61 0 -96 -45 -96 -127h-14zM182 760c0 70 31 112 86 112c32 0 57 -17 81 -34s45 -34 72 -34
c46 0 72 34 72 97h14c0 -71 -31 -113 -86 -113c-33 0 -57 20 -81 36s-44 32 -72 32c-46 0 -72 -35 -72 -96h-14zM422 757c-43 0 -73 24 -100 42c-21 14 -35 26 -52 26c-36 0 -48 -32 -48 -65h-14c0 49 22 81 62 81c22 0 40 -14 61 -29c27 -19 53 -39 91 -39
c61 0 97 45 97 128h14c0 -77 -30 -144 -111 -144zM344 -15c-161 0 -273 102 -273 273v442h16v-442c0 -157 100 -257 257 -257s257 100 257 257v442h16v-442c0 -171 -112 -273 -273 -273zM344 18c-145 0 -237 94 -237 242v440h16v-440c0 -140 84 -226 221 -226
c136 0 221 87 221 226v440h16v-440c0 -148 -92 -242 -237 -242zM344 51c-125 0 -201 80 -201 210v439h16v-439c0 -123 71 -194 185 -194s185 71 185 194v439h16v-439c0 -130 -76 -210 -201 -210z" />
    <glyph glyph-name="v" unicode="v" horiz-adv-x="642" 
d="M312 -20l-302 720h18l301 -720h-17zM339 2l-291 698h18l282 -677zM358 44l-271 656h18l216 -527l216 527h18l-225 -547l9 -23l237 570h18l-246 -592l9 -22l257 614h18z" />
    <glyph glyph-name="w" unicode="w" horiz-adv-x="982" 
d="M272 -20l-262 720h18l261 -720h-17zM299 2l-251 698h18l242 -677zM688 -20l-197 507l-173 -443l-231 656h18l180 -517l195 517h18l-205 -539l9 -26l209 544l9 -23l-210 -544l8 -23l212 540l168 -446l180 517h18l-190 -539l9 -24l202 563h18l-211 -587l9 -24l222 611h18
l-239 -656l-205 540l-10 -27l206 -538l-8 -23l-207 539l-10 -26l206 -529h-18z" />
    <glyph glyph-name="wacute" unicode="&#x1e83;" horiz-adv-x="982" 
d="M458 750l87 161h20l-91 -161h-16zM488 750l101 161h20l-105 -161h-16zM517 750l115 161h20l-119 -161h-16zM272 -20l-262 720h18l261 -720h-17zM299 2l-251 698h18l242 -677zM688 -20l-197 507l-173 -443l-231 656h18l180 -517l195 517h18l-205 -539l9 -26l209 544l9 -23
l-210 -544l8 -23l212 540l168 -446l180 517h18l-190 -539l9 -24l202 563h18l-211 -587l9 -24l222 611h18l-239 -656l-205 540l-10 -27l206 -538l-8 -23l-207 539l-10 -26l206 -529h-18z" />
    <glyph glyph-name="wcircumflex" unicode="&#x175;" horiz-adv-x="982" 
d="M331 749l152 177h16l151 -177h-16l-143 165l-144 -165h-16zM360 749l131 144l130 -144h-16l-114 124l-115 -124h-16zM388 749l103 105l102 -105h-16l-86 88l-87 -88h-16zM272 -20l-262 720h18l261 -720h-17zM299 2l-251 698h18l242 -677zM688 -20l-197 507l-173 -443
l-231 656h18l180 -517l195 517h18l-205 -539l9 -26l209 544l9 -23l-210 -544l8 -23l212 540l168 -446l180 517h18l-190 -539l9 -24l202 563h18l-211 -587l9 -24l222 611h18l-239 -656l-205 540l-10 -27l206 -538l-8 -23l-207 539l-10 -26l206 -529h-18z" />
    <glyph glyph-name="wdieresis" unicode="&#x1e85;" horiz-adv-x="982" 
d="M406 778c-28 0 -52 24 -52 52c0 29 24 52 52 52c29 0 52 -23 52 -52c0 -28 -23 -52 -52 -52zM577 778c-28 0 -52 24 -52 52c0 29 24 52 52 52c29 0 52 -23 52 -52c0 -28 -23 -52 -52 -52zM406 794c20 0 36 16 36 36s-16 36 -36 36s-36 -16 -36 -36c0 -19 17 -36 36 -36z
M577 794c20 0 36 16 36 36s-16 36 -36 36s-36 -16 -36 -36c0 -19 17 -36 36 -36zM406 810c-10 0 -20 10 -20 20c0 11 9 20 20 20s20 -9 20 -20s-9 -20 -20 -20zM577 810c-10 0 -20 10 -20 20c0 11 9 20 20 20s20 -9 20 -20s-9 -20 -20 -20zM406 824c3 0 6 3 6 6s-3 6 -6 6
s-6 -3 -6 -6s3 -6 6 -6zM577 824c3 0 6 3 6 6s-3 6 -6 6s-6 -3 -6 -6s3 -6 6 -6zM272 -20l-262 720h18l261 -720h-17zM299 2l-251 698h18l242 -677zM688 -20l-197 507l-173 -443l-231 656h18l180 -517l195 517h18l-205 -539l9 -26l209 544l9 -23l-210 -544l8 -23l212 540
l168 -446l180 517h18l-190 -539l9 -24l202 563h18l-211 -587l9 -24l222 611h18l-239 -656l-205 540l-10 -27l206 -538l-8 -23l-207 539l-10 -26l206 -529h-18z" />
    <glyph glyph-name="wgrave" unicode="&#x1e81;" horiz-adv-x="982" 
d="M453 750l-119 161h20l115 -161h-16zM482 750l-105 161h20l101 -161h-16zM512 750l-91 161h20l87 -161h-16zM272 -20l-262 720h18l261 -720h-17zM299 2l-251 698h18l242 -677zM688 -20l-197 507l-173 -443l-231 656h18l180 -517l195 517h18l-205 -539l9 -26l209 544l9 -23
l-210 -544l8 -23l212 540l168 -446l180 517h18l-190 -539l9 -24l202 563h18l-211 -587l9 -24l222 611h18l-239 -656l-205 540l-10 -27l206 -538l-8 -23l-207 539l-10 -26l206 -529h-18z" />
    <glyph glyph-name="x" unicode="x" horiz-adv-x="627" 
d="M17 0l242 352l-240 348h21l480 -700h-18l-189 275l-190 -275h-18l198 288l-12 18l-211 -306h-19l220 320l-12 18l-233 -338h-19zM545 0l-481 700h20l480 -700h-19zM589 0l-481 700h19l185 -270l186 270h19l-195 -284l12 -18l207 302h20l-217 -316l12 -18l229 334h21
l-240 -348l242 -352h-19z" />
    <glyph glyph-name="uni1E8B" unicode="&#x1e8b;" horiz-adv-x="627" 
d="M313 778c-28 0 -52 24 -52 52c0 29 24 52 52 52c29 0 52 -23 52 -52c0 -28 -23 -52 -52 -52zM313 794c20 0 36 16 36 36s-16 36 -36 36s-36 -16 -36 -36c0 -19 17 -36 36 -36zM313 810c-10 0 -20 10 -20 20c0 11 9 20 20 20s20 -9 20 -20s-9 -20 -20 -20zM313 824
c3 0 6 3 6 6s-3 6 -6 6s-6 -3 -6 -6s3 -6 6 -6zM17 0l242 352l-240 348h21l480 -700h-18l-189 275l-190 -275h-18l198 288l-12 18l-211 -306h-19l220 320l-12 18l-233 -338h-19zM545 0l-481 700h20l480 -700h-19zM589 0l-481 700h19l185 -270l186 270h19l-195 -284l12 -18
l207 302h20l-217 -316l12 -18l229 334h21l-240 -348l242 -352h-19z" />
    <glyph glyph-name="y" unicode="y" horiz-adv-x="613" 
d="M263 0v272l-253 428h19l250 -425v-275h-16zM299 0v282l-246 418h19l243 -414v-286h-16zM335 0v292l-240 408h19l193 -329l193 329h19l-203 -344l12 -21l214 365h19l-224 -380l11 -19l237 399h19l-253 -424v-276h-16z" />
    <glyph glyph-name="yacute" unicode="&#xfd;" horiz-adv-x="613" 
d="M274 750l87 161h20l-91 -161h-16zM304 750l101 161h20l-105 -161h-16zM333 750l115 161h20l-119 -161h-16zM263 0v272l-253 428h19l250 -425v-275h-16zM299 0v282l-246 418h19l243 -414v-286h-16zM335 0v292l-240 408h19l193 -329l193 329h19l-203 -344l12 -21l214 365
h19l-224 -380l11 -19l237 399h19l-253 -424v-276h-16z" />
    <glyph glyph-name="ycircumflex" unicode="&#x177;" horiz-adv-x="613" 
d="M147 749l152 177h16l151 -177h-16l-143 165l-144 -165h-16zM176 749l131 144l130 -144h-16l-114 124l-115 -124h-16zM204 749l103 105l102 -105h-16l-86 88l-87 -88h-16zM263 0v272l-253 428h19l250 -425v-275h-16zM299 0v282l-246 418h19l243 -414v-286h-16zM335 0v292
l-240 408h19l193 -329l193 329h19l-203 -344l12 -21l214 365h19l-224 -380l11 -19l237 399h19l-253 -424v-276h-16z" />
    <glyph glyph-name="ydieresis" unicode="&#xff;" horiz-adv-x="613" 
d="M222 778c-28 0 -52 24 -52 52c0 29 24 52 52 52c29 0 52 -23 52 -52c0 -28 -23 -52 -52 -52zM393 778c-28 0 -52 24 -52 52c0 29 24 52 52 52c29 0 52 -23 52 -52c0 -28 -23 -52 -52 -52zM222 794c20 0 36 16 36 36s-16 36 -36 36s-36 -16 -36 -36c0 -19 17 -36 36 -36z
M393 794c20 0 36 16 36 36s-16 36 -36 36s-36 -16 -36 -36c0 -19 17 -36 36 -36zM222 810c-10 0 -20 10 -20 20c0 11 9 20 20 20s20 -9 20 -20s-9 -20 -20 -20zM393 810c-10 0 -20 10 -20 20c0 11 9 20 20 20s20 -9 20 -20s-9 -20 -20 -20zM222 824c3 0 6 3 6 6s-3 6 -6 6
s-6 -3 -6 -6s3 -6 6 -6zM393 824c3 0 6 3 6 6s-3 6 -6 6s-6 -3 -6 -6s3 -6 6 -6zM263 0v272l-253 428h19l250 -425v-275h-16zM299 0v282l-246 418h19l243 -414v-286h-16zM335 0v292l-240 408h19l193 -329l193 329h19l-203 -344l12 -21l214 365h19l-224 -380l11 -19l237 399
h19l-253 -424v-276h-16z" />
    <glyph glyph-name="ygrave" unicode="&#x1ef3;" horiz-adv-x="613" 
d="M269 750l-119 161h20l115 -161h-16zM298 750l-105 161h20l101 -161h-16zM328 750l-91 161h20l87 -161h-16zM263 0v272l-253 428h19l250 -425v-275h-16zM299 0v282l-246 418h19l243 -414v-286h-16zM335 0v292l-240 408h19l193 -329l193 329h19l-203 -344l12 -21l214 365
h19l-224 -380l11 -19l237 399h19l-253 -424v-276h-16z" />
    <glyph glyph-name="z" unicode="z" horiz-adv-x="607" 
d="M51 0v10l358 608h-309v16h318l10 17h-328v16h338l10 17h-348v16h375l-412 -700h-12zM87 0l411 700h19l-412 -700h-18zM129 0l411 700h15v-8l-361 -610h351v-16h-360l-10 -17h370v-16h-379l-11 -17h390v-16h-416z" />
    <glyph glyph-name="zacute" unicode="&#x17a;" horiz-adv-x="607" 
d="M286 750l87 161h20l-91 -161h-16zM316 750l101 161h20l-105 -161h-16zM345 750l115 161h20l-119 -161h-16zM51 0v10l358 608h-309v16h318l10 17h-328v16h338l10 17h-348v16h375l-412 -700h-12zM87 0l411 700h19l-412 -700h-18zM129 0l411 700h15v-8l-361 -610h351v-16
h-360l-10 -17h370v-16h-379l-11 -17h390v-16h-416z" />
    <glyph glyph-name="zcaron" unicode="&#x17e;" horiz-adv-x="607" 
d="M311 735l-152 177h16l144 -165l143 165h16l-151 -177h-16zM319 768l-131 144h16l115 -124l114 124h16zM319 807l-103 105h16l87 -88l86 88h16zM51 0v10l358 608h-309v16h318l10 17h-328v16h338l10 17h-348v16h375l-412 -700h-12zM87 0l411 700h19l-412 -700h-18zM129 0
l411 700h15v-8l-361 -610h351v-16h-360l-10 -17h370v-16h-379l-11 -17h390v-16h-416z" />
    <glyph glyph-name="zdotaccent" unicode="&#x17c;" horiz-adv-x="607" 
d="M319 778c-28 0 -52 24 -52 52c0 29 24 52 52 52c29 0 52 -23 52 -52c0 -28 -23 -52 -52 -52zM319 794c20 0 36 16 36 36s-16 36 -36 36s-36 -16 -36 -36c0 -19 17 -36 36 -36zM319 810c-10 0 -20 10 -20 20c0 11 9 20 20 20s20 -9 20 -20s-9 -20 -20 -20zM319 824
c3 0 6 3 6 6s-3 6 -6 6s-6 -3 -6 -6s3 -6 6 -6zM51 0v10l358 608h-309v16h318l10 17h-328v16h338l10 17h-348v16h375l-412 -700h-12zM87 0l411 700h19l-412 -700h-18zM129 0l411 700h15v-8l-361 -610h351v-16h-360l-10 -17h370v-16h-379l-11 -17h390v-16h-416z" />
    <glyph glyph-name="ordfeminine" unicode="&#xaa;" horiz-adv-x="412" 
d="M207 370c-95 0 -174 79 -174 174c0 96 79 175 174 175c33 0 63 -11 88 -29v17h16v-319h-16v11c-26 -18 -56 -29 -88 -29zM327 388v319h16v-319h-16zM359 388v319h16v-319h-16zM207 386c33 0 63 11 88 32v16c-24 -22 -54 -36 -88 -36c-77 0 -142 66 -142 146
s65 146 142 146c34 0 65 -14 88 -36v16c-25 22 -55 33 -88 33c-86 0 -158 -72 -158 -159c0 -86 72 -158 158 -158zM207 414c35 0 66 17 88 42v18c-20 -29 -52 -47 -88 -47c-59 0 -109 52 -109 117s50 118 109 118c36 0 68 -18 88 -47v16c-22 27 -53 43 -88 43
c-68 0 -126 -58 -126 -130s58 -130 126 -130zM207 443c41 0 75 27 88 65v73c-13 38 -48 65 -88 65c-49 0 -93 -45 -93 -102c0 -56 43 -101 93 -101zM49 313v16h319v-16h-319zM49 281v16h319v-16h-319zM49 249v16h319v-16h-319z" />
    <glyph glyph-name="ordmasculine" unicode="&#xba;" horiz-adv-x="416" 
d="M208 370c-96 0 -175 78 -175 174s79 175 175 175s175 -79 175 -175s-79 -174 -175 -174zM208 386c87 0 159 71 159 158s-72 159 -159 159s-159 -72 -159 -159s72 -158 159 -158zM208 398c-78 0 -143 66 -143 146s65 146 143 146s143 -66 143 -146s-65 -146 -143 -146z
M208 414c70 0 127 58 127 130s-57 130 -127 130s-127 -58 -127 -130s57 -130 127 -130zM208 427c-61 0 -110 53 -110 117c0 65 49 118 110 118c62 0 111 -53 111 -118s-50 -117 -111 -117zM208 443c52 0 95 45 95 101c0 57 -43 102 -95 102c-51 0 -94 -45 -94 -102
c0 -56 43 -101 94 -101zM49 313v16h319v-16h-319zM49 281v16h319v-16h-319zM49 249v16h319v-16h-319z" />
    <glyph glyph-name="zero" unicode="0" horiz-adv-x="594" 
d="M297 -13c-139 0 -252 124 -252 364s113 364 252 364s251 -124 251 -364s-112 -364 -251 -364zM297 3c142 0 235 134 235 347c0 212 -92 349 -235 349s-236 -137 -236 -348c0 -212 93 -348 236 -348zM297 20c-131 0 -217 130 -217 331c0 200 86 331 217 331
s216 -131 216 -331c0 -201 -85 -331 -216 -331zM297 36c121 0 200 123 200 315c0 191 -79 315 -200 315s-201 -123 -201 -315s80 -315 201 -315zM296 53c-109 0 -181 118 -181 298s72 298 181 298c110 0 182 -120 182 -298c0 -180 -73 -298 -182 -298zM296 69
c85 0 166 88 166 282s-81 282 -166 282s-165 -88 -165 -282s80 -282 165 -282z" />
    <glyph glyph-name="one" unicode="1" horiz-adv-x="357" 
d="M69 672v16l190 18v-16zM69 639v16l190 18v-16zM171 0v616l-102 -10v16l190 18v-640h-16v622l-20 -1v-621h-16v619l-20 -2v-617h-16z" />
    <glyph glyph-name="two" unicode="2" horiz-adv-x="519" 
d="M115 0l178 225c99 123 160 203 160 284c0 105 -87 190 -197 190c-89 0 -154 -44 -197 -135l-14 8c40 84 105 143 211 143c144 0 213 -119 213 -206c0 -86 -67 -173 -163 -294l-105 -133h273v-16h-286l-13 -17h299v-16h-312l-13 -17h325v-16h-359zM70 0l189 237
c95 119 159 196 159 271c0 68 -51 158 -163 158c-76 0 -129 -37 -171 -117l-14 8c45 85 104 125 185 125c122 0 179 -102 179 -174c0 -81 -69 -163 -163 -281l-181 -227h-20zM31 0v9l192 240c91 114 160 187 160 258c0 52 -39 126 -130 126c-70 0 -107 -40 -143 -99l-14 8
c48 77 91 107 157 107c83 0 146 -63 146 -142c0 -77 -73 -154 -163 -268l-191 -239h-14z" />
    <glyph glyph-name="three" unicode="3" horiz-adv-x="561" 
d="M88 684v16h412v-8l-5 -8h-407zM88 651v16h395l-11 -16h-384zM269 -15c-89 0 -179 39 -229 97l11 11c55 -60 139 -92 217 -92c132 0 232 91 232 210c0 106 -81 196 -183 210l-11 -16c98 -10 176 -94 176 -193c0 -108 -94 -194 -213 -194c-74 0 -158 33 -205 87l11 12
c43 -50 121 -83 193 -83c111 0 198 78 198 178c0 93 -76 172 -170 179l-11 -17c89 -3 162 -76 162 -161c0 -90 -80 -162 -179 -162c-68 0 -142 34 -180 78l11 11c35 -40 104 -73 169 -73c91 0 163 66 163 145c0 75 -65 146 -149 146c-10 0 -20 -1 -29 -2l176 262h-22
l-178 -265l-21 -4l181 269h-22l-176 -262l-14 9l169 253h-258v16h373l-133 -197c106 -20 188 -116 188 -226c0 -125 -104 -226 -247 -226z" />
    <glyph glyph-name="four" unicode="4" horiz-adv-x="548" 
d="M346 0v160h-329v16h329v17h-321l12 16h309v17h-297l372 494h13v-8l-352 -470h25l327 436v-26l-308 -410h26l282 377v-377h82v-16h-82v-17h82v-16h-82v-17h82v-16h-82v-160h-16v571l-20 -27v-544h-16v523l-20 -27v-496h-16zM172 242h174v233z" />
    <glyph glyph-name="five" unicode="5" horiz-adv-x="561" 
d="M138 684l3 16h337v-16h-340zM132 651l3 16h343v-16h-346zM269 -15c-89 0 -179 39 -229 97l11 11c55 -60 139 -92 217 -92c132 0 232 91 232 210c0 116 -97 213 -213 213c-37 0 -75 -9 -112 -31l-2 -15c35 19 74 29 111 29c108 0 198 -89 198 -195
c0 -108 -94 -194 -213 -194c-74 0 -158 33 -205 87l11 12c43 -50 121 -83 193 -83c111 0 198 78 198 178c0 97 -83 179 -182 179c-39 0 -79 -12 -115 -34l-3 -14c38 20 78 31 114 31c91 0 167 -74 167 -161c0 -90 -80 -162 -179 -162c-68 0 -142 34 -180 78l11 11
c35 -40 104 -73 169 -73c91 0 163 66 163 145c0 75 -65 146 -150 146c-41 0 -91 -17 -136 -47l54 307h-20l-58 -329l-16 4l57 325h-20l-56 -320l-16 4l59 332h349v-16h-263l-36 -205c30 16 67 27 108 27c126 0 229 -105 229 -229c0 -125 -104 -226 -247 -226z" />
    <glyph glyph-name="six" unicode="6" horiz-adv-x="564" 
d="M277 -15c-124 0 -232 89 -232 230c0 33 6 79 58 156l221 329h19l-227 -338c-39 -58 -55 -100 -55 -150c0 -120 92 -211 216 -211c125 0 226 93 226 209c0 113 -97 210 -210 210c-18 0 -37 -3 -55 -8l-14 -20c20 7 40 11 64 11c106 0 197 -87 197 -192
c0 -106 -94 -193 -206 -193c-111 0 -199 86 -199 192c0 46 17 87 58 148l231 342h19l-236 -350c-40 -59 -56 -96 -56 -140c0 -98 80 -176 183 -176c104 0 190 80 190 177c0 96 -83 176 -181 176c-30 0 -56 -8 -80 -18l-13 -20c24 12 53 21 86 21c93 0 169 -71 169 -158
s-78 -161 -170 -161c-90 0 -165 71 -165 158c0 47 21 81 59 137l238 354h19l-180 -268c14 3 28 4 41 4c120 0 227 -101 227 -226c0 -130 -114 -225 -242 -225zM280 67c80 0 154 64 154 145c0 78 -69 142 -153 142c-46 0 -83 -20 -106 -35c-30 -45 -44 -73 -44 -109
c0 -80 69 -143 149 -143z" />
    <glyph glyph-name="seven" unicode="7" horiz-adv-x="510" 
d="M97 0l262 618h-325v16h332l7 17h-339v16h346l7 17h-353v16h378l-297 -700h-18zM136 0l297 700h18l-297 -700h-18zM176 0l297 700h13v-9l-292 -691h-18z" />
    <glyph glyph-name="eight" unicode="8" horiz-adv-x="564" 
d="M282 -15c-130 0 -237 94 -237 213c0 76 45 144 110 184c-44 37 -72 93 -72 151c0 102 89 182 200 182c110 0 199 -80 199 -182c0 -58 -29 -113 -73 -151c67 -39 110 -108 110 -184c0 -119 -107 -213 -237 -213zM282 34c104 0 186 72 186 165c0 92 -81 168 -185 168
c-91 0 -166 74 -166 162c0 87 73 153 166 153c92 0 165 -66 165 -153c0 -53 -28 -102 -70 -131c5 -3 11 -5 16 -8c43 34 72 87 72 142c0 94 -81 167 -183 167s-184 -73 -184 -167c0 -96 85 -182 183 -182c95 0 168 -67 168 -151c0 -85 -74 -148 -168 -148s-167 62 -167 147
c0 68 46 124 112 144l-24 9c-63 -27 -107 -85 -107 -153c0 -92 82 -164 186 -164zM282 1c122 0 221 88 221 198s-100 201 -220 201c-76 0 -132 55 -132 126s57 123 132 123c74 0 131 -52 131 -124c0 -53 -31 -96 -77 -115c8 -1 15 -3 22 -6c44 26 73 73 73 125
c0 78 -65 137 -149 137c-85 0 -150 -59 -150 -137c0 -79 67 -146 150 -146c112 0 201 -83 201 -184c0 -102 -90 -181 -202 -181s-202 80 -202 180c0 70 42 131 106 162c-6 3 -11 7 -17 11c-64 -36 -108 -101 -108 -173c0 -109 99 -197 221 -197zM283 416
c74 0 115 55 115 110c0 61 -49 107 -115 107c-67 0 -116 -46 -116 -106c0 -56 41 -111 116 -111zM282 67c85 0 152 56 152 131c0 68 -57 136 -152 136c-94 0 -151 -68 -151 -137c0 -74 66 -130 151 -130z" />
    <glyph glyph-name="nine" unicode="9" horiz-adv-x="564" 
d="M158 0l163 270c-17 -4 -33 -6 -49 -6c-120 0 -227 101 -227 226c0 130 114 225 242 225c124 0 232 -89 232 -230c0 -33 -11 -79 -58 -156l-203 -329h-19l209 338c36 58 55 100 55 150c0 120 -92 211 -216 211c-125 0 -226 -93 -226 -209c0 -113 97 -210 210 -210
c20 0 41 3 62 9l12 21c-21 -8 -43 -13 -69 -13c-106 0 -197 87 -197 192c0 106 94 193 206 193c111 0 199 -86 199 -192c0 -46 -21 -87 -58 -148l-209 -342h-19l214 350c36 59 56 96 56 140c0 98 -80 176 -183 176c-104 0 -190 -80 -190 -177c0 -96 83 -176 181 -176
c31 0 58 8 83 19l11 19c-24 -12 -53 -21 -87 -21c-93 0 -169 71 -169 158s78 161 170 161c90 0 165 -71 165 -158c0 -47 -25 -81 -59 -137l-213 -354h-19zM283 346c45 0 81 19 104 34c28 45 46 73 46 110c0 80 -69 143 -149 143s-154 -64 -154 -145c0 -78 69 -142 153 -142z
" />
    <glyph glyph-name="one.superior" horiz-adv-x="200" 
d="M28 692v16l131 12v-16zM28 663v16l131 12v-16zM78 401v237l-50 -5v16l131 12v-260h-16v243l-17 -2v-241h-16v240l-16 -2v-238h-16z" />
    <glyph glyph-name="two.superior" horiz-adv-x="282" 
d="M95 401l81 97c51 62 70 99 70 129c0 44 -44 81 -105 81c-53 0 -92 -28 -108 -72l-15 7c20 49 62 81 126 81c85 0 118 -60 118 -100c0 -39 -32 -85 -74 -136l-9 -11h84v-16h-97l-12 -14h109v-16h-122l-12 -14h134v-16h-168zM56 401l90 111c38 47 66 82 66 112
c0 31 -31 56 -73 56c-37 0 -67 -18 -83 -55l-14 6c18 42 53 65 97 65c50 0 89 -32 89 -73c0 -35 -30 -71 -70 -121l-82 -101h-20zM20 401v3l96 122c36 45 62 71 62 94c0 19 -16 32 -41 32c-27 0 -44 -16 -57 -39l-14 7c17 32 40 48 71 48c34 0 57 -19 57 -47
s-22 -51 -65 -105l-91 -115h-18z" />
    <glyph glyph-name="three.superior" horiz-adv-x="295" 
d="M44 699v16h227v-8l-6 -8h-221zM44 671v16h212l-11 -16h-201zM146 396c-48 0 -99 16 -130 47l11 12c27 -27 72 -43 119 -43c70 0 119 36 119 90c0 44 -32 78 -76 87l-6 -9c43 -12 67 -45 67 -80c0 -45 -41 -77 -104 -77c-42 0 -83 13 -112 39l11 12c26 -24 64 -35 101 -35
c53 0 88 25 88 62c0 31 -24 55 -56 63c-2 0 -3 1 -5 1l-5 -8c31 -7 51 -28 51 -56c0 -32 -28 -51 -73 -51c-36 0 -70 12 -93 32l11 11c21 -17 50 -27 82 -27c28 0 57 8 57 35c0 30 -32 47 -63 43l66 99h-13l-68 -100c-5 -1 -12 -3 -18 -6l-4 3l70 103h-15l-65 -96l-13 10
l58 86h-94v16h192l-37 -55c47 -13 82 -52 82 -102c0 -61 -53 -106 -135 -106z" />
    <glyph glyph-name="four.superior" horiz-adv-x="299" 
d="M177 404v44h-166v16h166v12h-166v16h166v12h-156l193 221h22l-181 -205h16l182 205v-22l-161 -183h17l144 165v-165h31v-16h-31v-12h31v-16h-31v-12h31v-16h-31v-44h-16v238l-14 -16v-222h-16v203l-14 -16v-187h-16zM131 520h46v53z" />
    <glyph glyph-name="fraction" unicode="&#x2044;" horiz-adv-x="310" 
d="M0 366v16h310v-16h-310zM0 336v16h310v-16h-310z" />
    <glyph glyph-name="onehalf" unicode="&#xbd;" horiz-adv-x="350" 
d="M91 692v16l131 12v-16zM91 663v16l131 12v-16zM141 401v237l-50 -5v16l131 12v-260h-16v243l-17 -2v-241h-16v240l-16 -2v-238h-16zM20 366v16h310v-16h-310zM20 336v16h310v-16h-310zM129 7l81 97c51 62 70 99 70 129c0 44 -44 81 -105 81c-53 0 -92 -28 -108 -72l-15 7
c20 49 62 81 126 81c85 0 118 -60 118 -100c0 -39 -32 -85 -74 -136l-9 -11h84v-16h-97l-12 -14h109v-16h-122l-12 -14h134v-16h-168zM90 7l90 111c38 47 66 82 66 112c0 31 -31 56 -73 56c-37 0 -67 -18 -83 -55l-14 6c18 42 53 65 97 65c50 0 89 -32 89 -73
c0 -35 -30 -71 -70 -121l-82 -101h-20zM54 7v3l96 122c36 45 62 71 62 94c0 19 -16 32 -41 32c-27 0 -44 -16 -57 -39l-14 7c17 32 40 48 71 48c34 0 57 -19 57 -47s-22 -51 -65 -105l-91 -115h-18z" />
    <glyph glyph-name="onequarter" unicode="&#xbc;" horiz-adv-x="350" 
d="M91 692v16l131 12v-16zM91 663v16l131 12v-16zM141 401v237l-50 -5v16l131 12v-260h-16v243l-17 -2v-241h-16v240l-16 -2v-238h-16zM20 366v16h310v-16h-310zM20 336v16h310v-16h-310zM206 6v44h-166v16h166v12h-166v16h166v12h-156l193 221h22l-181 -205h16l182 205v-22
l-161 -183h17l144 165v-165h31v-16h-31v-12h31v-16h-31v-12h31v-16h-31v-44h-16v238l-14 -16v-222h-16v203l-14 -16v-187h-16zM160 122h46v53z" />
    <glyph glyph-name="threequarters" unicode="&#xbe;" horiz-adv-x="350" 
d="M73 699v16h227v-8l-6 -8h-221zM73 671v16h212l-11 -16h-201zM175 396c-48 0 -99 16 -130 47l11 12c27 -27 72 -43 119 -43c70 0 119 36 119 90c0 44 -32 78 -76 87l-6 -9c43 -12 67 -45 67 -80c0 -45 -41 -77 -104 -77c-42 0 -83 13 -112 39l11 12c26 -24 64 -35 101 -35
c53 0 88 25 88 62c0 31 -24 55 -56 63c-2 0 -3 1 -5 1l-5 -8c31 -7 51 -28 51 -56c0 -32 -28 -51 -73 -51c-36 0 -70 12 -93 32l11 11c21 -17 50 -27 82 -27c28 0 57 8 57 35c0 30 -32 47 -63 43l66 99h-13l-68 -100c-5 -1 -12 -3 -18 -6l-4 3l70 103h-15l-65 -96l-13 10
l58 86h-94v16h192l-37 -55c47 -13 82 -52 82 -102c0 -61 -53 -106 -135 -106zM20 366v16h310v-16h-310zM20 336v16h310v-16h-310zM206 6v44h-166v16h166v12h-166v16h166v12h-156l193 221h22l-181 -205h16l182 205v-22l-161 -183h17l144 165v-165h31v-16h-31v-12h31v-16h-31
v-12h31v-16h-31v-44h-16v238l-14 -16v-222h-16v203l-14 -16v-187h-16zM160 122h46v53z" />
    <glyph glyph-name="asterisk" unicode="*" horiz-adv-x="462" 
d="M149 440l-17 12l87 115l-137 43l6 18l135 -46l-2 143h20l-2 -143l135 46l6 -18l-137 -43l87 -115l-17 -12l-82 117zM210 600l-117 45l6 18l92 -37l-6 99h19zM252 600l6 125h19l-6 -99l92 37l6 -18zM119 463l-16 10l64 77l-97 25l6 18l121 -32zM343 463l-78 98l121 32
l6 -18l-97 -25l64 -77zM179 419l-17 12l69 105l69 -105l-17 -12l-52 83z" />
    <glyph glyph-name="backslash" unicode="\" horiz-adv-x="423" 
d="M314 -63h-17l-264 788h17zM352 -63h-17l-264 788h17zM389 -63h-17l-263 788h17z" />
    <glyph glyph-name="periodcentered" unicode="&#xb7;" horiz-adv-x="279" 
d="M142 171c-32 0 -58 25 -58 57s26 57 58 57s59 -25 59 -57s-27 -57 -59 -57zM142 187c24 0 43 19 43 41s-19 41 -43 41c-23 0 -42 -18 -42 -41s19 -41 42 -41zM142 203c-14 0 -26 11 -26 25s12 25 26 25c15 0 27 -12 27 -25s-12 -25 -27 -25zM142 219c7 0 10 5 10 9
s-3 9 -10 9c-6 0 -10 -4 -10 -9s4 -9 10 -9z" />
    <glyph glyph-name="bullet" unicode="&#x2022;" horiz-adv-x="323" 
d="M163 170c-38 0 -69 30 -69 68c0 39 31 69 69 69c39 0 71 -30 71 -69c0 -38 -32 -68 -71 -68zM163 189c29 0 52 23 52 49c0 27 -23 49 -52 49c-27 0 -50 -21 -50 -49c0 -27 23 -49 50 -49zM163 208c-16 0 -31 13 -31 30s15 30 31 30c18 0 33 -14 33 -30
c0 -15 -15 -30 -33 -30zM163 227c9 0 12 6 12 11s-3 11 -12 11c-7 0 -12 -5 -12 -11s5 -11 12 -11z" />
    <glyph glyph-name="colon" unicode=":" horiz-adv-x="279" 
d="M142 296c-32 0 -58 25 -58 57s26 57 58 57s59 -25 59 -57s-27 -57 -59 -57zM142 312c24 0 43 19 43 41s-19 41 -43 41c-23 0 -42 -18 -42 -41s19 -41 42 -41zM142 328c-14 0 -26 11 -26 25s12 25 26 25c15 0 27 -12 27 -25s-12 -25 -27 -25zM142 344c7 0 10 5 10 9
s-3 9 -10 9c-6 0 -10 -4 -10 -9s4 -9 10 -9zM142 -6c-32 0 -58 25 -58 57s26 57 58 57s59 -25 59 -57s-27 -57 -59 -57zM142 10c24 0 43 19 43 41s-19 41 -43 41c-23 0 -42 -18 -42 -41s19 -41 42 -41zM142 26c-14 0 -26 11 -26 25s12 25 26 25c15 0 27 -12 27 -25
s-12 -25 -27 -25zM142 42c7 0 10 5 10 9s-3 9 -10 9c-6 0 -10 -4 -10 -9s4 -9 10 -9z" />
    <glyph glyph-name="comma" unicode="," horiz-adv-x="279" 
d="M79 -101l47 97c-24 7 -42 28 -42 55c0 32 26 57 58 57s59 -25 59 -57c0 -17 -9 -37 -28 -74l-40 -78h-17l43 86c17 33 26 52 26 66c0 22 -19 41 -43 41c-23 0 -42 -18 -42 -41s19 -41 42 -41h4l4 1l-54 -112h-17zM142 26c-14 0 -26 11 -26 25s12 25 26 25
c15 0 27 -12 27 -25s-12 -25 -27 -25zM142 42c7 0 10 5 10 9s-3 9 -10 9c-6 0 -10 -4 -10 -9s4 -9 10 -9z" />
    <glyph glyph-name="ellipsis" unicode="&#x2026;" horiz-adv-x="728" 
d="M142 -6c-32 0 -58 25 -58 57s26 57 58 57s59 -25 59 -57s-27 -57 -59 -57zM367 -6c-32 0 -58 25 -58 57s26 57 58 57s59 -25 59 -57s-27 -57 -59 -57zM591 -6c-32 0 -58 25 -58 57s26 57 58 57s59 -25 59 -57s-27 -57 -59 -57zM142 10c24 0 43 19 43 41s-19 41 -43 41
c-23 0 -42 -18 -42 -41s19 -41 42 -41zM367 10c24 0 43 19 43 41s-19 41 -43 41c-23 0 -42 -18 -42 -41s19 -41 42 -41zM591 10c24 0 43 19 43 41s-19 41 -43 41c-23 0 -42 -18 -42 -41s19 -41 42 -41zM142 26c-14 0 -26 11 -26 25s12 25 26 25c15 0 27 -12 27 -25
s-12 -25 -27 -25zM367 26c-14 0 -26 11 -26 25s12 25 26 25c15 0 27 -12 27 -25s-12 -25 -27 -25zM591 26c-14 0 -26 11 -26 25s12 25 26 25c15 0 27 -12 27 -25s-12 -25 -27 -25zM142 42c7 0 10 5 10 9s-3 9 -10 9c-6 0 -10 -4 -10 -9s4 -9 10 -9zM367 42c7 0 10 5 10 9
s-3 9 -10 9c-6 0 -10 -4 -10 -9s4 -9 10 -9zM591 42c7 0 10 5 10 9s-3 9 -10 9c-6 0 -10 -4 -10 -9s4 -9 10 -9z" />
    <glyph glyph-name="exclam" unicode="!" horiz-adv-x="278" 
d="M106 175l-8 550h16l8 -550h-16zM134 175v550h16v-550h-16zM162 175l8 550h16l-8 -550h-16zM141 -6c-32 0 -58 25 -58 57s26 57 58 57s59 -25 59 -57s-27 -57 -59 -57zM141 10c24 0 43 19 43 41s-19 41 -43 41c-23 0 -42 -18 -42 -41s19 -41 42 -41zM141 26
c-14 0 -26 11 -26 25s12 25 26 25c15 0 27 -12 27 -25s-12 -25 -27 -25zM141 42c7 0 10 5 10 9s-3 9 -10 9c-6 0 -10 -4 -10 -9s4 -9 10 -9z" />
    <glyph glyph-name="exclamdown" unicode="&#xa1;" horiz-adv-x="278" 
d="M143 458c32 0 58 -25 58 -57s-26 -57 -58 -57s-59 25 -59 57s27 57 59 57zM143 442c-24 0 -43 -19 -43 -41s19 -41 43 -41c23 0 42 18 42 41s-19 41 -42 41zM143 426c14 0 26 -11 26 -25s-12 -25 -26 -25c-15 0 -27 12 -27 25s12 25 27 25zM143 410c-7 0 -10 -5 -10 -9
s3 -9 10 -9c6 0 10 4 10 9s-4 9 -10 9zM122 277l-8 -550h-16l8 550h16zM150 277v-550h-16v550h16zM178 277l8 -550h-16l-8 550h16z" />
    <glyph glyph-name="numbersign" unicode="#" horiz-adv-x="639" 
d="M123 0l19 180h-123l1 16h124l2 17h-124l2 16h123l2 17h-123l1 16h124l18 177h-123l1 16h124l2 17h-124l2 16h124l1 17h-123l1 16h124l19 179h16l-74 -700h-16zM159 0l74 700h16l-74 -700h-16zM195 0l74 700h16l-19 -179h145l19 179h16l-74 -700h-16l19 180h-145l-19 -180
h-16zM392 0l74 700h16l-74 -700h-16zM428 0l74 700h16l-19 -179h124l-2 -16h-124l-1 -17h123l-2 -16h-123l-2 -17h124l-2 -16h-124l-18 -177h124l-2 -16h-124l-2 -17h124l-2 -16h-123l-2 -17h124l-2 -16h-124l-19 -180h-16zM263 488h145l1 17h-145zM259 455h145l2 17h-145z
M239 262h145l18 177h-145zM235 229h145l2 17h-145zM232 196h145l2 17h-145z" />
    <glyph glyph-name="period" unicode="." horiz-adv-x="279" 
d="M142 -6c-32 0 -58 25 -58 57s26 57 58 57s59 -25 59 -57s-27 -57 -59 -57zM142 10c24 0 43 19 43 41s-19 41 -43 41c-23 0 -42 -18 -42 -41s19 -41 42 -41zM142 26c-14 0 -26 11 -26 25s12 25 26 25c15 0 27 -12 27 -25s-12 -25 -27 -25zM142 42c7 0 10 5 10 9
s-3 9 -10 9c-6 0 -10 -4 -10 -9s4 -9 10 -9z" />
    <glyph glyph-name="question" unicode="?" horiz-adv-x="492" 
d="M226 175l5 133c130 23 201 97 201 198c0 113 -89 193 -216 193c-65 0 -122 -21 -187 -68l-9 13c64 47 124 71 196 71c134 0 232 -85 232 -210c0 -114 -83 -186 -202 -210l-4 -120h-16zM198 175l-2 155c129 16 202 83 202 176c0 95 -74 160 -183 160
c-60 0 -110 -19 -166 -64l-9 13c58 47 111 67 173 67c119 0 201 -72 201 -176c0 -99 -74 -170 -202 -190l2 -141h-16zM170 175l-7 179c125 10 201 65 201 152c0 82 -67 127 -151 127c-58 0 -101 -21 -144 -60l-9 13c48 44 96 63 153 63c100 0 167 -57 167 -143
c0 -89 -72 -152 -200 -166l6 -165h-16zM205 -6c-32 0 -58 25 -58 57s26 57 58 57s59 -25 59 -57s-27 -57 -59 -57zM205 10c24 0 43 19 43 41s-19 41 -43 41c-23 0 -42 -18 -42 -41s19 -41 42 -41zM205 26c-14 0 -26 11 -26 25s12 25 26 25c15 0 27 -12 27 -25
s-12 -25 -27 -25zM205 42c7 0 10 5 10 9s-3 9 -10 9c-6 0 -10 -4 -10 -9s4 -9 10 -9z" />
    <glyph glyph-name="questiondown" unicode="&#xbf;" horiz-adv-x="492" 
d="M287 458c32 0 58 -25 58 -57s-26 -57 -58 -57s-59 25 -59 57s27 57 59 57zM287 442c-24 0 -43 -19 -43 -41s19 -41 43 -41c23 0 42 18 42 41s-19 41 -42 41zM287 426c14 0 26 -11 26 -25s-12 -25 -26 -25c-15 0 -27 12 -27 25s12 25 27 25zM287 410c-7 0 -10 -5 -10 -9
s3 -9 10 -9c6 0 10 4 10 9s-4 9 -10 9zM266 277l-5 -133c-130 -23 -201 -97 -201 -198c0 -113 89 -193 216 -193c65 0 122 21 187 68l9 -13c-64 -47 -124 -71 -196 -71c-134 0 -232 85 -232 210c0 114 83 186 202 210l4 120h16zM294 277l2 -155c-129 -16 -202 -83 -202 -176
c0 -95 74 -160 183 -160c60 0 110 19 166 64l9 -13c-58 -47 -111 -67 -173 -67c-119 0 -201 72 -201 176c0 99 74 170 202 190l-2 141h16zM322 277l7 -179c-125 -10 -201 -65 -201 -152c0 -82 67 -127 151 -127c58 0 101 21 144 60l9 -13c-48 -44 -96 -63 -153 -63
c-100 0 -167 57 -167 143c0 89 72 152 200 166l-6 165h16z" />
    <glyph glyph-name="quotedbl" unicode="&#x22;" horiz-adv-x="344" 
d="M90 492l-6 219h16l6 -219h-16zM118 492v219h16v-219h-16zM146 492l6 219h16l-6 -219h-16zM235 492l-6 219h16l6 -219h-16zM263 492v219h16v-219h-16zM291 492l6 219h16l-6 -219h-16z" />
    <glyph glyph-name="quotesingle" unicode="'" horiz-adv-x="246" 
d="M90 492l-6 219h16l6 -219h-16zM118 492v219h16v-219h-16zM146 492l6 219h16l-6 -219h-16z" />
    <glyph glyph-name="semicolon" unicode=";" horiz-adv-x="279" 
d="M142 297c-32 0 -58 25 -58 57s26 57 58 57s59 -25 59 -57s-27 -57 -59 -57zM142 313c24 0 43 19 43 41s-19 41 -43 41c-23 0 -42 -18 -42 -41s19 -41 42 -41zM142 329c-14 0 -26 11 -26 25s12 25 26 25c15 0 27 -12 27 -25s-12 -25 -27 -25zM142 345c7 0 10 5 10 9
s-3 9 -10 9c-6 0 -10 -4 -10 -9s4 -9 10 -9zM79 -101l47 97c-24 7 -42 28 -42 55c0 32 26 57 58 57s59 -25 59 -57c0 -17 -9 -37 -28 -74l-40 -78h-17l43 86c17 33 26 52 26 66c0 22 -19 41 -43 41c-23 0 -42 -18 -42 -41s19 -41 42 -41h4l4 1l-54 -112h-17zM142 26
c-14 0 -26 11 -26 25s12 25 26 25c15 0 27 -12 27 -25s-12 -25 -27 -25zM142 42c7 0 10 5 10 9s-3 9 -10 9c-6 0 -10 -4 -10 -9s4 -9 10 -9z" />
    <glyph glyph-name="slash" unicode="/" horiz-adv-x="423" 
d="M34 -63l263 788h17l-263 -788h-17zM71 -63l264 788h17l-264 -788h-17zM109 -63l264 788h17l-264 -788h-17z" />
    <glyph glyph-name="underscore" unicode="_" horiz-adv-x="591" 
d="M0 -63v16h591v-16h-591zM0 -92v16h591v-16h-591zM0 -121v16h591v-16h-591z" />
    <glyph glyph-name="braceleft" unicode="{" horiz-adv-x="284" 
d="M234 -57c-42 0 -61 23 -61 72v169c0 77 -66 138 -136 138v16c45 0 67 36 67 92v157c0 95 43 138 134 138h20v-16h-20c-83 0 -118 -37 -118 -122v-157c0 -48 -15 -82 -43 -98c5 -2 10 -3 14 -5c29 19 48 56 48 97v163c0 72 30 105 97 105h22v-16h-22
c-57 0 -81 -25 -81 -89v-163c0 -43 -18 -82 -47 -105c4 -3 9 -5 13 -8c31 24 52 63 52 107v169c0 49 19 72 61 72h24v-16h-24c-31 0 -45 -13 -45 -56v-169c0 -52 -23 -91 -55 -117c32 -26 55 -66 55 -117v-169c0 -43 14 -56 45 -56h24v-16h-24zM236 -90
c-67 0 -97 33 -97 105v163c0 65 -45 115 -102 115v16c66 0 118 -58 118 -131v-163c0 -64 24 -89 81 -89h22v-16h-22zM238 -123c-91 0 -134 43 -134 138v157c0 56 -22 92 -67 92v16c53 0 83 -41 83 -108v-157c0 -85 35 -122 118 -122h20v-16h-20z" />
    <glyph glyph-name="braceright" unicode="}" horiz-adv-x="284" 
d="M50 -57h-24v16h24c31 0 45 13 45 56v169c0 51 23 91 55 117c-32 26 -55 65 -55 117v169c0 43 -14 56 -45 56h-24v16h24c42 0 61 -23 61 -72v-169c0 -44 21 -83 52 -107c4 3 9 5 13 8c-29 23 -47 62 -47 105v163c0 64 -24 89 -81 89h-22v16h22c67 0 97 -33 97 -105v-163
c0 -41 19 -78 48 -97c4 2 9 3 14 5c-28 16 -43 50 -43 98v157c0 85 -35 122 -118 122h-20v16h20c91 0 134 -43 134 -138v-157c0 -56 22 -92 67 -92v-16c-70 0 -136 -61 -136 -138v-169c0 -49 -19 -72 -61 -72zM48 -90h-22v16h22c57 0 81 25 81 89v163c0 73 52 131 118 131
v-16c-57 0 -102 -50 -102 -115v-163c0 -72 -30 -105 -97 -105zM46 -123h-20v16h20c83 0 118 37 118 122v157c0 67 30 108 83 108v-16c-45 0 -67 -36 -67 -92v-157c0 -95 -43 -138 -134 -138z" />
    <glyph glyph-name="bracketleft" unicode="[" horiz-adv-x="220" 
d="M39 -123v848h16v-848h-16zM75 -123v848h16v-848h-16zM111 -123v848h82v-16h-66v-17h66v-16h-66v-17h66v-16h-66v-684h66v-16h-66v-17h66v-16h-66v-17h66v-16h-82z" />
    <glyph glyph-name="bracketright" unicode="]" horiz-adv-x="220" 
d="M109 -123h-82v16h66v17h-66v16h66v17h-66v16h66v684h-66v16h66v17h-66v16h66v17h-66v16h82v-848zM145 -123h-16v848h16v-848zM181 -123h-16v848h16v-848z" />
    <glyph glyph-name="parenleft" unicode="(" horiz-adv-x="270" 
d="M216 -146c-113 101 -195 258 -195 447s82 346 195 447l11 -12c-120 -108 -190 -266 -190 -435s70 -327 190 -435zM235 -126c-93 85 -177 232 -177 427s84 342 177 427l11 -12c-91 -82 -172 -223 -172 -415s81 -333 172 -415zM254 -106c-101 92 -160 243 -160 407
s59 315 160 407l11 -12c-72 -65 -155 -197 -155 -395s83 -330 155 -395z" />
    <glyph glyph-name="parenright" unicode=")" horiz-adv-x="270" 
d="M54 -146l-11 12c120 108 190 266 190 435s-70 327 -190 435l11 12c113 -101 195 -258 195 -447s-82 -346 -195 -447zM35 -126l-11 12c91 82 172 223 172 415s-81 333 -172 415l11 12c93 -85 177 -232 177 -427s-84 -342 -177 -427zM16 -106l-11 12c72 65 155 197 155 395
s-83 330 -155 395l11 12c101 -92 160 -243 160 -407s-59 -315 -160 -407z" />
    <glyph glyph-name="emdash" unicode="&#x2014;" horiz-adv-x="919" 
d="M20 344v16h880v-16h-880zM20 313v16h880v-16h-880zM20 282v16h880v-16h-880z" />
    <glyph glyph-name="endash" unicode="&#x2013;" horiz-adv-x="559" 
d="M20 344v16h520v-16h-520zM20 313v16h520v-16h-520zM20 282v16h520v-16h-520z" />
    <glyph glyph-name="hyphen" unicode="-" horiz-adv-x="242" 
d="M20 344v16h203v-16h-203zM20 313v16h203v-16h-203zM20 282v16h203v-16h-203z" />
    <glyph glyph-name="guillemotleft" unicode="&#xab;" horiz-adv-x="511" 
d="M207 5l-155 221l155 221l15 -8l-150 -213l150 -213zM391 5l-155 221l155 221l15 -8l-150 -213l150 -213zM234 19l-141 207l141 207l14 -8l-136 -199l136 -199zM418 19l-141 207l141 207l14 -8l-136 -199l136 -199zM260 33l-127 193l127 193l14 -8l-122 -185l122 -185z
M444 33l-127 193l127 193l14 -8l-122 -185l122 -185z" />
    <glyph glyph-name="guillemotright" unicode="&#xbb;" horiz-adv-x="514" 
d="M120 5l-15 8l150 213l-150 213l15 8l155 -221zM307 5l-15 8l150 213l-150 213l15 8l155 -221zM93 19l-14 8l136 199l-136 199l14 8l141 -207zM280 19l-14 8l136 199l-136 199l14 8l141 -207zM67 33l-14 8l122 185l-122 185l14 8l127 -193zM254 33l-14 8l122 185l-122 185
l14 8l127 -193z" />
    <glyph glyph-name="guilsinglleft" unicode="&#x2039;" horiz-adv-x="327" 
d="M207 5l-155 221l155 221l15 -8l-150 -213l150 -213zM234 19l-141 207l141 207l14 -8l-136 -199l136 -199zM260 33l-127 193l127 193l14 -8l-122 -185l122 -185z" />
    <glyph glyph-name="guilsinglright" unicode="&#x203a;" horiz-adv-x="327" 
d="M120 5l-15 8l150 213l-150 213l15 8l155 -221zM93 19l-14 8l136 199l-136 199l14 8l141 -207zM67 33l-14 8l122 185l-122 185l14 8l127 -193z" />
    <glyph glyph-name="quotedblbase" unicode="&#x201e;" horiz-adv-x="428" 
d="M79 -101l47 97c-24 7 -42 28 -42 55c0 32 26 57 58 57s59 -25 59 -57c0 -17 -9 -37 -28 -74l-40 -78h-17l43 86c17 33 26 52 26 66c0 22 -19 41 -43 41c-23 0 -42 -18 -42 -41s19 -41 42 -41h4l4 1l-54 -112h-17zM227 -101l47 97c-24 7 -42 28 -42 55c0 32 26 57 58 57
s59 -25 59 -57c0 -17 -9 -37 -28 -74l-40 -78h-17l43 86c17 33 26 52 26 66c0 22 -19 41 -43 41c-23 0 -42 -18 -42 -41s19 -41 42 -41h4l4 1l-54 -112h-17zM142 26c-14 0 -26 11 -26 25s12 25 26 25c15 0 27 -12 27 -25s-12 -25 -27 -25zM290 26c-14 0 -26 11 -26 25
s12 25 26 25c15 0 27 -12 27 -25s-12 -25 -27 -25zM142 42c7 0 10 5 10 9s-3 9 -10 9c-6 0 -10 -4 -10 -9s4 -9 10 -9zM290 42c7 0 10 5 10 9s-3 9 -10 9c-6 0 -10 -4 -10 -9s4 -9 10 -9z" />
    <glyph glyph-name="quotedblleft" unicode="&#x201c;" horiz-adv-x="428" 
d="M200 710l-47 -97c24 -7 42 -28 42 -55c0 -32 -26 -57 -58 -57s-59 25 -59 57c0 17 9 37 28 74l40 78h17l-43 -86c-17 -33 -26 -52 -26 -66c0 -22 19 -41 43 -41c23 0 42 18 42 41s-19 41 -42 41h-4l-4 -1l54 112h17zM349 710l-47 -97c24 -7 42 -28 42 -55
c0 -32 -26 -57 -58 -57s-59 25 -59 57c0 17 9 37 28 74l40 78h17l-43 -86c-17 -33 -26 -52 -26 -66c0 -22 19 -41 43 -41c23 0 42 18 42 41s-19 41 -42 41h-4l-4 -1l54 112h17zM137 583c14 0 26 -11 26 -25s-12 -25 -26 -25c-15 0 -27 12 -27 25s12 25 27 25zM286 583
c14 0 26 -11 26 -25s-12 -25 -26 -25c-15 0 -27 12 -27 25s12 25 27 25zM137 567c-7 0 -10 -5 -10 -9s3 -9 10 -9c6 0 10 4 10 9s-4 9 -10 9zM286 567c-7 0 -10 -5 -10 -9s3 -9 10 -9c6 0 10 4 10 9s-4 9 -10 9z" />
    <glyph glyph-name="quotedblright" unicode="&#x201d;" horiz-adv-x="428" 
d="M79 501l47 97c-24 7 -42 28 -42 55c0 32 26 57 58 57s59 -25 59 -57c0 -17 -9 -37 -28 -74l-40 -78h-17l43 86c17 33 26 52 26 66c0 22 -19 41 -43 41c-23 0 -42 -18 -42 -41s19 -41 42 -41h4l4 1l-54 -112h-17zM227 501l47 97c-24 7 -42 28 -42 55c0 32 26 57 58 57
s59 -25 59 -57c0 -17 -9 -37 -28 -74l-40 -78h-17l43 86c17 33 26 52 26 66c0 22 -19 41 -43 41c-23 0 -42 -18 -42 -41s19 -41 42 -41h4l4 1l-54 -112h-17zM142 628c-14 0 -26 11 -26 25s12 25 26 25c15 0 27 -12 27 -25s-12 -25 -27 -25zM290 628c-14 0 -26 11 -26 25
s12 25 26 25c15 0 27 -12 27 -25s-12 -25 -27 -25zM142 644c7 0 10 5 10 9s-3 9 -10 9c-6 0 -10 -4 -10 -9s4 -9 10 -9zM290 644c7 0 10 5 10 9s-3 9 -10 9c-6 0 -10 -4 -10 -9s4 -9 10 -9z" />
    <glyph glyph-name="quoteleft" unicode="&#x2018;" horiz-adv-x="279" 
d="M200 710l-47 -97c24 -7 42 -28 42 -55c0 -32 -26 -57 -58 -57s-59 25 -59 57c0 17 9 37 28 74l40 78h17l-43 -86c-17 -33 -26 -52 -26 -66c0 -22 19 -41 43 -41c23 0 42 18 42 41s-19 41 -42 41h-4l-4 -1l54 112h17zM137 583c14 0 26 -11 26 -25s-12 -25 -26 -25
c-15 0 -27 12 -27 25s12 25 27 25zM137 567c-7 0 -10 -5 -10 -9s3 -9 10 -9c6 0 10 4 10 9s-4 9 -10 9z" />
    <glyph glyph-name="quoteright" unicode="&#x2019;" horiz-adv-x="279" 
d="M79 501l47 97c-24 7 -42 28 -42 55c0 32 26 57 58 57s59 -25 59 -57c0 -17 -9 -37 -28 -74l-40 -78h-17l43 86c17 33 26 52 26 66c0 22 -19 41 -43 41c-23 0 -42 -18 -42 -41s19 -41 42 -41h4l4 1l-54 -112h-17zM142 628c-14 0 -26 11 -26 25s12 25 26 25
c15 0 27 -12 27 -25s-12 -25 -27 -25zM142 644c7 0 10 5 10 9s-3 9 -10 9c-6 0 -10 -4 -10 -9s4 -9 10 -9z" />
    <glyph glyph-name="quotesinglbase" unicode="&#x201a;" horiz-adv-x="279" 
d="M79 -101l47 97c-24 7 -42 28 -42 55c0 32 26 57 58 57s59 -25 59 -57c0 -17 -9 -37 -28 -74l-40 -78h-17l43 86c17 33 26 52 26 66c0 22 -19 41 -43 41c-23 0 -42 -18 -42 -41s19 -41 42 -41h4l4 1l-54 -112h-17zM142 26c-14 0 -26 11 -26 25s12 25 26 25
c15 0 27 -12 27 -25s-12 -25 -27 -25zM142 42c7 0 10 5 10 9s-3 9 -10 9c-6 0 -10 -4 -10 -9s4 -9 10 -9z" />
    <glyph glyph-name="uni2003" unicode="&#x2003;" horiz-adv-x="996" 
 />
    <glyph glyph-name="uni2002" unicode="&#x2002;" horiz-adv-x="496" 
 />
    <glyph glyph-name="space" unicode=" " horiz-adv-x="256" 
 />
    <glyph glyph-name="cent" unicode="&#xa2;" horiz-adv-x="445" 
d="M207 24v93c-107 18 -179 101 -179 199s74 183 179 200v76h16v-73c5 0 9 1 14 1v72h16v-72c5 0 9 0 14 -1v73h16v-74c48 -6 91 -26 132 -62l-9 -13c-47 41 -98 61 -157 61c-115 0 -205 -83 -205 -188c0 -106 90 -187 208 -187c57 0 101 17 157 60l9 -14
c-45 -34 -86 -54 -135 -60v-91h-16v89h-14v-89h-16v89l-14 2v-91h-16zM252 146c-107 0 -190 75 -190 171c0 95 83 170 189 170c54 0 104 -18 147 -55l-9 -13c-41 35 -87 52 -138 52c-97 0 -173 -68 -173 -154c0 -87 76 -155 174 -155c48 0 91 16 139 53l9 -13
c-49 -39 -96 -56 -148 -56zM251 179c-86 0 -154 61 -154 138s69 137 156 137c45 0 91 -17 128 -46l-9 -13c-36 28 -79 43 -119 43c-81 0 -140 -56 -140 -121c0 -66 59 -122 138 -122c44 0 86 18 123 47l9 -14c-42 -33 -87 -49 -132 -49z" />
    <glyph glyph-name="currency" unicode="&#xa4;" horiz-adv-x="487" 
d="M83 76l-11 11l52 51c-4 3 -8 6 -11 9l-51 -50l-11 11l50 50c-4 3 -7 6 -10 10l-50 -50l-11 11l51 52c-24 31 -38 71 -38 113c0 41 13 80 36 111l-51 52l11 11l50 -50l9 10l-49 50l11 11l50 -50l11 9l-51 51l11 11l54 -53c31 20 69 32 109 32c41 0 80 -12 112 -33l53 52
l11 -11l-51 -51l11 -9l50 50l11 -11l-50 -51c4 -3 7 -7 10 -10l50 51l11 -11l-52 -53c21 -31 34 -68 34 -108c0 -41 -13 -79 -36 -111l52 -52l-11 -11l-51 51c-3 -4 -6 -8 -9 -11l50 -50l-11 -11l-50 50c-4 -3 -8 -6 -11 -9l51 -51l-11 -11l-54 53c-31 -20 -69 -32 -109 -32
c-39 0 -76 11 -107 30zM244 115c102 0 184 81 184 179s-82 179 -184 179s-185 -80 -185 -179s83 -179 185 -179zM243 131c-92 0 -168 73 -168 163s76 163 168 163c94 0 169 -74 169 -163s-75 -163 -169 -163zM244 147c84 0 152 67 152 147s-68 147 -152 147
s-153 -66 -153 -147s69 -147 153 -147zM243 163c-77 0 -136 61 -136 131s59 131 136 131c75 0 137 -59 137 -131s-62 -131 -137 -131zM243 179c67 0 121 53 121 115s-54 115 -121 115c-66 0 -120 -52 -120 -115s54 -115 120 -115z" />
    <glyph glyph-name="dollar" unicode="$" horiz-adv-x="522" 
d="M266 85c-82 0 -141 31 -185 92l13 9c45 -62 101 -85 172 -85c88 0 141 36 141 85c0 62 -85 93 -144 116c-88 34 -187 70 -187 180c0 85 59 142 158 153v74h16v-73c5 1 9 1 14 1v72h16v-72c5 0 9 0 14 -1v73h16v-74c60 -7 111 -33 154 -84l-13 -9c-43 51 -99 79 -181 79
c-112 0 -178 -54 -178 -139c0 -102 95 -133 177 -165c75 -29 154 -63 154 -131c0 -63 -67 -101 -157 -101zM264 52c-94 0 -160 36 -210 104l13 10c50 -70 115 -98 197 -98c107 0 178 47 178 120c0 88 -101 120 -163 144c-108 41 -170 78 -170 151c0 74 63 121 160 121
c70 0 127 -25 168 -73l-13 -9c-36 42 -88 66 -156 66c-89 0 -143 -42 -143 -105c0 -71 70 -101 160 -136c77 -29 173 -66 173 -158c0 -84 -79 -137 -194 -137zM234 -62v82c-88 7 -156 45 -207 116l14 10c53 -75 125 -111 224 -111c131 0 212 63 212 158
c0 99 -88 134 -182 170c-81 31 -152 63 -152 123c0 51 51 85 124 85c60 0 111 -23 144 -59l-13 -10c-33 36 -81 53 -131 53c-66 0 -108 -29 -108 -70c0 -51 67 -78 142 -107c91 -35 192 -74 192 -186c0 -95 -73 -157 -183 -170v-84h-16v82c-5 0 -9 -1 -14 -1v-81h-16v81h-14
v-81h-16z" />
    <glyph glyph-name="Euro" unicode="&#x20ac;" horiz-adv-x="558" 
d="M345 -12c-125 0 -222 86 -253 215h-74v16h71c-1 5 -2 9 -2 14h-69v16h66c0 5 0 9 -1 14h-65v16h64v15v6h-64v16h65c0 5 0 9 1 14h-66v16h67l2 14h-69v16h72c28 135 127 225 255 225c57 0 118 -16 175 -72l-9 -14c-47 47 -101 70 -166 70c-144 0 -247 -121 -247 -291
c0 -169 104 -290 247 -290c68 0 122 24 175 79l9 -14c-59 -59 -118 -81 -184 -81zM346 21c-132 0 -228 115 -228 273c0 160 95 274 229 274c59 0 111 -21 157 -64l-10 -14c-52 50 -101 62 -147 62c-125 0 -213 -106 -213 -258c0 -150 89 -257 212 -257c59 0 108 22 157 72
l9 -14c-53 -51 -104 -74 -166 -74zM347 54c-113 0 -193 100 -193 240c0 142 79 241 194 241c50 0 95 -19 139 -57l-9 -13c-50 44 -92 54 -130 54c-82 0 -144 -55 -168 -143h155v-16h-159c0 -5 -1 -9 -2 -14h161v-16h-163c-1 -5 -1 -9 -1 -14h164v-16h-165v-6v-15h165v-16
h-164l2 -14h162v-16h-159l3 -14h156v-16h-152c26 -82 87 -133 164 -133c54 0 97 23 139 65l9 -14c-47 -46 -94 -67 -148 -67z" />
    <glyph glyph-name="florin" unicode="&#x192;" horiz-adv-x="399" 
d="M39 0l61 346h-72l3 16h72l2 14h-72l3 16h72l3 14h-73l3 16h72l28 157c14 81 78 148 168 148c27 0 48 -6 62 -11l-3 -15c-19 7 -38 10 -59 10c-77 0 -138 -55 -152 -135l-102 -576h-16zM74 0l100 568c13 75 69 126 139 126c17 0 34 -3 52 -9l-3 -15c-17 6 -33 8 -49 8
c-62 0 -111 -45 -123 -112l-100 -566h-16zM108 0l99 558c11 62 54 103 110 103c14 0 28 -2 42 -6l-3 -15c-17 5 -30 5 -39 5c-56 0 -86 -45 -94 -90l-23 -133h104l-3 -16h-104l-3 -14h105l-3 -16h-105l-2 -14h105l-3 -16h-105l-61 -346h-17z" />
    <glyph glyph-name="sterling" unicode="&#xa3;" horiz-adv-x="479" 
d="M28 66v16c47 4 73 44 73 125v51h-65v16h65v14h-65v16h65v14h-65v16h65v62c0 134 77 205 192 205c51 0 109 -11 158 -53l-8 -13c-39 33 -89 50 -150 50c-111 0 -176 -69 -176 -189v-189c0 -61 -15 -103 -44 -125h23c25 26 40 70 40 128v180c0 114 58 178 161 178
c41 0 93 -9 139 -44l-8 -14c-36 28 -80 42 -131 42c-94 0 -145 -57 -145 -162v-180c0 -54 -13 -98 -35 -128h20c21 33 33 78 33 131v170c0 99 45 152 131 152c30 0 76 -7 119 -37l-8 -14c-40 29 -82 35 -111 35c-70 0 -115 -38 -115 -136v-49h161v-16h-161v-14h161v-16h-161
v-14h161v-16h-161v-45c0 -51 -11 -96 -30 -131h277v-16h-405zM28 33v16h405v-16h-405zM28 0v16h405v-16h-405z" />
    <glyph glyph-name="yen" unicode="&#xa5;" horiz-adv-x="572" 
d="M243 0v76h-123v16h123v14h-123v16h123v14h-123v16h123v36h-123v16h123v14h-123v16h117l-9 14h-108v16h99l-192 324h19l213 -362v-226h-16zM279 0v233l-209 355h19l206 -351v-237h-16zM315 0v243l-203 345h19l156 -266l156 266h19l-166 -281l12 -21l177 302h19l-187 -317
l11 -19l200 336h18l-193 -324h98v-16h-108l-8 -14h116v-16h-120v-14h120v-16h-120v-36h120v-16h-120v-14h120v-16h-120v-14h120v-16h-120v-76h-16z" />
    <glyph glyph-name="asciitilde" unicode="~" horiz-adv-x="620" 
d="M54 224c0 88 47 151 138 151c59 0 101 -28 140 -49c33 -18 61 -34 96 -34c54 0 67 39 69 78h16c-3 -59 -32 -94 -85 -94c-39 0 -71 18 -104 36c-39 21 -78 47 -132 47c-76 0 -122 -49 -122 -135h-16zM81 224c0 75 42 123 112 123c48 0 85 -23 121 -44
c36 -20 69 -40 114 -40c60 0 95 40 96 107h16c-1 -76 -43 -123 -112 -123c-49 0 -86 22 -122 42c-36 21 -69 42 -113 42c-61 0 -96 -41 -96 -107h-16zM428 219c-58 0 -101 26 -139 48c-34 20 -61 36 -95 36c-54 0 -69 -40 -70 -79h-16c1 58 32 95 86 95c38 0 69 -18 103 -38
c38 -22 77 -46 131 -46c76 0 123 50 123 135h16c0 -84 -45 -151 -139 -151z" />
    <glyph glyph-name="divide" unicode="&#xf7;" horiz-adv-x="537" 
d="M268 485c-28 0 -52 24 -52 52c0 29 24 52 52 52c29 0 52 -23 52 -52c0 -28 -23 -52 -52 -52zM268 501c20 0 36 16 36 36s-16 36 -36 36s-36 -16 -36 -36c0 -19 17 -36 36 -36zM268 517c-10 0 -20 10 -20 20c0 11 9 20 20 20s20 -9 20 -20s-9 -20 -20 -20zM268 531
c3 0 6 3 6 6s-3 6 -6 6s-6 -3 -6 -6s3 -6 6 -6zM68 376v16h401v-16h-401zM68 342v16h401v-16h-401zM68 308v16h401v-16h-401zM268 111c-28 0 -52 24 -52 52c0 29 24 52 52 52c29 0 52 -23 52 -52c0 -28 -23 -52 -52 -52zM268 127c20 0 36 16 36 36s-16 36 -36 36
s-36 -16 -36 -36c0 -19 17 -36 36 -36zM268 143c-10 0 -20 10 -20 20c0 11 9 20 20 20s20 -9 20 -20s-9 -20 -20 -20zM268 157c3 0 6 3 6 6s-3 6 -6 6s-6 -3 -6 -6s3 -6 6 -6z" />
    <glyph glyph-name="equal" unicode="=" horiz-adv-x="536" 
d="M68 469v16h400v-16h-400zM68 435v16h400v-16h-400zM68 401v16h400v-16h-400zM68 283v16h400v-16h-400zM68 249v16h400v-16h-400zM68 215v16h400v-16h-400z" />
    <glyph glyph-name="greater" unicode="&#x3e;" horiz-adv-x="535" 
d="M467 376l-375 158l6 14l369 -155v-17zM85 184l-6 15l358 152l-358 152l6 15l382 -162v-10zM71 216l-7 15l285 120l-285 120l7 15l320 -135zM98 154l-6 14l375 158v-17z" />
    <glyph glyph-name="less" unicode="&#x3c;" horiz-adv-x="535" 
d="M68 376v17l369 155l6 -14zM450 184l-382 162v10l382 162l6 -15l-358 -152l358 -152zM464 216l-320 135l320 135l7 -15l-285 -120l285 -120zM437 154l-369 155v17l375 -158z" />
    <glyph glyph-name="minus" unicode="&#x2212;" horiz-adv-x="547" 
d="M68 376v16h411v-16h-411zM68 342v16h411v-16h-411zM68 308v16h411v-16h-411z" />
    <glyph glyph-name="multiply" unicode="&#xd7;" horiz-adv-x="519" 
d="M442 206l-326 326l11 11l133 -133l133 133l11 -11l-133 -133l13 -13l133 133l11 -12l-132 -132l12 -13l133 133l11 -12l-132 -132l133 -134zM417 182l-325 325l11 12l326 -326zM393 157l-133 134l-132 -132l-12 11l132 132l-12 13l-132 -132l-12 11l132 132l-13 13
l-132 -132l-11 11l132 132l-133 133l12 12l326 -326z" />
    <glyph glyph-name="percent" unicode="%" horiz-adv-x="727" 
d="M191 316c-83 0 -150 65 -150 145c0 81 67 146 150 146s150 -65 150 -146c0 -80 -67 -145 -150 -145zM147 11l-13 9l395 587l14 -9zM191 331c75 0 134 58 134 130s-60 131 -134 131s-134 -59 -134 -131s59 -130 134 -130zM174 -6l-14 9l395 587l13 -8zM191 347
c-66 0 -119 51 -119 114s54 115 119 115s119 -52 119 -115s-53 -114 -119 -114zM199 -21l-13 8l395 587l13 -9zM191 363c57 0 103 43 103 98c0 54 -46 99 -103 99s-103 -45 -103 -99c0 -55 46 -98 103 -98zM191 378c-49 0 -88 37 -88 83s40 84 88 84s88 -38 88 -84
s-39 -83 -88 -83zM191 394c40 0 72 30 72 67s-33 68 -72 68s-72 -31 -72 -68s32 -67 72 -67zM535 -17c-83 0 -150 65 -150 145c0 81 67 146 150 146s150 -65 150 -146c0 -80 -67 -145 -150 -145zM535 -2c75 0 134 58 134 130s-60 131 -134 131s-134 -59 -134 -131
s59 -130 134 -130zM535 14c-66 0 -119 51 -119 114s54 115 119 115s119 -52 119 -115s-53 -114 -119 -114zM535 30c57 0 103 43 103 98c0 54 -46 99 -103 99s-103 -45 -103 -99c0 -55 46 -98 103 -98zM535 45c-49 0 -88 37 -88 83s40 84 88 84s88 -38 88 -84
s-39 -83 -88 -83zM535 61c40 0 72 30 72 67s-33 68 -72 68s-72 -31 -72 -68s32 -67 72 -67z" />
    <glyph glyph-name="perthousand" unicode="&#x2030;" horiz-adv-x="1058" 
d="M191 316c-83 0 -150 65 -150 145c0 81 67 146 150 146s150 -65 150 -146c0 -80 -67 -145 -150 -145zM147 11l-13 9l395 587l14 -9zM191 331c75 0 134 58 134 130s-60 131 -134 131s-134 -59 -134 -131s59 -130 134 -130zM174 -6l-14 9l395 587l13 -8zM191 347
c-66 0 -119 51 -119 114s54 115 119 115s119 -52 119 -115s-53 -114 -119 -114zM199 -21l-13 8l395 587l13 -9zM191 363c57 0 103 43 103 98c0 54 -46 99 -103 99s-103 -45 -103 -99c0 -55 46 -98 103 -98zM191 378c-49 0 -88 37 -88 83s40 84 88 84s88 -38 88 -84
s-39 -83 -88 -83zM191 394c40 0 72 30 72 67s-33 68 -72 68s-72 -31 -72 -68s32 -67 72 -67zM535 -17c-83 0 -150 65 -150 145c0 81 67 146 150 146s150 -65 150 -146c0 -80 -67 -145 -150 -145zM863 -17c-83 0 -150 65 -150 145c0 81 67 146 150 146s150 -65 150 -146
c0 -80 -67 -145 -150 -145zM535 -2c75 0 134 58 134 130s-60 131 -134 131s-134 -59 -134 -131s59 -130 134 -130zM863 -2c75 0 134 58 134 130s-60 131 -134 131s-134 -59 -134 -131s59 -130 134 -130zM535 14c-66 0 -119 51 -119 114s54 115 119 115s119 -52 119 -115
s-53 -114 -119 -114zM863 14c-66 0 -119 51 -119 114s54 115 119 115s119 -52 119 -115s-53 -114 -119 -114zM535 30c57 0 103 43 103 98c0 54 -46 99 -103 99s-103 -45 -103 -99c0 -55 46 -98 103 -98zM863 30c57 0 103 43 103 98c0 54 -46 99 -103 99s-103 -45 -103 -99
c0 -55 46 -98 103 -98zM535 45c-49 0 -88 37 -88 83s40 84 88 84s88 -38 88 -84s-39 -83 -88 -83zM863 45c-49 0 -88 37 -88 83s40 84 88 84s88 -38 88 -84s-39 -83 -88 -83zM535 61c40 0 72 30 72 67s-33 68 -72 68s-72 -31 -72 -68s32 -67 72 -67zM863 61
c40 0 72 30 72 67s-33 68 -72 68s-72 -31 -72 -68s32 -67 72 -67z" />
    <glyph glyph-name="plus" unicode="+" horiz-adv-x="547" 
d="M231 147v163h-163v16h163v18h-163v16h163v18h-163v16h163v163h16v-410h-16zM265 147v410h16v-410h-16zM299 147v410h16v-163h163v-16h-163v-18h163v-16h-163v-18h163v-16h-163v-163h-16z" />
    <glyph glyph-name="bar" unicode="|" horiz-adv-x="297" 
d="M107 -125v850h16v-850h-16zM141 -125v850h16v-850h-16zM175 -125v850h16v-850h-16z" />
    <glyph glyph-name="brokenbar" unicode="&#xa6;" horiz-adv-x="297" 
d="M107 371v354h16v-354h-16zM141 371v354h16v-354h-16zM175 371v354h16v-354h-16zM107 -125v354h16v-354h-16zM141 -125v354h16v-354h-16zM175 -125v354h16v-354h-16z" />
    <glyph glyph-name="at" unicode="@" horiz-adv-x="850" 
d="M374 -124c-190 0 -325 138 -325 332c0 231 195 424 426 424c190 0 327 -138 327 -329c0 -116 -55 -262 -177 -262c-52 0 -91 30 -104 72c-36 -35 -83 -58 -139 -58c-102 0 -168 78 -168 170c0 113 99 221 220 221c49 0 88 -18 115 -47l5 35h16l-37 -275
c-8 -57 32 -102 92 -102c111 0 161 133 161 246c0 182 -130 313 -311 313c-222 0 -410 -186 -410 -408c0 -185 128 -316 309 -316c56 0 115 9 186 43l7 -13c-60 -30 -129 -46 -193 -46zM376 -94c-175 0 -296 124 -296 302c0 215 181 394 395 394c175 0 296 -123 296 -302
c0 -118 -52 -210 -121 -210c-47 0 -66 39 -57 104l34 240h16l-34 -242c-9 -57 5 -86 41 -86c58 0 105 85 105 194c0 170 -114 286 -280 286c-206 0 -379 -171 -379 -378c0 -169 114 -286 280 -286c57 0 116 14 169 40l7 -13c-68 -33 -121 -43 -176 -43zM636 69
c-60 0 -91 43 -82 109l36 256h16l-36 -258c-8 -57 18 -95 68 -95c6 0 20 0 33 2c-1 -3 -17 -14 -35 -14zM382 71c52 0 100 23 135 61c-1 3 -1 5 -1 8c-32 -33 -76 -53 -125 -53c-83 0 -141 58 -141 142c0 101 83 186 184 186c48 0 87 -20 110 -53l2 16
c-24 33 -63 52 -112 52c-108 0 -204 -97 -204 -205c0 -89 64 -154 152 -154zM391 103c52 0 97 25 127 64l2 13c-26 -38 -69 -62 -121 -62c-69 0 -113 45 -113 115c0 85 63 150 147 150c52 0 89 -24 105 -66l3 19c-18 39 -57 63 -107 63c-92 0 -168 -78 -168 -170
c0 -75 51 -126 125 -126zM399 134c64 0 111 40 127 93l6 44c-1 55 -33 96 -99 96c-81 0 -131 -64 -131 -134c0 -52 28 -99 97 -99z" />
    <glyph glyph-name="ampersand" unicode="&#x26;" horiz-adv-x="735" 
d="M287 -15c-128 0 -216 92 -216 205c0 107 78 171 157 224c-31 43 -53 94 -53 146c0 90 69 153 171 153c60 0 107 -20 158 -66l-9 -13c-50 45 -94 63 -149 63c-92 0 -155 -56 -155 -136c0 -48 22 -104 62 -154l326 -407h-20l-62 77c-62 -57 -131 -92 -210 -92zM601 0
l-319 401c-52 65 -71 110 -71 154c0 73 55 125 134 125c51 0 99 -21 141 -59l-10 -14c-39 37 -83 57 -130 57c-71 0 -119 -45 -119 -108c0 -40 20 -86 67 -145l327 -411h-20zM644 0l-321 404c-57 71 -77 106 -77 146c0 57 42 97 98 97c43 0 89 -22 122 -54l-9 -12
c-42 39 -86 50 -113 50c-47 0 -82 -34 -82 -80c0 -37 23 -74 73 -137l165 -208c27 33 51 69 73 105l12 -10c-25 -41 -49 -77 -75 -108l12 -14c25 32 52 69 77 111l13 -10c-26 -43 -54 -81 -80 -114l12 -15c27 33 55 74 82 119l12 -10c-27 -45 -54 -86 -84 -121l110 -139h-20
zM287 1c70 0 135 29 200 89l-12 15c-63 -59 -126 -87 -190 -87c-104 0 -179 74 -179 171c0 93 67 151 140 201l-5 7l-3 4c-77 -51 -151 -110 -151 -211c0 -108 84 -189 200 -189zM285 34c61 0 120 28 180 83l-12 15c-57 -53 -114 -81 -171 -81c-82 0 -142 58 -142 138
c0 79 59 131 126 177l-9 11c-72 -48 -135 -102 -135 -187c0 -90 69 -156 163 -156zM281 67c58 0 112 30 163 77l-169 210c-62 -43 -119 -92 -119 -164c0 -64 45 -123 125 -123z" />
    <glyph glyph-name="copyright" unicode="&#xa9;" horiz-adv-x="724" 
d="M362 -11c-174 0 -317 129 -317 307s143 307 317 307c176 0 318 -129 318 -307s-142 -307 -318 -307zM362 5c171 0 302 126 302 291s-131 291 -302 291c-170 0 -301 -126 -301 -291s131 -291 301 -291zM362 21c-161 0 -285 119 -285 275s124 275 285 275
c162 0 286 -119 286 -275s-124 -275 -286 -275zM362 37c153 0 270 112 270 259s-117 259 -270 259c-152 0 -269 -112 -269 -259s117 -259 269 -259zM368 125c-97 0 -177 74 -177 172c0 100 80 173 178 173c48 0 95 -14 135 -54l-11 -12c-33 34 -73 50 -124 50
c-92 0 -162 -68 -162 -157c0 -87 71 -156 161 -156c50 0 92 17 130 54l10 -12c-39 -37 -85 -58 -140 -58zM368 155c-81 0 -143 62 -143 142c0 82 62 143 144 143c46 0 82 -15 116 -46l-11 -12c-31 29 -63 42 -105 42c-73 0 -128 -54 -128 -127c0 -71 55 -126 127 -126
c40 0 76 15 111 48l11 -13c-39 -34 -77 -51 -122 -51zM368 184c-63 0 -110 48 -110 113s47 113 110 113c37 0 66 -12 98 -39l-11 -12c-31 28 -57 35 -87 35c-53 0 -94 -40 -94 -97s41 -97 94 -97c35 0 63 15 93 42l10 -12c-35 -32 -67 -46 -103 -46z" />
    <glyph glyph-name="registered" unicode="&#xae;" horiz-adv-x="724" 
d="M362 -11c-174 0 -317 129 -317 307s143 307 317 307c176 0 318 -129 318 -307s-142 -307 -318 -307zM362 5c171 0 302 126 302 291s-131 291 -302 291c-170 0 -301 -126 -301 -291s131 -291 301 -291zM362 21c-161 0 -285 119 -285 275s124 275 285 275
c162 0 286 -119 286 -275s-124 -275 -286 -275zM362 37c153 0 270 112 270 259s-117 259 -270 259c-152 0 -269 -112 -269 -259s117 -259 269 -259zM257 142v252h125c32 0 53 -18 53 -41c0 -28 -21 -46 -54 -46h-42v-10h49c37 0 61 23 61 57c0 30 -26 52 -66 52h-126v16h126
c48 0 82 -30 82 -69c0 -42 -32 -72 -77 -72h-49v-10h57c49 0 84 35 84 82c0 46 -40 80 -96 80h-127v16h127c65 0 112 -41 112 -96c0 -40 -22 -73 -55 -88l76 -123h-18l-73 117c-6 -2 -12 -3 -18 -3l70 -114h-18l-71 113h-20l70 -113h-18l-71 113h-11v-113h-16v236h-17v-236
h-16v236h-17v-236h-16zM339 323h42c24 0 38 11 38 30c0 14 -14 25 -37 25h-43v-55z" />
    <glyph glyph-name="trademark" unicode="&#x2122;" horiz-adv-x="738" 
d="M39 700v16h248v-16h-248zM310 374l31 342h18l125 -342h-18l-64 176l-15 -176h-17l19 212l-11 30l-22 -242h-16l25 280l-11 30l-28 -310h-16zM499 374l-125 342h17l125 -342h-17zM531 374l-125 342h17l84 -230l83 230h18l-92 -254l7 -20l100 274h17l-108 -297l7 -22
l116 319h19l31 -342h-16l-27 313l-12 -33l25 -280h-16l-22 245l-11 -30l19 -215h-17l-16 177l-64 -177h-17zM39 671v16h248v-16h-248zM126 374v268h-87v16h248v-16h-85v-268h-16v268h-14v-268h-16v268h-14v-268h-16z" />
    <glyph glyph-name="degree" unicode="&#xb0;" horiz-adv-x="372" 
d="M186 430c-78 0 -141 64 -141 141s63 139 141 139c77 0 140 -63 140 -140s-63 -140 -140 -140zM186 446c68 0 124 56 124 124s-56 124 -124 124c-69 0 -125 -55 -125 -123c0 -69 56 -125 125 -125zM186 462c-60 0 -109 49 -109 109c0 59 49 107 109 107
c59 0 108 -49 108 -108s-49 -108 -108 -108zM186 478c50 0 92 42 92 92s-42 92 -92 92c-51 0 -93 -41 -93 -91c0 -51 42 -93 93 -93z" />
    <glyph glyph-name="asciicircum" unicode="^" horiz-adv-x="510" 
d="M88 527l116 182h19l-119 -182h-16zM118 527l128 182h18l128 -182h-16l-121 167l-121 -167h-16zM406 527l-119 182h19l116 -182h-16zM147 527l108 140l108 -140h-16l-92 116l-92 -116h-16z" />
    <glyph glyph-name="dagger" unicode="&#x2020;" horiz-adv-x="376" 
d="M149 -123v576h-101v16h101v14h-101v16h101v14h-101v16h101v196h16v-848h-16zM181 -123v848h16v-848h-16zM213 -123v848h16v-196h100v-16h-100v-14h100v-16h-100v-14h100v-16h-100v-576h-16z" />
    <glyph glyph-name="daggerdbl" unicode="&#x2021;" horiz-adv-x="376" 
d="M149 -123v334h-101v16h101v14h-101v16h101v14h-101v16h101v166h-101v16h101v14h-101v16h101v14h-101v16h101v196h16v-848h-16zM181 -123v848h16v-848h-16zM213 -123v848h16v-196h100v-16h-100v-14h100v-16h-100v-14h100v-16h-100v-166h100v-16h-100v-14h100v-16h-100v-14
h100v-16h-100v-334h-16z" />
    </font>
</defs>
</svg>
