<?xml version="1.0" standalone="no"?>
<!DOCTYPE svg PUBLIC "-//W3C//DTD SVG 1.1//EN" "http://www.w3.org/Graphics/SVG/1.1/DTD/svg11.dtd" >
<svg xmlns="http://www.w3.org/2000/svg" xmlns:xlink="http://www.w3.org/1999/xlink" version="1.1">
<metadata>
Created by FontForge 20170910 at Fri Jul 25 10:09:00 2014
 By Jimmy Wärting
Copyright \(c\) 2014 by Yellow Design Studio. All rights reserved.
</metadata>
<defs>
<font id="LuloCleanOne-Bold" horiz-adv-x="1059" >
  <font-face 
    font-family="Lulo Clean One"
    font-weight="700"
    font-stretch="normal"
    units-per-em="1000"
    panose-1="2 1 8 4 2 2 0 0 0 3"
    ascent="800"
    descent="-200"
    x-height="780"
    cap-height="780"
    bbox="-69 -315 1520 1171"
    underline-thickness="50"
    underline-position="-100"
    stemh="47"
    stemv="47"
    unicode-range="U+0020-F8FF"
  />
<missing-glyph horiz-adv-x="305" 
 />
    <glyph glyph-name=".notdef" horiz-adv-x="305" 
 />
    <glyph glyph-name="space" unicode=" " horiz-adv-x="511" 
 />
    <glyph glyph-name="exclam" unicode="!" horiz-adv-x="553" 
d="M50 780h223l-45 -496h-133zM35 109c0 69 57 126 126 126s126 -57 126 -126s-57 -126 -126 -126s-126 57 -126 126z" />
    <glyph glyph-name="numbersign" unicode="#" horiz-adv-x="1016" 
d="M88 446v172h128l29 162h165l-29 -162h102l29 162h165l-29 -162h99v-172h-129l-19 -113h99v-171h-129l-28 -162h-165l28 162h-102l-28 -162h-165l28 162h-98v171h128l19 113h-98zM351 446l-19 -113h102l19 113h-102z" />
    <glyph glyph-name="dollar" unicode="$" horiz-adv-x="831" 
d="M39 281h195v-1c0 -26 17 -61 73 -61c43 0 48 20 48 28c0 11 -10 23 -81 56c-83 39 -230 97 -230 227c0 87 67 155 166 180v95h178v-97c98 -28 166 -101 166 -203v-6h-195v1c0 26 -15 61 -65 61c-39 0 -43 -21 -43 -27c0 -11 12 -28 75 -53s236 -85 236 -229
c0 -93 -71 -161 -174 -184v-93h-178v97c-102 28 -171 99 -171 203v6z" />
    <glyph glyph-name="percent" unicode="%" horiz-adv-x="1321" 
d="M35 576c0 121 98 219 219 219c120 0 219 -98 219 -219s-99 -218 -219 -218c-121 0 -219 97 -219 218zM202 576c0 -29 23 -52 52 -52s53 23 53 52s-24 53 -53 53s-52 -24 -52 -53zM619 200c0 121 98 219 219 219c120 0 219 -98 219 -219s-99 -218 -219 -218
c-121 0 -219 97 -219 218zM786 200c0 -29 23 -52 52 -52s53 23 53 52s-24 53 -53 53s-52 -24 -52 -53zM375 0h-217l562 780h217z" />
    <glyph glyph-name="ampersand" unicode="&#x26;" horiz-adv-x="1049" 
d="M825 0h-255l-49 53c-105 -57 -182 -68 -237 -68c-171 0 -260 107 -260 220c0 102 73 159 163 210c-35 47 -61 100 -61 160c0 123 109 220 238 220c127 0 234 -94 234 -210c0 -93 -68 -152 -136 -192l84 -91c48 39 90 77 117 104l141 -135c-45 -44 -87 -81 -126 -112z
M288 168c29 0 63 11 99 28l-98 106c-46 -29 -66 -55 -66 -82c0 -30 24 -52 65 -52zM312 577c0 -20 13 -39 42 -70c46 28 67 50 67 74c0 27 -27 46 -54 46c-30 0 -55 -23 -55 -50z" />
    <glyph glyph-name="quotesingle" unicode="'" horiz-adv-x="514" 
d="M209 432h-134l-30 348h194z" />
    <glyph glyph-name="parenleft" unicode="(" horiz-adv-x="664" 
d="M300 1006l123 -153c-103 -81 -196 -243 -196 -463c0 -219 93 -381 196 -463l-123 -152c-142 116 -276 330 -276 615c0 286 134 499 276 616z" />
    <glyph glyph-name="parenright" unicode=")" horiz-adv-x="664" 
d="M134 -225l-123 153c103 81 196 243 196 463c0 219 -93 381 -196 463l123 152c142 -116 276 -330 276 -615c0 -286 -134 -499 -276 -616z" />
    <glyph glyph-name="asterisk" unicode="*" horiz-adv-x="769" 
d="M369 780l-25 -115l99 56l60 -185l-115 -11l83 -75l-157 -114l-47 106l-46 -104l-156 115l87 78l-115 12l61 184l100 -59l-23 112h194z" />
    <glyph glyph-name="plus" unicode="+" horiz-adv-x="778" 
d="M183 596h182v-140h142v-181h-142v-141h-182v141h-142v181h142v140z" />
    <glyph glyph-name="comma" unicode="," horiz-adv-x="553" 
d="M103 -177l-78 76c30 32 62 73 74 96c-11 12 -64 45 -64 114s57 126 126 126c66 0 125 -51 125 -136c0 -81 -71 -172 -183 -276z" />
    <glyph glyph-name="hyphen" unicode="-" horiz-adv-x="647" 
d="M360 419v-187h-303v187h303z" />
    <glyph glyph-name="period" unicode="." horiz-adv-x="550" 
d="M34 109c0 69 57 126 126 126s126 -57 126 -126s-57 -126 -126 -126s-126 57 -126 126z" />
    <glyph glyph-name="slash" unicode="/" horiz-adv-x="1069" 
d="M601 958h216l-581 -1136h-214z" />
    <glyph glyph-name="zero" unicode="0" horiz-adv-x="951" 
d="M31 390c0 208 111 405 328 405s331 -197 331 -405c0 -209 -114 -405 -331 -405s-328 196 -328 405zM230 390c0 -132 55 -212 129 -212s131 80 131 212s-57 211 -131 211s-129 -79 -129 -211z" />
    <glyph glyph-name="one" unicode="1" horiz-adv-x="623" 
d="M31 513v208l171 59h134v-780h-199v550z" />
    <glyph glyph-name="two" unicode="2" horiz-adv-x="878" 
d="M601 199v-199h-565v151l276 255c64 60 92 88 92 129c0 39 -28 66 -75 66c-51 0 -88 -31 -88 -88v-23h-195v23c0 193 152 282 286 282c146 0 274 -98 274 -260c0 -132 -96 -214 -161 -276l-66 -60h222z" />
    <glyph glyph-name="three" unicode="3" horiz-adv-x="856" 
d="M20 62l108 164c68 -36 119 -48 162 -48c65 0 98 24 98 63c0 40 -44 73 -188 73v162c143 0 174 42 174 77c0 28 -24 59 -73 59c-29 0 -75 -10 -75 -58v-4h-189v20c0 145 133 225 265 225c137 0 270 -82 270 -217c0 -66 -29 -131 -96 -177c76 -39 118 -100 118 -177
c0 -148 -136 -239 -297 -239c-86 0 -183 24 -277 77z" />
    <glyph glyph-name="four" unicode="4" horiz-adv-x="898" 
d="M565 0h-193v134h-356v155l274 491h222l-260 -459h120v147h193v-147h76v-187h-76v-134z" />
    <glyph glyph-name="five" unicode="5" horiz-adv-x="882" 
d="M568 780v-201h-291l-9 -76c31 14 57 17 100 17c146 0 254 -112 254 -258c0 -160 -130 -277 -302 -277c-140 0 -245 78 -303 171l170 99c37 -49 80 -75 132 -75c62 0 100 36 100 83c0 35 -19 80 -79 80c-37 0 -75 -16 -117 -58l-169 78l75 417h439z" />
    <glyph glyph-name="six" unicode="6" horiz-adv-x="880" 
d="M289 780h241l-159 -240c141 -5 251 -103 251 -256c0 -168 -132 -299 -295 -299c-169 0 -301 134 -301 294c0 65 18 118 65 191zM242 345c-15 -20 -21 -38 -21 -58c0 -63 46 -107 104 -107c57 0 102 46 102 104c0 56 -45 102 -103 102c-34 0 -60 -16 -82 -41z" />
    <glyph glyph-name="seven" unicode="7" horiz-adv-x="812" 
d="M32 580v200h533v-161l-305 -619h-226l303 580h-305z" />
    <glyph glyph-name="eight" unicode="8" horiz-adv-x="908" 
d="M30 231c0 85 40 145 103 182c-45 34 -72 84 -72 153c0 139 129 229 279 229c147 0 278 -90 278 -229c0 -69 -29 -119 -74 -153c63 -37 104 -97 104 -182c0 -148 -144 -246 -308 -246c-168 0 -310 98 -310 246zM234 248c0 -44 38 -88 106 -88c66 0 104 44 104 88
s-38 88 -104 88c-68 0 -106 -43 -106 -88zM259 557c0 -37 27 -74 81 -74c53 0 80 37 80 74c0 34 -27 70 -80 70c-54 0 -81 -36 -81 -70z" />
    <glyph glyph-name="nine" unicode="9" horiz-adv-x="880" 
d="M361 0h-241l159 240c-141 5 -251 103 -251 256c0 168 132 299 295 299c169 0 301 -134 301 -294c0 -65 -18 -118 -65 -191zM408 435c15 20 21 38 21 58c0 63 -46 107 -104 107c-57 0 -102 -46 -102 -104c0 -56 45 -102 103 -102c34 0 60 16 82 41z" />
    <glyph glyph-name="colon" unicode=":" horiz-adv-x="580" 
d="M49 109c0 69 57 126 126 126s126 -57 126 -126s-57 -126 -126 -126s-126 57 -126 126zM49 443c0 69 57 126 126 126s126 -57 126 -126s-57 -126 -126 -126s-126 57 -126 126z" />
    <glyph glyph-name="semicolon" unicode=";" horiz-adv-x="581" 
d="M118 -177l-78 76c30 32 62 73 74 96c-11 12 -64 45 -64 114s57 126 126 126c66 0 125 -51 125 -136c0 -81 -71 -172 -183 -276zM48 443c0 69 57 126 126 126s126 -57 126 -126s-57 -126 -126 -126s-126 57 -126 126z" />
    <glyph glyph-name="less" unicode="&#x3c;" horiz-adv-x="815" 
d="M37 279v173l483 227v-212l-248 -101l248 -102v-211z" />
    <glyph glyph-name="equal" unicode="=" horiz-adv-x="810" 
d="M57 388v182h466v-182h-466zM57 163v181h466v-181h-466z" />
    <glyph glyph-name="greater" unicode="&#x3e;" horiz-adv-x="815" 
d="M548 453v-173l-483 -227v212l248 101l-248 102v211z" />
    <glyph glyph-name="question" unicode="?" horiz-adv-x="821" 
d="M355 277h-171v32c0 97 65 147 117 185c28 21 48 38 48 67c0 20 -14 47 -51 47c-34 0 -67 -22 -67 -79v-9h-195v33c0 163 145 242 270 242c129 0 245 -88 245 -230c0 -102 -62 -158 -112 -192c-40 -29 -84 -50 -84 -94v-2zM145 109c0 69 57 126 126 126s126 -57 126 -126
s-57 -126 -126 -126s-126 57 -126 126z" />
    <glyph glyph-name="at" unicode="@" horiz-adv-x="1190" 
d="M276 373c0 119 104 218 222 218c106 0 186 -84 186 -188c0 -44 -14 -85 -37 -119c12 -13 28 -16 39 -16c45 0 85 50 85 139c0 150 -114 270 -265 270c-171 0 -316 -141 -316 -312c0 -148 113 -266 265 -266c17 0 59 -1 107 18l72 -121c-66 -29 -129 -43 -193 -43
c-229 0 -403 178 -403 401c0 260 223 474 481 474c229 0 403 -182 403 -410c0 -185 -117 -295 -239 -295c-52 0 -109 20 -150 74c-22 -8 -47 -12 -71 -12c-106 0 -186 84 -186 188zM425 384c0 -29 20 -52 50 -52c33 0 61 27 61 60c0 29 -22 52 -52 52c-33 0 -59 -27 -59 -60
z" />
    <glyph glyph-name="A" unicode="A" 
d="M316 780h198l315 -780h-218l-43 114h-307l-43 -114h-218zM500 295l-85 229l-86 -229h171z" />
    <glyph glyph-name="B" unicode="B" horiz-adv-x="992" 
d="M60 0v780h388c168 0 253 -91 253 -215c0 -79 -37 -132 -95 -164c79 -30 130 -90 130 -181c0 -129 -96 -220 -254 -220h-422zM460 318h-200v-137h200c54 0 74 29 74 70c0 40 -20 67 -74 67zM436 598h-176v-124h165c54 0 74 25 74 62s-21 62 -63 62z" />
    <glyph glyph-name="C" unicode="C" horiz-adv-x="1047" 
d="M624 289l183 -80c-68 -133 -209 -224 -370 -224c-225 0 -414 182 -414 405s189 405 414 405c161 0 300 -91 369 -222l-182 -82c-35 66 -105 111 -187 111c-117 0 -212 -94 -212 -212s95 -212 212 -212c83 0 152 45 187 111z" />
    <glyph glyph-name="D" unicode="D" horiz-adv-x="1048" 
d="M60 0v780h362c244 0 369 -178 369 -390c0 -213 -125 -390 -369 -390h-362zM407 586h-147v-393h147c119 0 182 80 182 197s-63 196 -182 196z" />
    <glyph glyph-name="E" unicode="E" horiz-adv-x="926" 
d="M60 0v780h599v-194h-399v-112h328v-181h-328v-100h399v-193h-599z" />
    <glyph glyph-name="F" unicode="F" horiz-adv-x="895" 
d="M60 0v780h579v-194h-380v-138h319v-181h-319v-267h-199z" />
    <glyph glyph-name="G" unicode="G" horiz-adv-x="1062" 
d="M415 289v166h376v-455h-157v73c-38 -58 -117 -88 -197 -88c-226 0 -414 182 -414 405s188 405 414 405c134 0 255 -65 330 -163l-163 -110c-39 49 -99 80 -167 80c-118 0 -212 -94 -212 -212s94 -212 212 -212c70 0 130 35 167 89v22h-189z" />
    <glyph glyph-name="H" unicode="H" horiz-adv-x="1067" 
d="M577 780h200v-780h-200v290h-318v-290h-199v780h199v-303h318v303z" />
    <glyph glyph-name="I" unicode="I" horiz-adv-x="550" 
d="M60 780h200v-780h-200v780z" />
    <glyph glyph-name="J" unicode="J" horiz-adv-x="895" 
d="M413 780h199v-491c0 -209 -135 -304 -297 -304c-156 0 -299 95 -299 304v68h200v-65c0 -93 47 -114 99 -114c58 0 98 21 98 114v488z" />
    <glyph glyph-name="K" unicode="K" horiz-adv-x="998" 
d="M60 0v780h200v-269l242 269h258l-308 -335l324 -445h-248l-215 294l-53 -59v-235h-200z" />
    <glyph glyph-name="L" unicode="L" horiz-adv-x="876" 
d="M60 0v780h199v-587h374v-193h-573z" />
    <glyph glyph-name="M" unicode="M" horiz-adv-x="1203" 
d="M259 0h-199v780h201l225 -493l226 493h201v-780h-199v367l-162 -337h-131l-162 337v-367z" />
    <glyph glyph-name="N" unicode="N" horiz-adv-x="1067" 
d="M260 0h-200v780h170l348 -436v436h199v-780h-169l-348 435v-435z" />
    <glyph glyph-name="O" unicode="O" horiz-adv-x="1104" 
d="M23 390c0 223 189 405 414 405c228 0 414 -182 414 -405s-186 -405 -414 -405c-225 0 -414 182 -414 405zM225 390c0 -118 95 -212 212 -212c120 0 212 94 212 212s-92 212 -212 212c-117 0 -212 -94 -212 -212z" />
    <glyph glyph-name="P" unicode="P" horiz-adv-x="957" 
d="M60 0v780h344c207 0 306 -142 306 -299c0 -165 -99 -304 -306 -304h-144v-177h-200zM393 598h-133v-239h133c84 0 115 52 115 121c0 62 -31 118 -115 118z" />
    <glyph glyph-name="Q" unicode="Q" horiz-adv-x="1105" 
d="M23 390c0 223 189 405 414 405c228 0 414 -182 414 -405c0 -148 -81 -277 -202 -348c36 -25 68 -43 102 -43c11 0 47 3 68 35l151 -122c-56 -77 -147 -106 -218 -106c-157 0 -248 140 -383 185c-194 31 -346 199 -346 399zM225 390c0 -118 95 -212 212 -212
c120 0 212 94 212 212s-92 212 -212 212c-117 0 -212 -94 -212 -212z" />
    <glyph glyph-name="R" unicode="R" horiz-adv-x="996" 
d="M60 780h381c200 0 292 -130 292 -285c0 -109 -49 -211 -154 -259l169 -236h-239l-148 209h-102v-209h-199v780zM430 598h-171v-208h171c80 0 110 49 110 103c0 60 -30 105 -110 105z" />
    <glyph glyph-name="S" unicode="S" horiz-adv-x="929" 
d="M29 234h195v-5c0 -30 41 -71 132 -71c75 0 99 25 99 48c0 33 -39 53 -133 85c-124 41 -287 101 -287 262c0 149 127 242 305 242c182 0 319 -97 319 -252v-11h-195v7c0 38 -39 83 -120 83c-68 0 -95 -27 -95 -53c0 -31 36 -47 129 -79c108 -38 292 -102 292 -273
c0 -152 -132 -232 -310 -232c-187 0 -331 87 -331 240v9z" />
    <glyph glyph-name="T" unicode="T" horiz-adv-x="940" 
d="M12 586v194h686v-194h-243v-586h-200v586h-243z" />
    <glyph glyph-name="U" unicode="U" horiz-adv-x="1045" 
d="M567 780h199v-439c0 -201 -126 -356 -359 -356c-234 0 -358 155 -358 356v439h200v-427c0 -113 54 -175 158 -175c105 0 160 62 160 175v427z" />
    <glyph glyph-name="V" unicode="V" 
d="M513 0h-198l-315 780h218l196 -524l197 524h218z" />
    <glyph glyph-name="W" unicode="W" horiz-adv-x="1377" 
d="M425 0h-207l-219 780h213l126 -465l146 465h178l146 -464l126 464h214l-219 -780h-207l-149 453z" />
    <glyph glyph-name="X" unicode="X" horiz-adv-x="998" 
d="M530 780h236l-262 -388l268 -392h-243l-145 214l-144 -214h-243l268 392l-262 388h236l145 -213z" />
    <glyph glyph-name="Y" unicode="Y" horiz-adv-x="1046" 
d="M235 780l172 -283l173 283h236l-309 -494v-286h-199v286l-308 494h235z" />
    <glyph glyph-name="Z" unicode="Z" horiz-adv-x="959" 
d="M43 586v194h649v-146l-364 -441h365v-193h-662v146l363 440h-351z" />
    <glyph glyph-name="bracketleft" unicode="[" horiz-adv-x="625" 
d="M361 -30v-187h-303v1215h303v-188h-104v-840h104z" />
    <glyph glyph-name="backslash" unicode="\" horiz-adv-x="1068" 
d="M21 958h216l579 -1136h-214z" />
    <glyph glyph-name="bracketright" unicode="]" horiz-adv-x="625" 
d="M34 810v187h303v-1215h-303v188h104v840h-104z" />
    <glyph glyph-name="underscore" unicode="_" horiz-adv-x="937" 
d="M659 -22v-172h-611v172h611z" />
    <glyph glyph-name="a" unicode="a" 
d="M316 780h198l315 -780h-218l-43 114h-307l-43 -114h-218zM500 295l-85 229l-86 -229h171z" />
    <glyph glyph-name="b" unicode="b" horiz-adv-x="992" 
d="M60 0v780h388c168 0 253 -91 253 -215c0 -79 -37 -132 -95 -164c79 -30 130 -90 130 -181c0 -129 -96 -220 -254 -220h-422zM460 318h-200v-137h200c54 0 74 29 74 70c0 40 -20 67 -74 67zM436 598h-176v-124h165c54 0 74 25 74 62s-21 62 -63 62z" />
    <glyph glyph-name="c" unicode="c" horiz-adv-x="1047" 
d="M624 289l183 -80c-68 -133 -209 -224 -370 -224c-225 0 -414 182 -414 405s189 405 414 405c161 0 300 -91 369 -222l-182 -82c-35 66 -105 111 -187 111c-117 0 -212 -94 -212 -212s95 -212 212 -212c83 0 152 45 187 111z" />
    <glyph glyph-name="d" unicode="d" horiz-adv-x="1048" 
d="M60 0v780h362c244 0 369 -178 369 -390c0 -213 -125 -390 -369 -390h-362zM407 586h-147v-393h147c119 0 182 80 182 197s-63 196 -182 196z" />
    <glyph glyph-name="e" unicode="e" horiz-adv-x="926" 
d="M60 0v780h599v-194h-399v-112h328v-181h-328v-100h399v-193h-599z" />
    <glyph glyph-name="f" unicode="f" horiz-adv-x="895" 
d="M60 0v780h579v-194h-380v-138h319v-181h-319v-267h-199z" />
    <glyph glyph-name="g" unicode="g" horiz-adv-x="1062" 
d="M415 289v166h376v-455h-157v73c-38 -58 -117 -88 -197 -88c-226 0 -414 182 -414 405s188 405 414 405c134 0 255 -65 330 -163l-163 -110c-39 49 -99 80 -167 80c-118 0 -212 -94 -212 -212s94 -212 212 -212c70 0 130 35 167 89v22h-189z" />
    <glyph glyph-name="h" unicode="h" horiz-adv-x="1067" 
d="M577 780h200v-780h-200v290h-318v-290h-199v780h199v-303h318v303z" />
    <glyph glyph-name="i" unicode="i" horiz-adv-x="550" 
d="M60 780h200v-780h-200v780z" />
    <glyph glyph-name="j" unicode="j" horiz-adv-x="895" 
d="M413 780h199v-491c0 -209 -135 -304 -297 -304c-156 0 -299 95 -299 304v68h200v-65c0 -93 47 -114 99 -114c58 0 98 21 98 114v488z" />
    <glyph glyph-name="k" unicode="k" horiz-adv-x="998" 
d="M60 0v780h200v-269l242 269h258l-308 -335l324 -445h-248l-215 294l-53 -59v-235h-200z" />
    <glyph glyph-name="l" unicode="l" horiz-adv-x="876" 
d="M60 0v780h199v-587h374v-193h-573z" />
    <glyph glyph-name="m" unicode="m" horiz-adv-x="1203" 
d="M259 0h-199v780h201l225 -493l226 493h201v-780h-199v367l-162 -337h-131l-162 337v-367z" />
    <glyph glyph-name="n" unicode="n" horiz-adv-x="1067" 
d="M260 0h-200v780h170l348 -436v436h199v-780h-169l-348 435v-435z" />
    <glyph glyph-name="o" unicode="o" horiz-adv-x="1104" 
d="M23 390c0 223 189 405 414 405c228 0 414 -182 414 -405s-186 -405 -414 -405c-225 0 -414 182 -414 405zM225 390c0 -118 95 -212 212 -212c120 0 212 94 212 212s-92 212 -212 212c-117 0 -212 -94 -212 -212z" />
    <glyph glyph-name="p" unicode="p" horiz-adv-x="957" 
d="M60 0v780h344c207 0 306 -142 306 -299c0 -165 -99 -304 -306 -304h-144v-177h-200zM393 598h-133v-239h133c84 0 115 52 115 121c0 62 -31 118 -115 118z" />
    <glyph glyph-name="q" unicode="q" horiz-adv-x="1105" 
d="M23 390c0 223 189 405 414 405c228 0 414 -182 414 -405c0 -148 -81 -277 -202 -348c36 -25 68 -43 102 -43c11 0 47 3 68 35l151 -122c-56 -77 -147 -106 -218 -106c-157 0 -248 140 -383 185c-194 31 -346 199 -346 399zM225 390c0 -118 95 -212 212 -212
c120 0 212 94 212 212s-92 212 -212 212c-117 0 -212 -94 -212 -212z" />
    <glyph glyph-name="r" unicode="r" horiz-adv-x="996" 
d="M60 780h381c200 0 292 -130 292 -285c0 -109 -49 -211 -154 -259l169 -236h-239l-148 209h-102v-209h-199v780zM430 598h-171v-208h171c80 0 110 49 110 103c0 60 -30 105 -110 105z" />
    <glyph glyph-name="s" unicode="s" horiz-adv-x="929" 
d="M29 234h195v-5c0 -30 41 -71 132 -71c75 0 99 25 99 48c0 33 -39 53 -133 85c-124 41 -287 101 -287 262c0 149 127 242 305 242c182 0 319 -97 319 -252v-11h-195v7c0 38 -39 83 -120 83c-68 0 -95 -27 -95 -53c0 -31 36 -47 129 -79c108 -38 292 -102 292 -273
c0 -152 -132 -232 -310 -232c-187 0 -331 87 -331 240v9z" />
    <glyph glyph-name="t" unicode="t" horiz-adv-x="940" 
d="M12 586v194h686v-194h-243v-586h-200v586h-243z" />
    <glyph glyph-name="u" unicode="u" horiz-adv-x="1045" 
d="M567 780h199v-439c0 -201 -126 -356 -359 -356c-234 0 -358 155 -358 356v439h200v-427c0 -113 54 -175 158 -175c105 0 160 62 160 175v427z" />
    <glyph glyph-name="v" unicode="v" 
d="M513 0h-198l-315 780h218l196 -524l197 524h218z" />
    <glyph glyph-name="w" unicode="w" horiz-adv-x="1377" 
d="M425 0h-207l-219 780h213l126 -465l146 465h178l146 -464l126 464h214l-219 -780h-207l-149 453z" />
    <glyph glyph-name="x" unicode="x" horiz-adv-x="998" 
d="M530 780h236l-262 -388l268 -392h-243l-145 214l-144 -214h-243l268 392l-262 388h236l145 -213z" />
    <glyph glyph-name="y" unicode="y" horiz-adv-x="1046" 
d="M235 780l172 -283l173 283h236l-309 -494v-286h-199v286l-308 494h235z" />
    <glyph glyph-name="z" unicode="z" horiz-adv-x="959" 
d="M43 586v194h649v-146l-364 -441h365v-193h-662v146l363 440h-351z" />
    <glyph glyph-name="braceleft" unicode="{" horiz-adv-x="604" 
d="M53 309v163h19c30 0 42 18 42 41c0 51 -75 139 -75 251c0 128 96 234 256 234h38v-180h-38c-41 0 -73 -22 -73 -67c0 -63 86 -156 86 -241c0 -48 -19 -89 -55 -120c36 -30 55 -72 55 -119c0 -85 -86 -179 -86 -241c0 -46 32 -67 73 -67h38v-180h-38
c-160 0 -256 105 -256 234c0 112 75 200 75 251c0 23 -12 41 -42 41h-19z" />
    <glyph glyph-name="bar" unicode="|" horiz-adv-x="537" 
d="M57 966h193v-1151h-193v1151z" />
    <glyph glyph-name="braceright" unicode="}" horiz-adv-x="604" 
d="M321 472v-163h-19c-30 0 -42 -18 -42 -41c0 -51 75 -139 75 -251c0 -128 -96 -234 -256 -234h-38v180h38c41 0 73 22 73 67c0 63 -86 156 -86 241c0 48 19 89 55 120c-36 30 -55 72 -55 119c0 85 86 179 86 241c0 46 -32 67 -73 67h-38v180h38c160 0 256 -105 256 -234
c0 -112 -75 -200 -75 -251c0 -23 12 -41 42 -41h19z" />
    <glyph glyph-name="dagger" unicode="&#x2020;" horiz-adv-x="719" 
d="M118 668c0 69 57 126 126 126s126 -57 126 -126c0 -33 -13 -64 -34 -86v-54h116v-150h-116v-525h-182v525h-117v150h117v52c-23 23 -36 54 -36 88z" />
    <glyph glyph-name="degree" unicode="&#xb0;" horiz-adv-x="674" 
d="M28 600c0 108 86 195 193 195c108 0 195 -87 195 -195c0 -107 -87 -193 -195 -193c-107 0 -193 86 -193 193zM160 600c0 -34 27 -61 61 -61c35 0 63 27 63 61c0 35 -28 63 -63 63c-34 0 -61 -28 -61 -63z" />
    <glyph glyph-name="cent" unicode="&#xa2;" horiz-adv-x="841" 
d="M398 286l175 -77c-33 -62 -90 -110 -158 -134v-100h-187v100c-111 37 -190 139 -190 259c0 119 79 221 190 259v100h187v-101c68 -23 124 -72 157 -133l-175 -78c-15 20 -40 33 -68 33c-46 0 -82 -36 -82 -81s36 -80 82 -80c28 0 54 13 69 33z" />
    <glyph glyph-name="section" unicode="&#xa7;" horiz-adv-x="807" 
d="M538 372c0 -41 -16 -90 -73 -124c23 -28 37 -61 37 -101c0 -108 -98 -162 -212 -162c-111 0 -216 51 -225 183l-1 15h186v-8c0 -6 -1 -37 37 -37c22 0 27 14 27 22c0 27 -45 34 -133 74c-62 30 -143 80 -143 172c0 43 17 91 73 124c-24 29 -37 62 -37 101
c0 110 99 164 209 164c115 0 224 -60 229 -184v-16h-186v9c0 7 1 37 -37 37c-22 0 -27 -13 -27 -20c0 -33 63 -43 133 -76c59 -28 143 -81 143 -173zM266 432l-12 5s-23 -8 -23 -33c0 -34 47 -44 79 -57l12 -5s23 8 23 33c0 34 -47 44 -79 57z" />
    <glyph glyph-name="bullet" unicode="&#x2022;" horiz-adv-x="682" 
d="M67 325c0 85 73 158 159 158c87 0 160 -73 160 -158c0 -88 -73 -161 -160 -161c-86 0 -159 73 -159 161z" />
    <glyph glyph-name="paragraph" unicode="&#xb6;" horiz-adv-x="1069" 
d="M775 0h-193v598h-40v-598h-193v229h-38c-152 0 -274 124 -274 276c0 150 122 275 274 275h464v-780zM230 505c0 -54 33 -94 81 -94h38v187h-38c-48 0 -81 -38 -81 -93z" />
    <glyph glyph-name="uni1E9E" unicode="&#x1e9e;" horiz-adv-x="1114" 
d="M283 127l160 101c36 -48 89 -64 127 -64c61 0 98 35 98 77c0 66 -82 103 -202 71l-99 136l199 155c-45 14 -116 19 -155 19c-116 0 -172 -70 -172 -159v-463h-188v478c0 166 116 326 362 326c105 0 267 -29 393 -71v-142l-156 -121c86 -14 211 -83 211 -227
c0 -143 -119 -258 -283 -258c-111 0 -226 46 -295 142z" />
    <glyph glyph-name="germandbls" unicode="&#xdf;" horiz-adv-x="1114" 
d="M283 127l160 101c36 -48 89 -64 127 -64c61 0 98 35 98 77c0 66 -82 103 -202 71l-99 136l199 155c-45 14 -116 19 -155 19c-116 0 -172 -70 -172 -159v-463h-188v478c0 166 116 326 362 326c105 0 267 -29 393 -71v-142l-156 -121c86 -14 211 -83 211 -227
c0 -143 -119 -258 -283 -258c-111 0 -226 46 -295 142z" />
    <glyph glyph-name="registered" unicode="&#xae;" horiz-adv-x="792" 
d="M38 552c0 134 109 243 243 243s243 -109 243 -243s-109 -243 -243 -243s-243 109 -243 243zM101 552c0 -100 80 -180 180 -180s180 80 180 180s-80 180 -180 180s-180 -80 -180 -180zM387 440h-60l-38 67h-40v-67h-55v235h101c56 0 87 -39 87 -83c0 -31 -14 -59 -41 -74z
M292 622h-43v-62h43c22 0 34 17 34 32c0 16 -12 30 -34 30z" />
    <glyph glyph-name="copyright" unicode="&#xa9;" horiz-adv-x="1118" 
d="M39 390c0 221 182 405 405 405c221 0 405 -184 405 -405c0 -223 -184 -405 -405 -405c-223 0 -405 182 -405 405zM186 390c0 -143 115 -258 258 -258s260 117 260 258c0 143 -117 259 -260 259s-258 -116 -258 -259zM489 359l137 -63c-34 -65 -102 -109 -180 -109
c-113 0 -202 89 -202 202s89 202 202 202c77 0 145 -45 179 -109l-137 -64c-9 14 -25 23 -42 23c-29 0 -53 -23 -53 -52s24 -52 53 -52c18 0 33 9 43 22z" />
    <glyph glyph-name="trademark" unicode="&#x2122;" horiz-adv-x="1099" 
d="M807 448h-139v116l-46 -81h-45l-45 80v-115h-140v332h145l62 -113l64 113h144v-332zM41 642v138h324v-138h-92v-194h-140v194h-92z" />
    <glyph glyph-name="dieresis" unicode="&#xa8;" horiz-adv-x="675" 
d="M0 928c0 52 43 96 97 96c53 0 96 -44 96 -96c0 -54 -43 -98 -96 -98c-54 0 -97 44 -97 98zM252 928c0 52 43 96 97 96c53 0 96 -44 96 -96c0 -54 -43 -98 -96 -98c-54 0 -97 44 -97 98z" />
    <glyph glyph-name="AE" unicode="&#xc6;" horiz-adv-x="1511" 
d="M645 0v114h-308l-90 -114h-257l627 780h627v-194h-400v-112h329v-181h-329v-100h400v-193h-599zM479 295h166v210z" />
    <glyph glyph-name="plusminus" unicode="&#xb1;" horiz-adv-x="796" 
d="M192 689h182v-140h142v-181h-142v-141h-182v141h-142v181h142v140zM516 197v-181h-465v181h465z" />
    <glyph glyph-name="ae" unicode="&#xe6;" horiz-adv-x="1511" 
d="M645 0v114h-308l-90 -114h-257l627 780h627v-194h-400v-112h329v-181h-329v-100h400v-193h-599zM479 295h166v210z" />
    <glyph glyph-name="questiondown" unicode="&#xbf;" horiz-adv-x="821" 
d="M236 503h171v-32c0 -97 -65 -147 -117 -185c-28 -21 -48 -38 -48 -67c0 -20 14 -47 51 -47c34 0 67 22 67 79v9h195v-33c0 -163 -145 -242 -270 -242c-129 0 -245 88 -245 230c0 102 62 158 112 192c40 29 84 50 84 94v2zM446 671c0 -69 -57 -126 -126 -126
s-126 57 -126 126s57 126 126 126s126 -57 126 -126z" />
    <glyph glyph-name="exclamdown" unicode="&#xa1;" horiz-adv-x="553" 
d="M273 0h-223l45 496h133zM288 671c0 -69 -57 -126 -126 -126s-126 57 -126 126s57 126 126 126s126 -57 126 -126z" />
    <glyph glyph-name="guillemotleft" unicode="&#xab;" horiz-adv-x="930" 
d="M48 288v155l283 251v-236l-104 -92l104 -93v-235zM351 288v155l283 251v-236l-104 -92l104 -93v-235z" />
    <glyph glyph-name="guillemotright" unicode="&#xbb;" horiz-adv-x="930" 
d="M349 444v-155l-283 -251v236l104 92l-104 93v235zM652 444v-155l-283 -251v236l104 92l-104 93v235z" />
    <glyph glyph-name="ellipsis" unicode="&#x2026;" horiz-adv-x="1122" 
d="M34 109c0 69 57 126 126 126s126 -57 126 -126s-57 -126 -126 -126s-126 57 -126 126zM322 109c0 69 57 126 126 126s126 -57 126 -126s-57 -126 -126 -126s-126 57 -126 126zM606 109c0 69 57 126 126 126s126 -57 126 -126s-57 -126 -126 -126s-126 57 -126 126z" />
    <glyph glyph-name="OE" unicode="&#x152;" horiz-adv-x="1404" 
d="M463 0c-277 0 -439 180 -439 390c0 209 162 390 439 390h675v-194h-399v-112h328v-181h-328v-100h399v-193h-675zM226 390c0 -112 78 -197 237 -197h76v393h-76c-159 0 -237 -84 -237 -196z" />
    <glyph glyph-name="oe" unicode="&#x153;" horiz-adv-x="1404" 
d="M463 0c-277 0 -439 180 -439 390c0 209 162 390 439 390h675v-194h-399v-112h328v-181h-328v-100h399v-193h-675zM226 390c0 -112 78 -197 237 -197h76v393h-76c-159 0 -237 -84 -237 -196z" />
    <glyph glyph-name="endash" unicode="&#x2013;" horiz-adv-x="863" 
d="M577 419v-187h-520v187h520z" />
    <glyph glyph-name="emdash" unicode="&#x2014;" horiz-adv-x="1022" 
d="M736 419v-187h-679v187h679z" />
    <glyph glyph-name="quotedblleft" unicode="&#x201c;" horiz-adv-x="820" 
d="M210 806l78 -76c-30 -32 -62 -73 -74 -96c11 -12 64 -45 64 -114s-57 -126 -126 -126c-66 0 -125 51 -125 136c0 81 71 172 183 276zM478 806l78 -76c-30 -32 -62 -73 -74 -96c11 -12 64 -45 64 -114s-57 -126 -126 -126c-66 0 -125 51 -125 136c0 81 71 172 183 276z
" />
    <glyph glyph-name="quotedblright" unicode="&#x201d;" horiz-adv-x="817" 
d="M115 382l-78 76c30 32 62 73 74 96c-11 12 -64 45 -64 114s57 126 126 126c66 0 125 -51 125 -136c0 -81 -71 -172 -183 -276zM384 382l-78 76c30 32 62 73 74 96c-11 12 -64 45 -64 114s57 126 126 126c66 0 125 -51 125 -136c0 -81 -71 -172 -183 -276z" />
    <glyph glyph-name="quoteleft" unicode="&#x2018;" horiz-adv-x="552" 
d="M210 806l78 -76c-30 -32 -62 -73 -74 -96c11 -12 64 -45 64 -114s-57 -126 -126 -126c-66 0 -125 51 -125 136c0 81 71 172 183 276z" />
    <glyph glyph-name="quoteright" unicode="&#x2019;" horiz-adv-x="548" 
d="M115 382l-78 76c30 32 62 73 74 96c-11 12 -64 45 -64 114s57 126 126 126c66 0 125 -51 125 -136c0 -81 -71 -172 -183 -276z" />
    <glyph glyph-name="divide" unicode="&#xf7;" horiz-adv-x="773" 
d="M145 603c0 69 57 126 126 126s126 -57 126 -126s-57 -126 -126 -126s-126 57 -126 126zM145 128c0 69 57 126 126 126s126 -57 126 -126s-57 -126 -126 -126s-126 57 -126 126zM504 456v-181h-465v181h465z" />
    <glyph glyph-name="fraction" unicode="&#x2044;" horiz-adv-x="853" 
d="M186 0h-211l462 780h211z" />
    <glyph glyph-name="sterling" unicode="&#xa3;" horiz-adv-x="843" 
d="M44 0v142c72 33 87 70 89 113h-86v172h50c-11 34 -20 71 -20 117c0 162 117 251 252 251c119 0 243 -72 243 -236v-18h-194v6c0 46 -32 54 -52 54c-31 0 -56 -16 -56 -53c0 -32 18 -71 34 -121h162v-172h-140c-2 -17 -4 -36 -10 -56h245v-199h-517z" />
    <glyph glyph-name="yen" unicode="&#xa5;" horiz-adv-x="1102" 
d="M710 276v-151h-174v-125h-200v125h-174v151h174v11l-13 21h-161v151h66l-200 321h236l172 -283l173 283h235l-200 -321h66v-151h-160l-14 -23v-9h174z" />
    <glyph glyph-name="Euro" unicode="&#x20ac;" horiz-adv-x="1140" 
d="M690 289l183 -80c-68 -133 -209 -224 -370 -224c-171 0 -322 105 -384 254h-77v130h48c-1 7 -1 14 -1 21v13h-47v130h74c60 153 213 262 387 262c161 0 300 -91 369 -222l-182 -82c-35 66 -105 111 -187 111c-62 0 -118 -27 -157 -69h222v-130h-277c-1 -5 0 -9 0 -13
c0 -7 0 -14 1 -21h234v-130h-172c38 -38 91 -61 149 -61c83 0 152 45 187 111z" />
    <glyph glyph-name="guilsinglleft" unicode="&#x2039;" horiz-adv-x="627" 
d="M48 288v155l283 251v-236l-104 -92l104 -93v-235z" />
    <glyph glyph-name="guilsinglright" unicode="&#x203a;" horiz-adv-x="627" 
d="M349 444v-155l-283 -251v236l104 92l-104 93v235z" />
    <glyph glyph-name="daggerdbl" unicode="&#x2021;" horiz-adv-x="725" 
d="M121 668c0 69 57 126 126 126s126 -57 126 -126c0 -33 -13 -64 -34 -86v-54h116v-150h-116v-60h116v-150h-116v-315h-182v315h-117v150h117v60h-117v150h117v52c-23 23 -36 54 -36 88z" />
    <glyph glyph-name="periodcentered" unicode="&#xb7;" horiz-adv-x="550" 
d="M42 365c0 69 57 126 126 126s126 -57 126 -126s-57 -126 -126 -126s-126 57 -126 126z" />
    <glyph glyph-name="quotesinglbase" unicode="&#x201a;" horiz-adv-x="553" 
d="M103 -177l-78 76c30 32 62 73 74 96c-11 12 -64 45 -64 114s57 126 126 126c66 0 125 -51 125 -136c0 -81 -71 -172 -183 -276z" />
    <glyph glyph-name="quotedblbase" unicode="&#x201e;" horiz-adv-x="822" 
d="M103 -177l-78 76c30 32 62 73 74 96c-11 12 -64 45 -64 114s57 126 126 126c66 0 125 -51 125 -136c0 -81 -71 -172 -183 -276zM372 -177l-78 76c30 32 62 73 74 96c-11 12 -64 45 -64 114s57 126 126 126c66 0 125 -51 125 -136c0 -81 -71 -172 -183 -276z" />
    <glyph glyph-name="perthousand" unicode="&#x2030;" horiz-adv-x="1783" 
d="M35 576c0 121 98 219 219 219c120 0 219 -98 219 -219s-99 -218 -219 -218c-121 0 -219 97 -219 218zM202 576c0 -29 23 -52 52 -52s53 23 53 52s-24 53 -53 53s-52 -24 -52 -53zM619 200c0 121 98 219 219 219c120 0 219 -98 219 -219s-99 -218 -219 -218
c-121 0 -219 97 -219 218zM786 200c0 -29 23 -52 52 -52s53 23 53 52s-24 53 -53 53s-52 -24 -52 -53zM375 0h-217l562 780h217zM1082 200c0 121 98 219 219 219c120 0 219 -98 219 -219s-99 -218 -219 -218c-121 0 -219 97 -219 218zM1249 200c0 -29 23 -52 52 -52
s53 23 53 52s-24 53 -53 53s-52 -24 -52 -53z" />
    <glyph glyph-name="ring" unicode="&#x2da;" horiz-adv-x="562" 
d="M0 970c0 92 74 167 165 167s167 -76 167 -167s-76 -165 -167 -165s-165 74 -165 165zM117 970c0 -27 21 -48 48 -48s48 21 48 48s-21 48 -48 48s-48 -21 -48 -48z" />
    <glyph glyph-name="hungarumlaut" unicode="&#x2dd;" horiz-adv-x="799" 
d="M96 870l-96 96l164 204l137 -137zM365 870l-95 96l162 205l137 -137z" />
    <glyph glyph-name="Eth" unicode="&#xd0;" horiz-adv-x="1053" 
d="M65 0v297h-57v172h57v311h362c244 0 369 -178 369 -390c0 -213 -125 -390 -369 -390h-362zM430 469v-172h-165v-104h147c119 0 182 80 182 197s-63 196 -182 196h-147v-117h165z" />
    <glyph glyph-name="multiply" unicode="&#xd7;" horiz-adv-x="821" 
d="M169 112l-129 128l127 127l-127 127l129 128l126 -127l127 127l129 -128l-127 -127l127 -127l-129 -128l-127 126z" />
    <glyph glyph-name="Thorn" unicode="&#xde;" horiz-adv-x="966" 
d="M60 0v780h200v-90h144c207 0 306 -142 306 -299c0 -165 -99 -304 -306 -304h-144v-87h-200zM393 508h-133v-239h133c84 0 115 52 115 121c0 62 -31 118 -115 118z" />
    <glyph glyph-name="eth" unicode="&#xf0;" horiz-adv-x="1053" 
d="M65 0v297h-57v172h57v311h362c244 0 369 -178 369 -390c0 -213 -125 -390 -369 -390h-362zM430 469v-172h-165v-104h147c119 0 182 80 182 197s-63 196 -182 196h-147v-117h165z" />
    <glyph glyph-name="thorn" unicode="&#xfe;" horiz-adv-x="966" 
d="M60 0v780h200v-90h144c207 0 306 -142 306 -299c0 -165 -99 -304 -306 -304h-144v-87h-200zM393 508h-133v-239h133c84 0 115 52 115 121c0 62 -31 118 -115 118z" />
    <glyph glyph-name="minus" unicode="&#x2212;" horiz-adv-x="809" 
d="M522 456v-181h-465v181h465z" />
    <glyph glyph-name="breve" unicode="&#x2d8;" horiz-adv-x="674" 
d="M0 976l118 68c32 -51 71 -62 104 -62s71 11 104 62l118 -68c-39 -84 -113 -151 -222 -151c-110 0 -183 67 -222 151z" />
    <glyph glyph-name="dotaccent" unicode="&#x2d9;" horiz-adv-x="423" 
d="M0 918c0 52 43 96 97 96c53 0 96 -44 96 -96c0 -54 -43 -98 -96 -98c-54 0 -97 44 -97 98z" />
    <glyph glyph-name="caron" unicode="&#x2c7;" horiz-adv-x="723" 
d="M388 1111l86 -107l-227 -179l-228 179l85 107l143 -92z" />
    <glyph glyph-name="grave" unicode="`" horiz-adv-x="587" 
d="M357 934l-67 -116l-290 133l97 168z" />
    <glyph glyph-name="circumflex" unicode="&#x2c6;" horiz-adv-x="723" 
d="M474 932l-86 -107l-141 93l-143 -93l-85 107l228 179z" />
    <glyph glyph-name="macron" unicode="&#xaf;" horiz-adv-x="588" 
d="M358 978v-148h-358v148h358z" />
    <glyph glyph-name="acute" unicode="&#xb4;" horiz-adv-x="587" 
d="M67 818l-67 116l260 185l97 -168z" />
    <glyph glyph-name="tilde" unicode="&#x2dc;" horiz-adv-x="700" 
d="M166 849h-133c0 52 10 192 133 192c37 0 67 -13 103 -39c8 -6 16 -12 24 -12c11 0 12 9 11 32h133c0 -52 -10 -192 -133 -192c-37 0 -67 13 -103 39c-8 6 -16 12 -24 12c-11 0 -12 -9 -11 -32z" />
    <glyph glyph-name="asciitilde" unicode="~" horiz-adv-x="748" 
d="M189 238h-133c0 52 10 192 133 192c37 0 67 -13 103 -39c8 -6 16 -12 24 -12c11 0 12 9 11 32h133c0 -52 -10 -192 -133 -192c-37 0 -67 13 -103 39c-8 6 -16 12 -24 12c-11 0 -12 -9 -11 -32z" />
    <glyph glyph-name="asciicircum" unicode="^" horiz-adv-x="928" 
d="M262 780h173l227 -463h-212l-101 227l-102 -227h-211z" />
    <glyph glyph-name="brokenbar" unicode="&#xa6;" horiz-adv-x="537" 
d="M57 321h193v-506h-193v506zM57 966h193v-506h-193v506z" />
    <glyph glyph-name="cedilla" unicode="&#xb8;" horiz-adv-x="553" 
d="M132 12h92l-11 -58c60 -18 81 -68 81 -115c0 -71 -47 -129 -137 -129c-67 0 -142 32 -142 32l52 120c22 -11 51 -25 82 -25c32 0 37 15 37 23c0 9 -6 32 -41 20l-48 43z" />
    <glyph glyph-name="ogonek" unicode="&#x2db;" horiz-adv-x="443" 
d="M189 59l30 -59c-55 -25 -89 -54 -89 -87c0 -28 27 -37 60 -30l23 -143c-122 -15 -213 40 -213 135c0 107 118 157 189 184z" />
    <glyph glyph-name="apple" unicode="&#xf8ff;" horiz-adv-x="974" 
d="M681 367c-13 -5 -13 -16 -3 -23l28 -20c11 -7 10 -15 -3 -18l-34 -6c-14 -2 -16 -12 -7 -22l24 -24c8 -9 6 -17 -8 -17l-35 2c-13 0 -18 -9 -10 -20l18 -30c7 -11 2 -17 -11 -15l-34 9c-12 4 -19 -5 -15 -17l11 -33c5 -12 -1 -18 -13 -12l-31 15c-11 6 -20 0 -19 -14
l5 -33c1 -14 -5 -17 -15 -9l-28 21c-10 8 -20 3 -21 -10l-2 -34c-1 -13 -9 -15 -17 -6l-23 27c-9 9 -18 8 -22 -5l-10 -33c-3 -13 -12 -13 -18 -2l-17 30c-6 12 -15 12 -23 0l-15 -30c-6 -11 -15 -11 -18 2l-10 33c-4 13 -13 14 -22 5l-23 -27c-8 -9 -15 -7 -17 6l-2 34
c-1 13 -11 18 -22 10l-26 -21c-11 -8 -19 -5 -16 9l5 33c1 14 -8 20 -20 14l-30 -15c-12 -6 -18 0 -13 12l11 33c5 12 -3 21 -15 17l-34 -9c-13 -2 -18 4 -11 15l19 30c7 11 2 20 -11 20l-35 -2c-14 0 -16 8 -8 17l25 24c8 10 6 20 -8 22l-33 6c-14 3 -15 11 -4 18l28 20
c3 2 5 5 6 6c6 5 13 2 18 -6l16 -31c6 -12 14 -10 18 2l9 34c4 12 14 14 22 4l23 -26c9 -10 16 -7 17 6l2 34c2 13 11 17 21 9l28 -21c11 -8 18 -4 15 9l-4 34c-2 13 7 19 18 13l31 -14c12 -6 18 0 14 12l-11 33c-5 12 2 20 14 16l7 -1c26 -50 49 -145 49 -205
c-8 -10 -17 -18 -46 -18h-4c0 14 -5 26 -16 35c7 -8 9 -17 9 -27v-7c-11 1 -16 8 -16 19c0 27 -18 49 -51 49c-27 0 -47 -23 -47 -54c0 -38 33 -65 92 -65c144 0 278 190 278 319c0 38 -26 67 -64 67c-30 0 -60 -24 -60 -58s21 -54 58 -58c-8 -32 -15 -60 -29 -85
c-8 62 -29 119 -58 150c29 -38 47 -97 52 -161l-14 -20c0 100 -36 197 -89 224c-3 6 2 13 12 15l34 6c12 2 14 10 3 17l-29 19c-10 9 -9 18 3 23l31 14c14 4 14 13 0 18l-31 13c-9 4 -11 8 -10 14c4 2 6 4 7 8l17 30c6 12 15 11 18 -1l10 -33c4 -13 13 -16 22 -5l23 26
c8 10 16 8 17 -5l2 -35c1 -14 11 -17 21 -9l28 21c10 8 16 3 15 -10l-5 -34c-1 -13 8 -19 19 -13l31 16c12 5 18 0 13 -14l-11 -31c-4 -13 3 -21 15 -17l34 7c13 4 18 -2 11 -14l-18 -29c-8 -11 -3 -21 10 -20l35 2c14 0 16 -8 8 -17l-24 -26c-9 -9 -7 -19 7 -21l34 -6
c13 -3 14 -10 3 -19l-28 -19c-10 -7 -10 -17 3 -22l31 -13c12 -5 12 -13 0 -18zM300 164c144 0 278 189 278 319c0 19 -7 37 -20 49c8 -12 12 -25 12 -41c0 -66 -34 -146 -85 -210c-52 -64 -122 -113 -196 -113c-19 0 -36 3 -49 9c14 -9 35 -13 60 -13z" />
    <glyph glyph-name="dotlessi" unicode="&#x131;" horiz-adv-x="550" 
d="M60 780h200v-780h-200v780z" />
    <glyph glyph-name="zerosuperior" unicode="&#x2070;" horiz-adv-x="721" 
d="M21 527c0 134 76 263 223 263c149 0 226 -129 226 -263c0 -135 -77 -264 -226 -264c-147 0 -223 129 -223 264zM159 527c0 -82 37 -131 85 -131c49 0 88 49 88 131c0 81 -39 129 -88 129c-48 0 -85 -48 -85 -129z" />
    <glyph glyph-name="onesuperior" unicode="&#xb9;" horiz-adv-x="495" 
d="M18 597v145l116 38h93v-507h-138v348z" />
    <glyph glyph-name="twosuperior" unicode="&#xb2;" horiz-adv-x="668" 
d="M407 411v-138h-385v103l187 164c43 38 62 55 62 78c0 22 -17 38 -49 38c-34 0 -58 -19 -58 -51v-16h-135v16c0 126 103 185 195 185c99 0 186 -64 186 -172c0 -85 -65 -140 -109 -178l-34 -29h140z" />
    <glyph glyph-name="threesuperior" unicode="&#xb3;" horiz-adv-x="654" 
d="M11 314l75 113c47 -23 81 -31 110 -31c42 0 65 13 65 36c0 22 -30 41 -127 41v112c96 0 116 25 116 44c0 15 -16 34 -47 34c-19 0 -49 -3 -49 -34v-2h-131v14c0 97 91 149 180 149c94 0 184 -55 184 -143c0 -43 -18 -84 -61 -114c49 -25 77 -64 77 -113
c0 -98 -93 -157 -203 -157c-58 0 -125 15 -189 51z" />
    <glyph glyph-name="foursuperior" unicode="&#x2074;" horiz-adv-x="678" 
d="M384 273h-134v85h-240v107l186 315h153l-172 -292h73v91h134v-91h51v-130h-51v-85z" />
    <glyph glyph-name="fivesuperior" unicode="&#x2075;" horiz-adv-x="672" 
d="M385 780v-140h-196l-7 -35c22 8 50 8 67 8c100 0 173 -72 173 -168c0 -106 -88 -182 -205 -182c-96 0 -168 51 -207 112l117 69c26 -31 55 -46 89 -46c40 0 65 20 65 47c0 19 -12 46 -51 46c-25 0 -50 -11 -78 -36l-117 55l51 270h299z" />
    <glyph glyph-name="sixsuperior" unicode="&#x2076;" horiz-adv-x="671" 
d="M384 780l-119 -156c90 -8 159 -70 159 -164c0 -112 -90 -197 -201 -197c-115 0 -205 88 -205 192c0 45 16 89 51 135l147 190h168zM166 494c-9 -12 -13 -22 -13 -33c0 -38 30 -63 69 -63c38 0 67 27 67 62c0 32 -29 59 -69 59c-22 0 -39 -9 -54 -25z" />
    <glyph glyph-name="sevensuperior" unicode="&#x2077;" horiz-adv-x="620" 
d="M21 642v138h363v-111l-206 -396h-157l203 369h-203z" />
    <glyph glyph-name="eightsuperior" unicode="&#x2078;" horiz-adv-x="691" 
d="M20 424c0 55 25 93 66 118c-28 21 -45 53 -45 96c0 93 89 152 190 152c100 0 190 -59 190 -152c0 -43 -18 -75 -47 -96c41 -25 67 -63 67 -118c0 -96 -97 -161 -210 -161c-115 0 -211 65 -211 161zM161 436c0 -25 25 -51 70 -51s69 26 69 51s-24 52 -69 52
s-70 -26 -70 -52zM177 633c0 -21 18 -43 54 -43c35 0 52 22 52 43c0 19 -17 41 -52 41c-36 0 -54 -22 -54 -41z" />
    <glyph glyph-name="ninesuperior" unicode="&#x2079;" horiz-adv-x="670" 
d="M57 273l119 156c-90 8 -159 70 -159 164c0 112 90 197 201 197c115 0 205 -88 205 -192c0 -45 -16 -89 -51 -135l-147 -190h-168zM275 559c9 12 13 22 13 33c0 38 -30 63 -69 63c-38 0 -67 -27 -67 -62c0 -32 29 -59 69 -59c22 0 39 9 54 25z" />
    <glyph glyph-name="ordmasculine" unicode="&#xba;" horiz-adv-x="721" 
d="M27 578c0 121 96 217 217 217c123 0 220 -96 220 -217c0 -120 -97 -215 -220 -215c-121 0 -217 95 -217 215zM169 578c0 -42 32 -75 75 -75c45 0 78 33 78 75c0 43 -33 77 -78 77c-43 0 -75 -34 -75 -77z" />
    <glyph glyph-name="ordfeminine" unicode="&#xaa;" horiz-adv-x="757" 
d="M325 373v11c-24 -14 -54 -21 -91 -21c-115 0 -206 95 -206 215c0 121 91 217 206 217c37 0 67 -8 91 -22v12h142v-412h-142zM171 578c0 -42 31 -75 75 -75c45 0 77 33 77 75c0 43 -32 77 -77 77c-44 0 -75 -34 -75 -77z" />
    <glyph glyph-name="numbersignsuperior" unicode="&#xe909;" horiz-adv-x="760" 
d="M56 558v122h80l19 100h126l-19 -100h61l18 100h127l-19 -100h58v-122h-80l-12 -64h57v-122h-79l-18 -99h-126l18 99h-61l-18 -99h-127l18 99h-56v122h79l12 64h-58zM240 558l-12 -64h61l11 64h-60z" />
    <glyph glyph-name="dollarsuperior" unicode="&#xf6e4;" horiz-adv-x="632" 
d="M23 459h135v-1c0 -15 10 -37 47 -37c21 0 26 8 26 13c0 10 -9 13 -48 28c-61 23 -158 65 -158 150c0 59 43 104 109 121v63h131v-65c64 -19 109 -66 109 -133v-4h-135v1c0 12 -11 36 -42 36c-19 0 -24 -8 -24 -13c0 -9 8 -12 48 -27c48 -18 158 -42 158 -143
c0 -67 -46 -113 -114 -129v-62h-131v64c-67 19 -111 66 -111 133v5z" />
    <glyph glyph-name="percentsuperior" unicode="&#xe910;" horiz-adv-x="950" 
d="M19 643c0 82 65 147 147 147s147 -65 147 -147s-65 -147 -147 -147s-147 65 -147 147zM137 643c0 -17 12 -29 29 -29c16 0 28 12 28 29c0 16 -12 28 -28 28c-17 0 -29 -12 -29 -28zM406 406c0 82 64 147 146 147s148 -65 148 -147s-66 -147 -148 -147s-146 65 -146 147z
M523 406c0 -17 13 -29 29 -29c17 0 29 12 29 29c0 16 -12 28 -29 28c-16 0 -29 -12 -29 -28zM247 273h-153l382 507h152z" />
    <glyph glyph-name="centsuperior" unicode="&#xf6e0;" horiz-adv-x="623" 
d="M249 465l124 -55c-20 -39 -56 -70 -98 -86v-67h-133v67c-69 26 -118 90 -118 166c0 75 49 140 118 166v67h133v-67c42 -16 77 -47 98 -86l-125 -56c-8 10 -20 16 -34 16c-23 0 -41 -18 -41 -41c0 -22 18 -39 41 -39c14 0 27 6 35 15z" />
    <glyph glyph-name="sterlingsuperior" unicode="&#xe911;" horiz-adv-x="642" 
d="M29 273v98c49 20 59 43 61 70h-59v117h31c-7 19 -11 40 -11 66c0 108 80 166 172 166c81 0 166 -47 166 -157v-11h-134v4c0 32 -22 36 -35 36c-19 0 -34 -9 -34 -34c0 -19 10 -41 20 -70h111v-117h-94c-1 -10 -3 -20 -5 -30h163v-138h-352z" />
    <glyph glyph-name="Eurosuperior" unicode="&#xe912;" horiz-adv-x="813" 
d="M436 465l126 -54c-44 -88 -136 -148 -241 -148c-110 0 -206 67 -248 162h-50v91h29v11v5h-29v89h47c39 98 138 169 251 169c105 0 196 -60 241 -146l-126 -57c-22 47 -68 70 -115 70c-35 0 -66 -14 -90 -36h136v-89h-176v-5v-11h149v-91h-101c23 -18 51 -29 82 -29
c46 0 91 19 115 69z" />
    <glyph glyph-name="yensuperior" horiz-adv-x="816" 
d="M481 454v-105h-116v-76h-143v76h-116v105h116v5l-12 19h-104v105h36l-127 197h168l111 -175l111 175h167l-127 -197h36v-105h-103l-13 -20v-4h116z" />
    <glyph glyph-name="commaaccent" unicode="&#xf6c3;" horiz-adv-x="537" 
d="M165 -315l-57 55c19 22 36 47 43 56c-5 6 -42 32 -42 81c0 48 40 89 90 89c48 0 88 -36 88 -96c0 -51 -43 -109 -122 -185z" />
    <glyph glyph-name="Aacute" unicode="&#xc1;" 
d="M316 780h198l315 -780h-218l-43 114h-307l-43 -114h-218zM500 295l-85 229l-86 -229h171zM304 818l-67 116l260 185l97 -168z" />
    <glyph glyph-name="Abreve" unicode="&#x102;" 
d="M316 780h198l315 -780h-218l-43 114h-307l-43 -114h-218zM500 295l-85 229l-86 -229h171zM193 976l118 68c32 -51 71 -62 104 -62s71 11 104 62l118 -68c-39 -84 -113 -151 -222 -151c-110 0 -183 67 -222 151z" />
    <glyph glyph-name="Acircumflex" unicode="&#xc2;" 
d="M316 780h198l315 -780h-218l-43 114h-307l-43 -114h-218zM500 295l-85 229l-86 -229h171zM642 932l-86 -107l-141 93l-143 -93l-85 107l228 179z" />
    <glyph glyph-name="Adieresis" unicode="&#xc4;" 
d="M316 780h198l315 -780h-218l-43 114h-307l-43 -114h-218zM500 295l-85 229l-86 -229h171zM193 928c0 52 43 96 97 96c53 0 96 -44 96 -96c0 -54 -43 -98 -96 -98c-54 0 -97 44 -97 98zM445 928c0 52 43 96 97 96c53 0 96 -44 96 -96c0 -54 -43 -98 -96 -98
c-54 0 -97 44 -97 98z" />
    <glyph glyph-name="AEacute" unicode="&#x1fc;" horiz-adv-x="1511" 
d="M645 0v114h-308l-90 -114h-257l627 780h627v-194h-400v-112h329v-181h-329v-100h400v-193h-599zM479 295h166v210zM712 818l-67 116l260 185l97 -168z" />
    <glyph glyph-name="Agrave" unicode="&#xc0;" 
d="M316 780h198l315 -780h-218l-43 114h-307l-43 -114h-218zM500 295l-85 229l-86 -229h171zM594 934l-67 -116l-290 133l97 168z" />
    <glyph glyph-name="Amacron" unicode="&#x100;" 
d="M316 780h198l315 -780h-218l-43 114h-307l-43 -114h-218zM500 295l-85 229l-86 -229h171zM594 978v-148h-358v148h358z" />
    <glyph glyph-name="Aogonek" unicode="&#x104;" 
d="M316 780h197l316 -780c-55 -25 -91 -54 -91 -87c0 -28 27 -37 60 -30l23 -143c-122 -15 -213 40 -213 135c0 56 31 96 71 125h-68l-43 114h-307l-43 -114h-218zM500 295l-85 229l-86 -229h171z" />
    <glyph glyph-name="Aring" unicode="&#xc5;" 
d="M250 911c0 92 74 167 165 167s167 -76 167 -167c0 -54 -27 -102 -68 -132l315 -779h-218l-43 114h-307l-43 -114h-218l315 779c-40 30 -65 78 -65 132zM500 295l-85 229l-86 -229h171zM367 911c0 -27 21 -48 48 -48s48 21 48 48s-21 48 -48 48s-48 -21 -48 -48z" />
    <glyph glyph-name="Atilde" unicode="&#xc3;" 
d="M316 780h198l315 -780h-218l-43 114h-307l-43 -114h-218zM500 295l-85 229l-86 -229h171zM346 849h-133c0 52 10 192 133 192c37 0 67 -13 103 -39c8 -6 16 -12 24 -12c11 0 12 9 11 32h133c0 -52 -10 -192 -133 -192c-37 0 -67 13 -103 39c-8 6 -16 12 -24 12
c-11 0 -12 -9 -11 -32z" />
    <glyph glyph-name="Cacute" unicode="&#x106;" horiz-adv-x="1047" 
d="M624 289l183 -80c-68 -133 -209 -224 -370 -224c-225 0 -414 182 -414 405s189 405 414 405c161 0 300 -91 369 -222l-182 -82c-35 66 -105 111 -187 111c-117 0 -212 -94 -212 -212s95 -212 212 -212c83 0 152 45 187 111zM326 828l-67 116l260 185l97 -168z" />
    <glyph glyph-name="Ccaron" unicode="&#x10c;" horiz-adv-x="1047" 
d="M624 289l183 -80c-68 -133 -209 -224 -370 -224c-225 0 -414 182 -414 405s189 405 414 405c161 0 300 -91 369 -222l-182 -82c-35 66 -105 111 -187 111c-117 0 -212 -94 -212 -212s95 -212 212 -212c83 0 152 45 187 111zM578 1111l86 -107l-227 -179l-228 179l85 107
l143 -92z" />
    <glyph glyph-name="Ccedilla" unicode="&#xc7;" horiz-adv-x="1047" 
d="M624 289l183 -80c-64 -125 -192 -212 -340 -223l-9 -47c60 -18 81 -68 81 -115c0 -71 -47 -129 -137 -129c-67 0 -142 32 -142 32l52 120c22 -11 51 -25 82 -25c32 0 37 15 37 23c0 9 -6 32 -41 20l-48 43l32 82c-197 30 -351 198 -351 400c0 223 189 405 414 405
c161 0 300 -91 369 -222l-182 -82c-35 66 -105 111 -187 111c-117 0 -212 -94 -212 -212s95 -212 212 -212c83 0 152 45 187 111z" />
    <glyph glyph-name="Cdotaccent" unicode="&#x10a;" horiz-adv-x="1047" 
d="M624 289l183 -80c-68 -133 -209 -224 -370 -224c-225 0 -414 182 -414 405s189 405 414 405c161 0 300 -91 369 -222l-182 -82c-35 66 -105 111 -187 111c-117 0 -212 -94 -212 -212s95 -212 212 -212c83 0 152 45 187 111zM343 918c0 52 43 96 97 96c53 0 96 -44 96 -96
c0 -54 -43 -98 -96 -98c-54 0 -97 44 -97 98z" />
    <glyph glyph-name="Dcaron" unicode="&#x10e;" horiz-adv-x="1048" 
d="M60 0v780h362c244 0 369 -178 369 -390c0 -213 -125 -390 -369 -390h-362zM407 586h-147v-393h147c119 0 182 80 182 197s-63 196 -182 196zM566 1111l86 -107l-227 -179l-228 179l85 107l143 -92z" />
    <glyph glyph-name="Dcroat" unicode="&#x110;" horiz-adv-x="1053" 
d="M65 0v297h-57v172h57v311h362c244 0 369 -178 369 -390c0 -213 -125 -390 -369 -390h-362zM430 469v-172h-165v-104h147c119 0 182 80 182 197s-63 196 -182 196h-147v-117h165z" />
    <glyph glyph-name="Eacute" unicode="&#xc9;" horiz-adv-x="926" 
d="M60 0v780h599v-194h-399v-112h328v-181h-328v-100h399v-193h-599zM248 818l-67 116l260 185l97 -168z" />
    <glyph glyph-name="Ecaron" unicode="&#x11a;" horiz-adv-x="926" 
d="M60 0v780h599v-194h-399v-112h328v-181h-328v-100h399v-193h-599zM500 1111l86 -107l-227 -179l-228 179l85 107l143 -92z" />
    <glyph glyph-name="Ecircumflex" unicode="&#xca;" horiz-adv-x="926" 
d="M60 0v780h599v-194h-399v-112h328v-181h-328v-100h399v-193h-599zM586 932l-86 -107l-141 93l-143 -93l-85 107l228 179z" />
    <glyph glyph-name="Edieresis" unicode="&#xcb;" horiz-adv-x="926" 
d="M60 0v780h599v-194h-399v-112h328v-181h-328v-100h399v-193h-599zM137 928c0 52 43 96 97 96c53 0 96 -44 96 -96c0 -54 -43 -98 -96 -98c-54 0 -97 44 -97 98zM389 928c0 52 43 96 97 96c53 0 96 -44 96 -96c0 -54 -43 -98 -96 -98c-54 0 -97 44 -97 98z" />
    <glyph glyph-name="Edotaccent" unicode="&#x116;" horiz-adv-x="926" 
d="M60 0v780h599v-194h-399v-112h328v-181h-328v-100h399v-193h-599zM263 918c0 52 43 96 97 96c53 0 96 -44 96 -96c0 -54 -43 -98 -96 -98c-54 0 -97 44 -97 98z" />
    <glyph glyph-name="Egrave" unicode="&#xc8;" horiz-adv-x="926" 
d="M60 0v780h599v-194h-399v-112h328v-181h-328v-100h399v-193h-599zM538 934l-67 -116l-290 133l97 168z" />
    <glyph glyph-name="Emacron" unicode="&#x112;" horiz-adv-x="926" 
d="M60 0v780h599v-194h-399v-112h328v-181h-328v-100h399v-193h-599zM539 978v-148h-358v148h358z" />
    <glyph glyph-name="Eogonek" unicode="&#x118;" horiz-adv-x="926" 
d="M60 0v780h599v-194h-399v-112h328v-181h-328v-100h399v-193c-55 -25 -89 -54 -89 -87c0 -28 27 -37 60 -30l23 -143c-122 -15 -213 40 -213 135c0 56 31 96 71 125h-451z" />
    <glyph glyph-name="Gbreve" unicode="&#x11e;" horiz-adv-x="1062" 
d="M415 289v166h376v-455h-157v73c-38 -58 -117 -88 -197 -88c-226 0 -414 182 -414 405s188 405 414 405c134 0 255 -65 330 -163l-163 -110c-39 49 -99 80 -167 80c-118 0 -212 -94 -212 -212s94 -212 212 -212c70 0 130 35 167 89v22h-189zM214 976l118 68
c32 -51 71 -62 104 -62s71 11 104 62l118 -68c-39 -84 -113 -151 -222 -151c-110 0 -183 67 -222 151z" />
    <glyph glyph-name="Gdotaccent" unicode="&#x120;" horiz-adv-x="1062" 
d="M415 289v166h376v-455h-157v73c-38 -58 -117 -88 -197 -88c-226 0 -414 182 -414 405s188 405 414 405c134 0 255 -65 330 -163l-163 -110c-39 49 -99 80 -167 80c-118 0 -212 -94 -212 -212s94 -212 212 -212c70 0 130 35 167 89v22h-189zM341 918c0 52 43 96 97 96
c53 0 96 -44 96 -96c0 -54 -43 -98 -96 -98c-54 0 -97 44 -97 98z" />
    <glyph glyph-name="Gcommaaccent" unicode="&#x122;" horiz-adv-x="1062" 
d="M415 289v166h376v-455h-157v73c-38 -58 -117 -88 -197 -88c-226 0 -414 182 -414 405s188 405 414 405c134 0 255 -65 330 -163l-163 -110c-39 49 -99 80 -167 80c-118 0 -212 -94 -212 -212s94 -212 212 -212c70 0 130 35 167 89v22h-189zM417 -315l-57 55
c19 22 36 47 43 56c-5 9 -42 32 -42 81c0 48 40 89 90 89c48 0 88 -36 88 -96c0 -51 -43 -109 -122 -185z" />
    <glyph glyph-name="Hbar" unicode="&#x126;" horiz-adv-x="1071" 
d="M579 780h200v-76h47v-149h-47v-555h-200v290h-318v-290h-199v555h-47v149h47v76h199v-76h318v76zM261 555v-78h318v78h-318z" />
    <glyph glyph-name="Iacute" unicode="&#xcd;" horiz-adv-x="550" 
d="M60 780h200v-780h-200v780zM48 818l-67 116l260 185l97 -168z" />
    <glyph glyph-name="Ibreve" unicode="&#x12c;" horiz-adv-x="550" 
d="M60 780h200v-780h-200v780zM-63 976l118 68c32 -51 71 -62 104 -62s71 11 104 62l118 -68c-39 -84 -113 -151 -222 -151c-110 0 -183 67 -222 151z" />
    <glyph glyph-name="Icircumflex" unicode="&#xce;" horiz-adv-x="550" 
d="M60 780h200v-780h-200v780zM386 932l-86 -107l-141 93l-143 -93l-85 107l228 179z" />
    <glyph glyph-name="Idieresis" unicode="&#xcf;" horiz-adv-x="550" 
d="M60 780h200v-780h-200v780zM-63 928c0 52 43 96 97 96c53 0 96 -44 96 -96c0 -54 -43 -98 -96 -98c-54 0 -97 44 -97 98zM189 928c0 52 43 96 97 96c53 0 96 -44 96 -96c0 -54 -43 -98 -96 -98c-54 0 -97 44 -97 98z" />
    <glyph glyph-name="Idotaccent" unicode="&#x130;" horiz-adv-x="550" 
d="M60 780h200v-780h-200v780zM63 918c0 52 43 96 97 96c53 0 96 -44 96 -96c0 -54 -43 -98 -96 -98c-54 0 -97 44 -97 98z" />
    <glyph glyph-name="Igrave" unicode="&#xcc;" horiz-adv-x="550" 
d="M60 780h200v-780h-200v780zM338 934l-67 -116l-290 133l97 168z" />
    <glyph glyph-name="IJ" unicode="&#x132;" horiz-adv-x="1215" 
d="M60 780h200v-780h-200v780zM733 780h199v-491c0 -209 -135 -304 -297 -304c-156 0 -299 95 -299 304v68h200v-65c0 -93 47 -114 99 -114c58 0 98 21 98 114v488z" />
    <glyph glyph-name="Imacron" unicode="&#x12a;" horiz-adv-x="550" 
d="M60 780h200v-780h-200v780zM339 978v-148h-358v148h358z" />
    <glyph glyph-name="Iogonek" unicode="&#x12e;" horiz-adv-x="550" 
d="M60 780h200v-780h-1c-55 -25 -89 -54 -89 -87c0 -28 27 -37 60 -30l23 -143c-122 -15 -213 40 -213 135c0 56 31 96 71 125h-51v780z" />
    <glyph glyph-name="Itilde" unicode="&#x128;" horiz-adv-x="550" 
d="M60 780h200v-780h-200v780zM91 849h-133c0 52 10 192 133 192c37 0 67 -13 103 -39c8 -6 16 -12 24 -12c11 0 12 9 11 32h133c0 -52 -10 -192 -133 -192c-37 0 -67 13 -103 39c-8 6 -16 12 -24 12c-11 0 -12 -9 -11 -32z" />
    <glyph glyph-name="Jcircumflex" unicode="&#x134;" horiz-adv-x="895" 
d="M413 780h199v-491c0 -209 -135 -304 -297 -304c-156 0 -299 95 -299 304v68h200v-65c0 -93 47 -114 99 -114c58 0 98 21 98 114v488zM739 932l-86 -107l-141 93l-143 -93l-85 107l228 179z" />
    <glyph glyph-name="Kcommaaccent" unicode="&#x136;" horiz-adv-x="998" 
d="M60 0v780h200v-269l242 269h258l-308 -335l324 -445h-248l-215 294l-53 -59v-235h-200zM384 -315l-57 55c19 22 36 47 43 56c-5 9 -42 32 -42 81c0 48 40 89 90 89c48 0 88 -36 88 -96c0 -51 -43 -109 -122 -185z" />
    <glyph glyph-name="Lacute" unicode="&#x139;" horiz-adv-x="876" 
d="M60 0v780h199v-587h374v-193h-573zM48 818l-67 116l260 185l97 -168z" />
    <glyph glyph-name="Lcaron" unicode="&#x13d;" horiz-adv-x="876" 
d="M60 0v780h199v-587h374v-193h-573zM354 518l-57 55c19 22 36 47 43 56c-5 9 -42 32 -42 81c0 48 40 89 90 89c48 0 88 -36 88 -96c0 -51 -43 -109 -122 -185z" />
    <glyph glyph-name="Lcommaaccent" unicode="&#x13b;" horiz-adv-x="876" 
d="M60 0v780h199v-587h374v-193h-573zM311 -315l-57 55c19 22 36 47 43 56c-5 9 -42 32 -42 81c0 48 40 89 90 89c48 0 88 -36 88 -96c0 -51 -43 -109 -122 -185z" />
    <glyph glyph-name="Ldot" unicode="&#x13f;" horiz-adv-x="876" 
d="M60 0v780h199v-587h374v-193h-573zM347 419c0 52 43 96 97 96c53 0 96 -44 96 -96c0 -54 -43 -98 -96 -98c-54 0 -97 44 -97 98z" />
    <glyph glyph-name="Lslash" unicode="&#x141;" horiz-adv-x="884" 
d="M68 780h199v-244l184 84v-206l-184 -84v-137h374v-193h-573v240l-61 -28v206l61 28v334z" />
    <glyph glyph-name="Eng" unicode="&#x14a;" horiz-adv-x="1067" 
d="M260 0h-200v780h170l348 -436v436h199v-790c0 -209 -151 -304 -293 -304c-137 0 -238 90 -268 198l190 61c9 -48 55 -66 89 -66c32 0 83 16 83 114v44l-318 398v-435z" />
    <glyph glyph-name="Nacute" unicode="&#x143;" horiz-adv-x="1067" 
d="M260 0h-200v780h170l348 -436v436h199v-780h-169l-348 435v-435zM308 818l-67 116l260 185l97 -168z" />
    <glyph glyph-name="Ncaron" unicode="&#x147;" horiz-adv-x="1067" 
d="M260 0h-200v780h170l348 -436v436h199v-780h-169l-348 435v-435zM560 1111l86 -107l-227 -179l-228 179l85 107l143 -92z" />
    <glyph glyph-name="Ncommaaccent" unicode="&#x145;" horiz-adv-x="1067" 
d="M260 0h-200v780h170l348 -436v436h199v-780h-169l-348 435v-435zM386 -315l-57 55c19 22 36 47 43 56c-5 9 -42 32 -42 81c0 48 40 89 90 89c48 0 88 -36 88 -96c0 -51 -43 -109 -122 -185z" />
    <glyph glyph-name="Ntilde" unicode="&#xd1;" horiz-adv-x="1067" 
d="M260 0h-200v780h170l348 -436v436h199v-780h-169l-348 435v-435zM350 849h-133c0 52 10 192 133 192c37 0 67 -13 103 -39c8 -6 16 -12 24 -12c11 0 12 9 11 32h133c0 -52 -10 -192 -133 -192c-37 0 -67 13 -103 39c-8 6 -16 12 -24 12c-11 0 -12 -9 -11 -32z" />
    <glyph glyph-name="Oacute" unicode="&#xd3;" horiz-adv-x="1104" 
d="M23 390c0 223 189 405 414 405c228 0 414 -182 414 -405s-186 -405 -414 -405c-225 0 -414 182 -414 405zM225 390c0 -118 95 -212 212 -212c120 0 212 94 212 212s-92 212 -212 212c-117 0 -212 -94 -212 -212zM327 818l-67 116l260 185l97 -168z" />
    <glyph glyph-name="Obreve" unicode="&#x14e;" horiz-adv-x="1104" 
d="M23 390c0 223 189 405 414 405c228 0 414 -182 414 -405s-186 -405 -414 -405c-225 0 -414 182 -414 405zM225 390c0 -118 95 -212 212 -212c120 0 212 94 212 212s-92 212 -212 212c-117 0 -212 -94 -212 -212zM215 976l118 68c32 -51 71 -62 104 -62s71 11 104 62
l118 -68c-39 -84 -113 -151 -222 -151c-110 0 -183 67 -222 151z" />
    <glyph glyph-name="Ocircumflex" unicode="&#xd4;" horiz-adv-x="1104" 
d="M23 390c0 223 189 405 414 405c228 0 414 -182 414 -405s-186 -405 -414 -405c-225 0 -414 182 -414 405zM225 390c0 -118 95 -212 212 -212c120 0 212 94 212 212s-92 212 -212 212c-117 0 -212 -94 -212 -212zM664 932l-86 -107l-141 93l-143 -93l-85 107l228 179z" />
    <glyph glyph-name="Odieresis" unicode="&#xd6;" horiz-adv-x="1104" 
d="M23 390c0 223 189 405 414 405c228 0 414 -182 414 -405s-186 -405 -414 -405c-225 0 -414 182 -414 405zM225 390c0 -118 95 -212 212 -212c120 0 212 94 212 212s-92 212 -212 212c-117 0 -212 -94 -212 -212zM215 928c0 52 43 96 97 96c53 0 96 -44 96 -96
c0 -54 -43 -98 -96 -98c-54 0 -97 44 -97 98zM467 928c0 52 43 96 97 96c53 0 96 -44 96 -96c0 -54 -43 -98 -96 -98c-54 0 -97 44 -97 98z" />
    <glyph glyph-name="Ograve" unicode="&#xd2;" horiz-adv-x="1104" 
d="M23 390c0 223 189 405 414 405c228 0 414 -182 414 -405s-186 -405 -414 -405c-225 0 -414 182 -414 405zM225 390c0 -118 95 -212 212 -212c120 0 212 94 212 212s-92 212 -212 212c-117 0 -212 -94 -212 -212zM616 934l-67 -116l-290 133l97 168z" />
    <glyph glyph-name="Ohungarumlaut" unicode="&#x150;" horiz-adv-x="1104" 
d="M23 390c0 223 189 405 414 405c228 0 414 -182 414 -405s-186 -405 -414 -405c-225 0 -414 182 -414 405zM225 390c0 -118 95 -212 212 -212c120 0 212 94 212 212s-92 212 -212 212c-117 0 -212 -94 -212 -212zM299 870l-96 96l164 204l137 -137zM568 870l-95 96
l162 205l137 -137z" />
    <glyph glyph-name="Omacron" unicode="&#x14c;" horiz-adv-x="1104" 
d="M23 390c0 223 189 405 414 405c228 0 414 -182 414 -405s-186 -405 -414 -405c-225 0 -414 182 -414 405zM225 390c0 -118 95 -212 212 -212c120 0 212 94 212 212s-92 212 -212 212c-117 0 -212 -94 -212 -212zM617 978v-148h-358v148h358z" />
    <glyph glyph-name="Oslashacute" unicode="&#x1fe;" horiz-adv-x="1103" 
d="M326 818l-67 116l260 185l97 -168zM23 390c0 223 188 405 414 405c72 0 140 -19 200 -51l29 36h169l-94 -117c68 -72 110 -168 110 -273c0 -223 -187 -405 -414 -405c-73 0 -141 19 -200 51l-29 -36h-169l93 116c-68 72 -109 169 -109 274zM649 390c0 43 -13 83 -34 116
l-254 -315c24 -9 49 -13 76 -13c119 0 212 94 212 212zM225 390c0 -43 12 -83 34 -116l253 314c-24 9 -49 14 -75 14c-118 0 -212 -94 -212 -212z" />
    <glyph glyph-name="Otilde" unicode="&#xd5;" horiz-adv-x="1104" 
d="M23 390c0 223 189 405 414 405c228 0 414 -182 414 -405s-186 -405 -414 -405c-225 0 -414 182 -414 405zM225 390c0 -118 95 -212 212 -212c120 0 212 94 212 212s-92 212 -212 212c-117 0 -212 -94 -212 -212zM369 849h-133c0 52 10 192 133 192c37 0 67 -13 103 -39
c8 -6 16 -12 24 -12c11 0 12 9 11 32h133c0 -52 -10 -192 -133 -192c-37 0 -67 13 -103 39c-8 6 -16 12 -24 12c-11 0 -12 -9 -11 -32z" />
    <glyph glyph-name="Racute" unicode="&#x154;" horiz-adv-x="996" 
d="M60 780h381c200 0 292 -130 292 -285c0 -109 -49 -211 -154 -259l169 -236h-239l-148 209h-102v-209h-199v780zM430 598h-171v-208h171c80 0 110 49 110 103c0 60 -30 105 -110 105zM292 818l-67 116l260 185l97 -168z" />
    <glyph glyph-name="Rcaron" unicode="&#x158;" horiz-adv-x="996" 
d="M60 780h381c200 0 292 -130 292 -285c0 -109 -49 -211 -154 -259l169 -236h-239l-148 209h-102v-209h-199v780zM430 598h-171v-208h171c80 0 110 49 110 103c0 60 -30 105 -110 105zM544 1111l86 -107l-227 -179l-228 179l85 107l143 -92z" />
    <glyph glyph-name="Rcommaaccent" unicode="&#x156;" horiz-adv-x="996" 
d="M60 780h381c200 0 292 -130 292 -285c0 -109 -49 -211 -154 -259l169 -236h-239l-148 209h-102v-209h-199v780zM430 598h-171v-208h171c80 0 110 49 110 103c0 60 -30 105 -110 105zM369 -315l-57 55c19 22 36 47 43 56c-5 9 -42 32 -42 81c0 48 40 89 90 89
c48 0 88 -36 88 -96c0 -51 -43 -109 -122 -185z" />
    <glyph glyph-name="Sacute" unicode="&#x15a;" horiz-adv-x="929" 
d="M29 234h195v-5c0 -30 41 -71 132 -71c75 0 99 25 99 48c0 33 -39 53 -133 85c-124 41 -287 101 -287 262c0 149 127 242 305 242c182 0 319 -97 319 -252v-11h-195v7c0 38 -39 83 -120 83c-68 0 -95 -27 -95 -53c0 -31 36 -47 129 -79c108 -38 292 -102 292 -273
c0 -152 -132 -232 -310 -232c-187 0 -331 87 -331 240v9zM229 818l-67 116l260 185l97 -168z" />
    <glyph glyph-name="Scaron" unicode="&#x160;" horiz-adv-x="929" 
d="M29 234h195v-5c0 -30 41 -71 132 -71c75 0 99 25 99 48c0 33 -39 53 -133 85c-124 41 -287 101 -287 262c0 149 127 242 305 242c182 0 319 -97 319 -252v-11h-195v7c0 38 -39 83 -120 83c-68 0 -95 -27 -95 -53c0 -31 36 -47 129 -79c108 -38 292 -102 292 -273
c0 -152 -132 -232 -310 -232c-187 0 -331 87 -331 240v9zM482 1111l86 -107l-227 -179l-228 179l85 107l143 -92z" />
    <glyph glyph-name="Scedilla" unicode="&#x15e;" horiz-adv-x="929" 
d="M29 234h195v-5c0 -30 41 -71 132 -71c75 0 99 25 99 48c0 33 -39 53 -133 85c-124 41 -287 101 -287 262c0 149 127 242 305 242c182 0 319 -97 319 -252v-11h-195v7c0 38 -39 83 -120 83c-68 0 -95 -27 -95 -53c0 -31 36 -47 129 -79c108 -38 292 -102 292 -273
c0 -137 -108 -216 -259 -229l-8 -43c60 -18 81 -68 81 -115c0 -71 -47 -129 -137 -129c-67 0 -142 32 -142 32l52 120c22 -11 51 -25 82 -25c32 0 37 15 37 23c0 9 -6 32 -41 20l-48 43l28 73c-165 13 -286 97 -286 238v9z" />
    <glyph glyph-name="Scircumflex" unicode="&#x15c;" horiz-adv-x="929" 
d="M29 234h195v-5c0 -30 41 -71 132 -71c75 0 99 25 99 48c0 33 -39 53 -133 85c-124 41 -287 101 -287 262c0 149 127 242 305 242c182 0 319 -97 319 -252v-11h-195v7c0 38 -39 83 -120 83c-68 0 -95 -27 -95 -53c0 -31 36 -47 129 -79c108 -38 292 -102 292 -273
c0 -152 -132 -232 -310 -232c-187 0 -331 87 -331 240v9zM567 932l-86 -107l-141 93l-143 -93l-85 107l228 179z" />
    <glyph glyph-name="Scommaaccent" unicode="&#x218;" horiz-adv-x="929" 
d="M29 234h195v-5c0 -30 41 -71 132 -71c75 0 99 25 99 48c0 33 -39 53 -133 85c-124 41 -287 101 -287 262c0 149 127 242 305 242c182 0 319 -97 319 -252v-11h-195v7c0 38 -39 83 -120 83c-68 0 -95 -27 -95 -53c0 -31 36 -47 129 -79c108 -38 292 -102 292 -273
c0 -152 -132 -232 -310 -232c-187 0 -331 87 -331 240v9zM325 -315l-57 55c19 22 36 47 43 56c-5 9 -42 32 -42 81c0 48 40 89 90 89c48 0 88 -36 88 -96c0 -51 -43 -109 -122 -185z" />
    <glyph glyph-name="Tbar" unicode="&#x166;" horiz-adv-x="949" 
d="M17 586v194h686v-194h-243v-189h121v-148h-121v-249h-200v249h-122v148h122v189h-243z" />
    <glyph glyph-name="Tcaron" unicode="&#x164;" horiz-adv-x="940" 
d="M12 586v194h686v-194h-243v-586h-200v586h-243zM495 1111l86 -107l-227 -179l-228 179l85 107l143 -92z" />
    <glyph glyph-name="Tcommaaccent" unicode="&#x162;" horiz-adv-x="940" 
d="M12 586v194h686v-194h-243v-586h-200v586h-243zM320 -315l-57 55c19 22 36 47 43 56c-5 9 -42 32 -42 81c0 48 40 89 90 89c48 0 88 -36 88 -96c0 -51 -43 -109 -122 -185z" />
    <glyph glyph-name="Uacute" unicode="&#xda;" horiz-adv-x="1045" 
d="M567 780h199v-439c0 -201 -126 -356 -359 -356c-234 0 -358 155 -358 356v439h200v-427c0 -113 54 -175 158 -175c105 0 160 62 160 175v427zM296 818l-67 116l260 185l97 -168z" />
    <glyph glyph-name="Ubreve" unicode="&#x16c;" horiz-adv-x="1045" 
d="M567 780h199v-439c0 -201 -126 -356 -359 -356c-234 0 -358 155 -358 356v439h200v-427c0 -113 54 -175 158 -175c105 0 160 62 160 175v427zM185 976l118 68c32 -51 71 -62 104 -62s71 11 104 62l118 -68c-39 -84 -113 -151 -222 -151c-110 0 -183 67 -222 151z" />
    <glyph glyph-name="Ucircumflex" unicode="&#xdb;" horiz-adv-x="1045" 
d="M567 780h199v-439c0 -201 -126 -356 -359 -356c-234 0 -358 155 -358 356v439h200v-427c0 -113 54 -175 158 -175c105 0 160 62 160 175v427zM634 932l-86 -107l-141 93l-143 -93l-85 107l228 179z" />
    <glyph glyph-name="Udieresis" unicode="&#xdc;" horiz-adv-x="1045" 
d="M567 780h199v-439c0 -201 -126 -356 -359 -356c-234 0 -358 155 -358 356v439h200v-427c0 -113 54 -175 158 -175c105 0 160 62 160 175v427zM185 928c0 52 43 96 97 96c53 0 96 -44 96 -96c0 -54 -43 -98 -96 -98c-54 0 -97 44 -97 98zM437 928c0 52 43 96 97 96
c53 0 96 -44 96 -96c0 -54 -43 -98 -96 -98c-54 0 -97 44 -97 98z" />
    <glyph glyph-name="Ugrave" unicode="&#xd9;" horiz-adv-x="1045" 
d="M567 780h199v-439c0 -201 -126 -356 -359 -356c-234 0 -358 155 -358 356v439h200v-427c0 -113 54 -175 158 -175c105 0 160 62 160 175v427zM586 934l-67 -116l-290 133l97 168z" />
    <glyph glyph-name="Uhungarumlaut" unicode="&#x170;" horiz-adv-x="1045" 
d="M567 780h199v-439c0 -201 -126 -356 -359 -356c-234 0 -358 155 -358 356v439h200v-427c0 -113 54 -175 158 -175c105 0 160 62 160 175v427zM269 870l-96 96l164 204l137 -137zM538 870l-95 96l162 205l137 -137z" />
    <glyph glyph-name="Umacron" unicode="&#x16a;" horiz-adv-x="1045" 
d="M567 780h199v-439c0 -201 -126 -356 -359 -356c-234 0 -358 155 -358 356v439h200v-427c0 -113 54 -175 158 -175c105 0 160 62 160 175v427zM587 978v-148h-358v148h358z" />
    <glyph glyph-name="Uogonek" unicode="&#x172;" horiz-adv-x="1045" 
d="M567 780h199v-439c0 -172 -93 -311 -266 -347c-47 -23 -76 -50 -76 -81c0 -28 27 -37 60 -30l23 -143c-122 -15 -213 40 -213 135c0 48 23 85 56 113c-197 23 -301 169 -301 353v439h200v-427c0 -113 54 -175 158 -175c105 0 160 62 160 175v427z" />
    <glyph glyph-name="Uring" unicode="&#x16e;" horiz-adv-x="1045" 
d="M567 780h199v-439c0 -201 -126 -356 -359 -356c-234 0 -358 155 -358 356v439h200v-427c0 -113 54 -175 158 -175c105 0 160 62 160 175v427zM241 970c0 92 74 167 165 167s167 -76 167 -167s-76 -165 -167 -165s-165 74 -165 165zM358 970c0 -27 21 -48 48 -48
s48 21 48 48s-21 48 -48 48s-48 -21 -48 -48z" />
    <glyph glyph-name="Utilde" unicode="&#x168;" horiz-adv-x="1045" 
d="M567 780h199v-439c0 -201 -126 -356 -359 -356c-234 0 -358 155 -358 356v439h200v-427c0 -113 54 -175 158 -175c105 0 160 62 160 175v427zM339 849h-133c0 52 10 192 133 192c37 0 67 -13 103 -39c8 -6 16 -12 24 -12c11 0 12 9 11 32h133c0 -52 -10 -192 -133 -192
c-37 0 -67 13 -103 39c-8 6 -16 12 -24 12c-11 0 -12 -9 -11 -32z" />
    <glyph glyph-name="Wacute" unicode="&#x1e82;" horiz-adv-x="1377" 
d="M425 0h-207l-219 780h213l126 -465l146 465h178l146 -464l126 464h214l-219 -780h-207l-149 453zM462 818l-67 116l260 185l97 -168z" />
    <glyph glyph-name="Wcircumflex" unicode="&#x174;" horiz-adv-x="1377" 
d="M425 0h-207l-219 780h213l126 -465l146 465h178l146 -464l126 464h214l-219 -780h-207l-149 453zM800 932l-86 -107l-141 93l-143 -93l-85 107l228 179z" />
    <glyph glyph-name="Wdieresis" unicode="&#x1e84;" horiz-adv-x="1377" 
d="M425 0h-207l-219 780h213l126 -465l146 465h178l146 -464l126 464h214l-219 -780h-207l-149 453zM351 928c0 52 43 96 97 96c53 0 96 -44 96 -96c0 -54 -43 -98 -96 -98c-54 0 -97 44 -97 98zM603 928c0 52 43 96 97 96c53 0 96 -44 96 -96c0 -54 -43 -98 -96 -98
c-54 0 -97 44 -97 98z" />
    <glyph glyph-name="Wgrave" unicode="&#x1e80;" horiz-adv-x="1377" 
d="M425 0h-207l-219 780h213l126 -465l146 465h178l146 -464l126 464h214l-219 -780h-207l-149 453zM752 934l-67 -116l-290 133l97 168z" />
    <glyph glyph-name="Yacute" unicode="&#xdd;" horiz-adv-x="1046" 
d="M235 780l172 -283l173 283h236l-309 -494v-286h-199v286l-308 494h235zM296 818l-67 116l260 185l97 -168z" />
    <glyph glyph-name="ycircumflex" unicode="&#x177;" horiz-adv-x="1046" 
d="M235 780l172 -283l173 283h236l-309 -494v-286h-199v286l-308 494h235zM634 932l-86 -107l-141 93l-143 -93l-85 107l228 179z" />
    <glyph glyph-name="Ydieresis" unicode="&#x178;" horiz-adv-x="1046" 
d="M235 780l172 -283l173 283h236l-309 -494v-286h-199v286l-308 494h235zM185 928c0 52 43 96 97 96c53 0 96 -44 96 -96c0 -54 -43 -98 -96 -98c-54 0 -97 44 -97 98zM437 928c0 52 43 96 97 96c53 0 96 -44 96 -96c0 -54 -43 -98 -96 -98c-54 0 -97 44 -97 98z" />
    <glyph glyph-name="Ygrave" unicode="&#x1ef2;" horiz-adv-x="1046" 
d="M235 780l172 -283l173 283h236l-309 -494v-286h-199v286l-308 494h235zM586 934l-67 -116l-290 133l97 168z" />
    <glyph glyph-name="Zacute" unicode="&#x179;" horiz-adv-x="959" 
d="M43 586v194h649v-146l-364 -441h365v-193h-662v146l363 440h-351zM251 818l-67 116l260 185l97 -168z" />
    <glyph glyph-name="Zcaron" unicode="&#x17d;" horiz-adv-x="959" 
d="M43 586v194h649v-146l-364 -441h365v-193h-662v146l363 440h-351zM503 1111l86 -107l-227 -179l-228 179l85 107l143 -92z" />
    <glyph glyph-name="Zdotaccent" unicode="&#x17b;" horiz-adv-x="959" 
d="M43 586v194h649v-146l-364 -441h365v-193h-662v146l363 440h-351zM266 918c0 52 43 96 97 96c53 0 96 -44 96 -96c0 -54 -43 -98 -96 -98c-54 0 -97 44 -97 98z" />
    <glyph glyph-name="aacute" unicode="&#xe1;" 
d="M316 780h198l315 -780h-218l-43 114h-307l-43 -114h-218zM500 295l-85 229l-86 -229h171zM304 818l-67 116l260 185l97 -168z" />
    <glyph glyph-name="abreve" unicode="&#x103;" 
d="M316 780h198l315 -780h-218l-43 114h-307l-43 -114h-218zM500 295l-85 229l-86 -229h171zM193 976l118 68c32 -51 71 -62 104 -62s71 11 104 62l118 -68c-39 -84 -113 -151 -222 -151c-110 0 -183 67 -222 151z" />
    <glyph glyph-name="acircumflex" unicode="&#xe2;" 
d="M316 780h198l315 -780h-218l-43 114h-307l-43 -114h-218zM500 295l-85 229l-86 -229h171zM642 932l-86 -107l-141 93l-143 -93l-85 107l228 179z" />
    <glyph glyph-name="adieresis" unicode="&#xe4;" 
d="M316 780h198l315 -780h-218l-43 114h-307l-43 -114h-218zM500 295l-85 229l-86 -229h171zM193 928c0 52 43 96 97 96c53 0 96 -44 96 -96c0 -54 -43 -98 -96 -98c-54 0 -97 44 -97 98zM445 928c0 52 43 96 97 96c53 0 96 -44 96 -96c0 -54 -43 -98 -96 -98
c-54 0 -97 44 -97 98z" />
    <glyph glyph-name="aeacute" unicode="&#x1fd;" horiz-adv-x="1511" 
d="M645 0v114h-308l-90 -114h-257l627 780h627v-194h-400v-112h329v-181h-329v-100h400v-193h-599zM479 295h166v210zM712 818l-67 116l260 185l97 -168z" />
    <glyph glyph-name="agrave" unicode="&#xe0;" 
d="M316 780h198l315 -780h-218l-43 114h-307l-43 -114h-218zM500 295l-85 229l-86 -229h171zM594 934l-67 -116l-290 133l97 168z" />
    <glyph glyph-name="amacron" unicode="&#x101;" 
d="M316 780h198l315 -780h-218l-43 114h-307l-43 -114h-218zM500 295l-85 229l-86 -229h171zM594 978v-148h-358v148h358z" />
    <glyph glyph-name="aogonek" unicode="&#x105;" 
d="M316 780h197l316 -780c-55 -25 -91 -54 -91 -87c0 -28 27 -37 60 -30l23 -143c-122 -15 -213 40 -213 135c0 56 31 96 71 125h-68l-43 114h-307l-43 -114h-218zM500 295l-85 229l-86 -229h171z" />
    <glyph glyph-name="aring" unicode="&#xe5;" 
d="M250 911c0 92 74 167 165 167s167 -76 167 -167c0 -54 -27 -102 -68 -132l315 -779h-218l-43 114h-307l-43 -114h-218l315 779c-40 30 -65 78 -65 132zM500 295l-85 229l-86 -229h171zM367 911c0 -27 21 -48 48 -48s48 21 48 48s-21 48 -48 48s-48 -21 -48 -48z" />
    <glyph glyph-name="atilde" unicode="&#xe3;" 
d="M316 780h198l315 -780h-218l-43 114h-307l-43 -114h-218zM500 295l-85 229l-86 -229h171zM346 849h-133c0 52 10 192 133 192c37 0 67 -13 103 -39c8 -6 16 -12 24 -12c11 0 12 9 11 32h133c0 -52 -10 -192 -133 -192c-37 0 -67 13 -103 39c-8 6 -16 12 -24 12
c-11 0 -12 -9 -11 -32z" />
    <glyph glyph-name="cacute" unicode="&#x107;" horiz-adv-x="1047" 
d="M624 289l183 -80c-68 -133 -209 -224 -370 -224c-225 0 -414 182 -414 405s189 405 414 405c161 0 300 -91 369 -222l-182 -82c-35 66 -105 111 -187 111c-117 0 -212 -94 -212 -212s95 -212 212 -212c83 0 152 45 187 111zM326 828l-67 116l260 185l97 -168z" />
    <glyph glyph-name="ccaron" unicode="&#x10d;" horiz-adv-x="1047" 
d="M624 289l183 -80c-68 -133 -209 -224 -370 -224c-225 0 -414 182 -414 405s189 405 414 405c161 0 300 -91 369 -222l-182 -82c-35 66 -105 111 -187 111c-117 0 -212 -94 -212 -212s95 -212 212 -212c83 0 152 45 187 111zM578 1111l86 -107l-227 -179l-228 179l85 107
l143 -92z" />
    <glyph glyph-name="ccedilla" unicode="&#xe7;" horiz-adv-x="1047" 
d="M624 289l183 -80c-64 -125 -192 -212 -340 -223l-9 -47c60 -18 81 -68 81 -115c0 -71 -47 -129 -137 -129c-67 0 -142 32 -142 32l52 120c22 -11 51 -25 82 -25c32 0 37 15 37 23c0 9 -6 32 -41 20l-48 43l32 82c-197 30 -351 198 -351 400c0 223 189 405 414 405
c161 0 300 -91 369 -222l-182 -82c-35 66 -105 111 -187 111c-117 0 -212 -94 -212 -212s95 -212 212 -212c83 0 152 45 187 111z" />
    <glyph glyph-name="cdotaccent" unicode="&#x10b;" horiz-adv-x="1047" 
d="M624 289l183 -80c-68 -133 -209 -224 -370 -224c-225 0 -414 182 -414 405s189 405 414 405c161 0 300 -91 369 -222l-182 -82c-35 66 -105 111 -187 111c-117 0 -212 -94 -212 -212s95 -212 212 -212c83 0 152 45 187 111zM343 918c0 52 43 96 97 96c53 0 96 -44 96 -96
c0 -54 -43 -98 -96 -98c-54 0 -97 44 -97 98z" />
    <glyph glyph-name="dcaron" unicode="&#x10f;" horiz-adv-x="1048" 
d="M60 0v780h362c244 0 369 -178 369 -390c0 -213 -125 -390 -369 -390h-362zM407 586h-147v-393h147c119 0 182 80 182 197s-63 196 -182 196zM566 1111l86 -107l-227 -179l-228 179l85 107l143 -92z" />
    <glyph glyph-name="dcroat" unicode="&#x111;" horiz-adv-x="1053" 
d="M65 0v297h-57v172h57v311h362c244 0 369 -178 369 -390c0 -213 -125 -390 -369 -390h-362zM430 469v-172h-165v-104h147c119 0 182 80 182 197s-63 196 -182 196h-147v-117h165z" />
    <glyph glyph-name="eacute" unicode="&#xe9;" horiz-adv-x="926" 
d="M60 0v780h599v-194h-399v-112h328v-181h-328v-100h399v-193h-599zM248 818l-67 116l260 185l97 -168z" />
    <glyph glyph-name="ecaron" unicode="&#x11b;" horiz-adv-x="926" 
d="M60 0v780h599v-194h-399v-112h328v-181h-328v-100h399v-193h-599zM500 1111l86 -107l-227 -179l-228 179l85 107l143 -92z" />
    <glyph glyph-name="ecircumflex" unicode="&#xea;" horiz-adv-x="926" 
d="M60 0v780h599v-194h-399v-112h328v-181h-328v-100h399v-193h-599zM586 932l-86 -107l-141 93l-143 -93l-85 107l228 179z" />
    <glyph glyph-name="edieresis" unicode="&#xeb;" horiz-adv-x="926" 
d="M60 0v780h599v-194h-399v-112h328v-181h-328v-100h399v-193h-599zM137 928c0 52 43 96 97 96c53 0 96 -44 96 -96c0 -54 -43 -98 -96 -98c-54 0 -97 44 -97 98zM389 928c0 52 43 96 97 96c53 0 96 -44 96 -96c0 -54 -43 -98 -96 -98c-54 0 -97 44 -97 98z" />
    <glyph glyph-name="edotaccent" unicode="&#x117;" horiz-adv-x="926" 
d="M60 0v780h599v-194h-399v-112h328v-181h-328v-100h399v-193h-599zM263 918c0 52 43 96 97 96c53 0 96 -44 96 -96c0 -54 -43 -98 -96 -98c-54 0 -97 44 -97 98z" />
    <glyph glyph-name="egrave" unicode="&#xe8;" horiz-adv-x="926" 
d="M60 0v780h599v-194h-399v-112h328v-181h-328v-100h399v-193h-599zM538 934l-67 -116l-290 133l97 168z" />
    <glyph glyph-name="emacron" unicode="&#x113;" horiz-adv-x="926" 
d="M60 0v780h599v-194h-399v-112h328v-181h-328v-100h399v-193h-599zM539 978v-148h-358v148h358z" />
    <glyph glyph-name="eogonek" unicode="&#x119;" horiz-adv-x="926" 
d="M60 0v780h599v-194h-399v-112h328v-181h-328v-100h399v-193c-55 -25 -89 -54 -89 -87c0 -28 27 -37 60 -30l23 -143c-122 -15 -213 40 -213 135c0 56 31 96 71 125h-451z" />
    <glyph glyph-name="gbreve" unicode="&#x11f;" horiz-adv-x="1062" 
d="M415 289v166h376v-455h-157v73c-38 -58 -117 -88 -197 -88c-226 0 -414 182 -414 405s188 405 414 405c134 0 255 -65 330 -163l-163 -110c-39 49 -99 80 -167 80c-118 0 -212 -94 -212 -212s94 -212 212 -212c70 0 130 35 167 89v22h-189zM214 976l118 68
c32 -51 71 -62 104 -62s71 11 104 62l118 -68c-39 -84 -113 -151 -222 -151c-110 0 -183 67 -222 151z" />
    <glyph glyph-name="gdotaccent" unicode="&#x121;" horiz-adv-x="1062" 
d="M415 289v166h376v-455h-157v73c-38 -58 -117 -88 -197 -88c-226 0 -414 182 -414 405s188 405 414 405c134 0 255 -65 330 -163l-163 -110c-39 49 -99 80 -167 80c-118 0 -212 -94 -212 -212s94 -212 212 -212c70 0 130 35 167 89v22h-189zM341 918c0 52 43 96 97 96
c53 0 96 -44 96 -96c0 -54 -43 -98 -96 -98c-54 0 -97 44 -97 98z" />
    <glyph glyph-name="gcommaaccent" unicode="&#x123;" horiz-adv-x="1062" 
d="M415 289v166h376v-455h-157v73c-38 -58 -117 -88 -197 -88c-226 0 -414 182 -414 405s188 405 414 405c134 0 255 -65 330 -163l-163 -110c-39 49 -99 80 -167 80c-118 0 -212 -94 -212 -212s94 -212 212 -212c70 0 130 35 167 89v22h-189zM417 -315l-57 55
c19 22 36 47 43 56c-5 9 -42 32 -42 81c0 48 40 89 90 89c48 0 88 -36 88 -96c0 -51 -43 -109 -122 -185z" />
    <glyph glyph-name="hbar" unicode="&#x127;" horiz-adv-x="1071" 
d="M579 780h200v-76h47v-149h-47v-555h-200v290h-318v-290h-199v555h-47v149h47v76h199v-76h318v76zM261 555v-78h318v78h-318z" />
    <glyph glyph-name="iacute" unicode="&#xed;" horiz-adv-x="550" 
d="M60 780h200v-780h-200v780zM48 818l-67 116l260 185l97 -168z" />
    <glyph glyph-name="ibreve" unicode="&#x12d;" horiz-adv-x="550" 
d="M60 780h200v-780h-200v780zM-63 976l118 68c32 -51 71 -62 104 -62s71 11 104 62l118 -68c-39 -84 -113 -151 -222 -151c-110 0 -183 67 -222 151z" />
    <glyph glyph-name="icircumflex" unicode="&#xee;" horiz-adv-x="550" 
d="M60 780h200v-780h-200v780zM386 932l-86 -107l-141 93l-143 -93l-85 107l228 179z" />
    <glyph glyph-name="idieresis" unicode="&#xef;" horiz-adv-x="550" 
d="M60 780h200v-780h-200v780zM-63 928c0 52 43 96 97 96c53 0 96 -44 96 -96c0 -54 -43 -98 -96 -98c-54 0 -97 44 -97 98zM189 928c0 52 43 96 97 96c53 0 96 -44 96 -96c0 -54 -43 -98 -96 -98c-54 0 -97 44 -97 98z" />
    <glyph glyph-name="igrave" unicode="&#xec;" horiz-adv-x="550" 
d="M60 780h200v-780h-200v780zM338 934l-67 -116l-290 133l97 168z" />
    <glyph glyph-name="ij" unicode="&#x133;" horiz-adv-x="1215" 
d="M60 780h200v-780h-200v780zM733 780h199v-491c0 -209 -135 -304 -297 -304c-156 0 -299 95 -299 304v68h200v-65c0 -93 47 -114 99 -114c58 0 98 21 98 114v488z" />
    <glyph glyph-name="imacron" unicode="&#x12b;" horiz-adv-x="550" 
d="M60 780h200v-780h-200v780zM339 978v-148h-358v148h358z" />
    <glyph glyph-name="iogonek" unicode="&#x12f;" horiz-adv-x="550" 
d="M60 780h200v-780h-1c-55 -25 -89 -54 -89 -87c0 -28 27 -37 60 -30l23 -143c-122 -15 -213 40 -213 135c0 56 31 96 71 125h-51v780z" />
    <glyph glyph-name="itilde" unicode="&#x129;" horiz-adv-x="550" 
d="M60 780h200v-780h-200v780zM91 849h-133c0 52 10 192 133 192c37 0 67 -13 103 -39c8 -6 16 -12 24 -12c11 0 12 9 11 32h133c0 -52 -10 -192 -133 -192c-37 0 -67 13 -103 39c-8 6 -16 12 -24 12c-11 0 -12 -9 -11 -32z" />
    <glyph glyph-name="jcircumflex" unicode="&#x135;" horiz-adv-x="895" 
d="M413 780h199v-491c0 -209 -135 -304 -297 -304c-156 0 -299 95 -299 304v68h200v-65c0 -93 47 -114 99 -114c58 0 98 21 98 114v488zM739 932l-86 -107l-141 93l-143 -93l-85 107l228 179z" />
    <glyph glyph-name="kcommaaccent" unicode="&#x137;" horiz-adv-x="998" 
d="M60 0v780h200v-269l242 269h258l-308 -335l324 -445h-248l-215 294l-53 -59v-235h-200zM384 -315l-57 55c19 22 36 47 43 56c-5 9 -42 32 -42 81c0 48 40 89 90 89c48 0 88 -36 88 -96c0 -51 -43 -109 -122 -185z" />
    <glyph glyph-name="lacute" unicode="&#x13a;" horiz-adv-x="876" 
d="M60 0v780h199v-587h374v-193h-573zM48 818l-67 116l260 185l97 -168z" />
    <glyph glyph-name="lcaron" unicode="&#x13e;" horiz-adv-x="876" 
d="M60 0v780h199v-587h374v-193h-573zM354 518l-57 55c19 22 36 47 43 56c-5 9 -42 32 -42 81c0 48 40 89 90 89c48 0 88 -36 88 -96c0 -51 -43 -109 -122 -185z" />
    <glyph glyph-name="lcommaaccent" unicode="&#x13c;" horiz-adv-x="876" 
d="M60 0v780h199v-587h374v-193h-573zM311 -315l-57 55c19 22 36 47 43 56c-5 9 -42 32 -42 81c0 48 40 89 90 89c48 0 88 -36 88 -96c0 -51 -43 -109 -122 -185z" />
    <glyph glyph-name="ldot" unicode="&#x140;" horiz-adv-x="876" 
d="M60 0v780h199v-587h374v-193h-573zM347 419c0 52 43 96 97 96c53 0 96 -44 96 -96c0 -54 -43 -98 -96 -98c-54 0 -97 44 -97 98z" />
    <glyph glyph-name="lslash" unicode="&#x142;" horiz-adv-x="884" 
d="M68 780h199v-244l184 84v-206l-184 -84v-137h374v-193h-573v240l-61 -28v206l61 28v334z" />
    <glyph glyph-name="eng" unicode="&#x14b;" horiz-adv-x="1067" 
d="M260 0h-200v780h170l348 -436v436h199v-790c0 -209 -151 -304 -293 -304c-137 0 -238 90 -268 198l190 61c9 -48 55 -66 89 -66c32 0 83 16 83 114v44l-318 398v-435z" />
    <glyph glyph-name="nacute" unicode="&#x144;" horiz-adv-x="1067" 
d="M260 0h-200v780h170l348 -436v436h199v-780h-169l-348 435v-435zM308 818l-67 116l260 185l97 -168z" />
    <glyph glyph-name="ncaron" unicode="&#x148;" horiz-adv-x="1067" 
d="M260 0h-200v780h170l348 -436v436h199v-780h-169l-348 435v-435zM560 1111l86 -107l-227 -179l-228 179l85 107l143 -92z" />
    <glyph glyph-name="ncommaaccent" unicode="&#x146;" horiz-adv-x="1067" 
d="M260 0h-200v780h170l348 -436v436h199v-780h-169l-348 435v-435zM386 -315l-57 55c19 22 36 47 43 56c-5 9 -42 32 -42 81c0 48 40 89 90 89c48 0 88 -36 88 -96c0 -51 -43 -109 -122 -185z" />
    <glyph glyph-name="ntilde" unicode="&#xf1;" horiz-adv-x="1067" 
d="M260 0h-200v780h170l348 -436v436h199v-780h-169l-348 435v-435zM350 849h-133c0 52 10 192 133 192c37 0 67 -13 103 -39c8 -6 16 -12 24 -12c11 0 12 9 11 32h133c0 -52 -10 -192 -133 -192c-37 0 -67 13 -103 39c-8 6 -16 12 -24 12c-11 0 -12 -9 -11 -32z" />
    <glyph glyph-name="oacute" unicode="&#xf3;" horiz-adv-x="1104" 
d="M23 390c0 223 189 405 414 405c228 0 414 -182 414 -405s-186 -405 -414 -405c-225 0 -414 182 -414 405zM225 390c0 -118 95 -212 212 -212c120 0 212 94 212 212s-92 212 -212 212c-117 0 -212 -94 -212 -212zM327 818l-67 116l260 185l97 -168z" />
    <glyph glyph-name="obreve" unicode="&#x14f;" horiz-adv-x="1104" 
d="M23 390c0 223 189 405 414 405c228 0 414 -182 414 -405s-186 -405 -414 -405c-225 0 -414 182 -414 405zM225 390c0 -118 95 -212 212 -212c120 0 212 94 212 212s-92 212 -212 212c-117 0 -212 -94 -212 -212zM215 976l118 68c32 -51 71 -62 104 -62s71 11 104 62
l118 -68c-39 -84 -113 -151 -222 -151c-110 0 -183 67 -222 151z" />
    <glyph glyph-name="ocircumflex" unicode="&#xf4;" horiz-adv-x="1104" 
d="M23 390c0 223 189 405 414 405c228 0 414 -182 414 -405s-186 -405 -414 -405c-225 0 -414 182 -414 405zM225 390c0 -118 95 -212 212 -212c120 0 212 94 212 212s-92 212 -212 212c-117 0 -212 -94 -212 -212zM664 932l-86 -107l-141 93l-143 -93l-85 107l228 179z" />
    <glyph glyph-name="odieresis" unicode="&#xf6;" horiz-adv-x="1104" 
d="M23 390c0 223 189 405 414 405c228 0 414 -182 414 -405s-186 -405 -414 -405c-225 0 -414 182 -414 405zM225 390c0 -118 95 -212 212 -212c120 0 212 94 212 212s-92 212 -212 212c-117 0 -212 -94 -212 -212zM215 928c0 52 43 96 97 96c53 0 96 -44 96 -96
c0 -54 -43 -98 -96 -98c-54 0 -97 44 -97 98zM467 928c0 52 43 96 97 96c53 0 96 -44 96 -96c0 -54 -43 -98 -96 -98c-54 0 -97 44 -97 98z" />
    <glyph glyph-name="ograve" unicode="&#xf2;" horiz-adv-x="1104" 
d="M23 390c0 223 189 405 414 405c228 0 414 -182 414 -405s-186 -405 -414 -405c-225 0 -414 182 -414 405zM225 390c0 -118 95 -212 212 -212c120 0 212 94 212 212s-92 212 -212 212c-117 0 -212 -94 -212 -212zM616 934l-67 -116l-290 133l97 168z" />
    <glyph glyph-name="ohungarumlaut" unicode="&#x151;" horiz-adv-x="1104" 
d="M23 390c0 223 189 405 414 405c228 0 414 -182 414 -405s-186 -405 -414 -405c-225 0 -414 182 -414 405zM225 390c0 -118 95 -212 212 -212c120 0 212 94 212 212s-92 212 -212 212c-117 0 -212 -94 -212 -212zM299 870l-96 96l164 204l137 -137zM568 870l-95 96
l162 205l137 -137z" />
    <glyph glyph-name="omacron" unicode="&#x14d;" horiz-adv-x="1104" 
d="M23 390c0 223 189 405 414 405c228 0 414 -182 414 -405s-186 -405 -414 -405c-225 0 -414 182 -414 405zM225 390c0 -118 95 -212 212 -212c120 0 212 94 212 212s-92 212 -212 212c-117 0 -212 -94 -212 -212zM617 978v-148h-358v148h358z" />
    <glyph glyph-name="oslashacute" unicode="&#x1ff;" horiz-adv-x="1103" 
d="M326 818l-67 116l260 185l97 -168zM23 390c0 223 188 405 414 405c72 0 140 -19 200 -51l29 36h169l-94 -117c68 -72 110 -168 110 -273c0 -223 -187 -405 -414 -405c-73 0 -141 19 -200 51l-29 -36h-169l93 116c-68 72 -109 169 -109 274zM649 390c0 43 -13 83 -34 116
l-254 -315c24 -9 49 -13 76 -13c119 0 212 94 212 212zM225 390c0 -43 12 -83 34 -116l253 314c-24 9 -49 14 -75 14c-118 0 -212 -94 -212 -212z" />
    <glyph glyph-name="otilde" unicode="&#xf5;" horiz-adv-x="1104" 
d="M23 390c0 223 189 405 414 405c228 0 414 -182 414 -405s-186 -405 -414 -405c-225 0 -414 182 -414 405zM225 390c0 -118 95 -212 212 -212c120 0 212 94 212 212s-92 212 -212 212c-117 0 -212 -94 -212 -212zM369 849h-133c0 52 10 192 133 192c37 0 67 -13 103 -39
c8 -6 16 -12 24 -12c11 0 12 9 11 32h133c0 -52 -10 -192 -133 -192c-37 0 -67 13 -103 39c-8 6 -16 12 -24 12c-11 0 -12 -9 -11 -32z" />
    <glyph glyph-name="racute" unicode="&#x155;" horiz-adv-x="996" 
d="M60 780h381c200 0 292 -130 292 -285c0 -109 -49 -211 -154 -259l169 -236h-239l-148 209h-102v-209h-199v780zM430 598h-171v-208h171c80 0 110 49 110 103c0 60 -30 105 -110 105zM292 818l-67 116l260 185l97 -168z" />
    <glyph glyph-name="rcaron" unicode="&#x159;" horiz-adv-x="996" 
d="M60 780h381c200 0 292 -130 292 -285c0 -109 -49 -211 -154 -259l169 -236h-239l-148 209h-102v-209h-199v780zM430 598h-171v-208h171c80 0 110 49 110 103c0 60 -30 105 -110 105zM544 1111l86 -107l-227 -179l-228 179l85 107l143 -92z" />
    <glyph glyph-name="rcommaaccent" unicode="&#x157;" horiz-adv-x="996" 
d="M60 780h381c200 0 292 -130 292 -285c0 -109 -49 -211 -154 -259l169 -236h-239l-148 209h-102v-209h-199v780zM430 598h-171v-208h171c80 0 110 49 110 103c0 60 -30 105 -110 105zM369 -315l-57 55c19 22 36 47 43 56c-5 9 -42 32 -42 81c0 48 40 89 90 89
c48 0 88 -36 88 -96c0 -51 -43 -109 -122 -185z" />
    <glyph glyph-name="sacute" unicode="&#x15b;" horiz-adv-x="929" 
d="M29 234h195v-5c0 -30 41 -71 132 -71c75 0 99 25 99 48c0 33 -39 53 -133 85c-124 41 -287 101 -287 262c0 149 127 242 305 242c182 0 319 -97 319 -252v-11h-195v7c0 38 -39 83 -120 83c-68 0 -95 -27 -95 -53c0 -31 36 -47 129 -79c108 -38 292 -102 292 -273
c0 -152 -132 -232 -310 -232c-187 0 -331 87 -331 240v9zM229 818l-67 116l260 185l97 -168z" />
    <glyph glyph-name="scaron" unicode="&#x161;" horiz-adv-x="929" 
d="M29 234h195v-5c0 -30 41 -71 132 -71c75 0 99 25 99 48c0 33 -39 53 -133 85c-124 41 -287 101 -287 262c0 149 127 242 305 242c182 0 319 -97 319 -252v-11h-195v7c0 38 -39 83 -120 83c-68 0 -95 -27 -95 -53c0 -31 36 -47 129 -79c108 -38 292 -102 292 -273
c0 -152 -132 -232 -310 -232c-187 0 -331 87 -331 240v9zM482 1111l86 -107l-227 -179l-228 179l85 107l143 -92z" />
    <glyph glyph-name="scedilla" unicode="&#x15f;" horiz-adv-x="929" 
d="M29 234h195v-5c0 -30 41 -71 132 -71c75 0 99 25 99 48c0 33 -39 53 -133 85c-124 41 -287 101 -287 262c0 149 127 242 305 242c182 0 319 -97 319 -252v-11h-195v7c0 38 -39 83 -120 83c-68 0 -95 -27 -95 -53c0 -31 36 -47 129 -79c108 -38 292 -102 292 -273
c0 -137 -108 -216 -259 -229l-8 -43c60 -18 81 -68 81 -115c0 -71 -47 -129 -137 -129c-67 0 -142 32 -142 32l52 120c22 -11 51 -25 82 -25c32 0 37 15 37 23c0 9 -6 32 -41 20l-48 43l28 73c-165 13 -286 97 -286 238v9z" />
    <glyph glyph-name="scircumflex" unicode="&#x15d;" horiz-adv-x="929" 
d="M29 234h195v-5c0 -30 41 -71 132 -71c75 0 99 25 99 48c0 33 -39 53 -133 85c-124 41 -287 101 -287 262c0 149 127 242 305 242c182 0 319 -97 319 -252v-11h-195v7c0 38 -39 83 -120 83c-68 0 -95 -27 -95 -53c0 -31 36 -47 129 -79c108 -38 292 -102 292 -273
c0 -152 -132 -232 -310 -232c-187 0 -331 87 -331 240v9zM567 932l-86 -107l-141 93l-143 -93l-85 107l228 179z" />
    <glyph glyph-name="scommaaccent" unicode="&#x219;" horiz-adv-x="929" 
d="M29 234h195v-5c0 -30 41 -71 132 -71c75 0 99 25 99 48c0 33 -39 53 -133 85c-124 41 -287 101 -287 262c0 149 127 242 305 242c182 0 319 -97 319 -252v-11h-195v7c0 38 -39 83 -120 83c-68 0 -95 -27 -95 -53c0 -31 36 -47 129 -79c108 -38 292 -102 292 -273
c0 -152 -132 -232 -310 -232c-187 0 -331 87 -331 240v9zM325 -315l-57 55c19 22 36 47 43 56c-5 9 -42 32 -42 81c0 48 40 89 90 89c48 0 88 -36 88 -96c0 -51 -43 -109 -122 -185z" />
    <glyph glyph-name="tbar" unicode="&#x167;" horiz-adv-x="949" 
d="M17 586v194h686v-194h-243v-189h121v-148h-121v-249h-200v249h-122v148h122v189h-243z" />
    <glyph glyph-name="tcaron" unicode="&#x165;" horiz-adv-x="940" 
d="M12 586v194h686v-194h-243v-586h-200v586h-243zM495 1111l86 -107l-227 -179l-228 179l85 107l143 -92z" />
    <glyph glyph-name="tcommaaccent" unicode="&#x163;" horiz-adv-x="940" 
d="M12 586v194h686v-194h-243v-586h-200v586h-243zM320 -315l-57 55c19 22 36 47 43 56c-5 9 -42 32 -42 81c0 48 40 89 90 89c48 0 88 -36 88 -96c0 -51 -43 -109 -122 -185z" />
    <glyph glyph-name="uacute" unicode="&#xfa;" horiz-adv-x="1045" 
d="M567 780h199v-439c0 -201 -126 -356 -359 -356c-234 0 -358 155 -358 356v439h200v-427c0 -113 54 -175 158 -175c105 0 160 62 160 175v427zM296 818l-67 116l260 185l97 -168z" />
    <glyph glyph-name="ubreve" unicode="&#x16d;" horiz-adv-x="1045" 
d="M567 780h199v-439c0 -201 -126 -356 -359 -356c-234 0 -358 155 -358 356v439h200v-427c0 -113 54 -175 158 -175c105 0 160 62 160 175v427zM185 976l118 68c32 -51 71 -62 104 -62s71 11 104 62l118 -68c-39 -84 -113 -151 -222 -151c-110 0 -183 67 -222 151z" />
    <glyph glyph-name="ucircumflex" unicode="&#xfb;" horiz-adv-x="1045" 
d="M567 780h199v-439c0 -201 -126 -356 -359 -356c-234 0 -358 155 -358 356v439h200v-427c0 -113 54 -175 158 -175c105 0 160 62 160 175v427zM634 932l-86 -107l-141 93l-143 -93l-85 107l228 179z" />
    <glyph glyph-name="udieresis" unicode="&#xfc;" horiz-adv-x="1045" 
d="M567 780h199v-439c0 -201 -126 -356 -359 -356c-234 0 -358 155 -358 356v439h200v-427c0 -113 54 -175 158 -175c105 0 160 62 160 175v427zM185 928c0 52 43 96 97 96c53 0 96 -44 96 -96c0 -54 -43 -98 -96 -98c-54 0 -97 44 -97 98zM437 928c0 52 43 96 97 96
c53 0 96 -44 96 -96c0 -54 -43 -98 -96 -98c-54 0 -97 44 -97 98z" />
    <glyph glyph-name="ugrave" unicode="&#xf9;" horiz-adv-x="1045" 
d="M567 780h199v-439c0 -201 -126 -356 -359 -356c-234 0 -358 155 -358 356v439h200v-427c0 -113 54 -175 158 -175c105 0 160 62 160 175v427zM586 934l-67 -116l-290 133l97 168z" />
    <glyph glyph-name="uhungarumlaut" unicode="&#x171;" horiz-adv-x="1045" 
d="M567 780h199v-439c0 -201 -126 -356 -359 -356c-234 0 -358 155 -358 356v439h200v-427c0 -113 54 -175 158 -175c105 0 160 62 160 175v427zM269 870l-96 96l164 204l137 -137zM538 870l-95 96l162 205l137 -137z" />
    <glyph glyph-name="umacron" unicode="&#x16b;" horiz-adv-x="1045" 
d="M567 780h199v-439c0 -201 -126 -356 -359 -356c-234 0 -358 155 -358 356v439h200v-427c0 -113 54 -175 158 -175c105 0 160 62 160 175v427zM587 978v-148h-358v148h358z" />
    <glyph glyph-name="uogonek" unicode="&#x173;" horiz-adv-x="1045" 
d="M567 780h199v-439c0 -172 -93 -311 -266 -347c-47 -23 -76 -50 -76 -81c0 -28 27 -37 60 -30l23 -143c-122 -15 -213 40 -213 135c0 48 23 85 56 113c-197 23 -301 169 -301 353v439h200v-427c0 -113 54 -175 158 -175c105 0 160 62 160 175v427z" />
    <glyph glyph-name="uring" unicode="&#x16f;" horiz-adv-x="1045" 
d="M567 780h199v-439c0 -201 -126 -356 -359 -356c-234 0 -358 155 -358 356v439h200v-427c0 -113 54 -175 158 -175c105 0 160 62 160 175v427zM241 970c0 92 74 167 165 167s167 -76 167 -167s-76 -165 -167 -165s-165 74 -165 165zM358 970c0 -27 21 -48 48 -48
s48 21 48 48s-21 48 -48 48s-48 -21 -48 -48z" />
    <glyph glyph-name="utilde" unicode="&#x169;" horiz-adv-x="1045" 
d="M567 780h199v-439c0 -201 -126 -356 -359 -356c-234 0 -358 155 -358 356v439h200v-427c0 -113 54 -175 158 -175c105 0 160 62 160 175v427zM339 849h-133c0 52 10 192 133 192c37 0 67 -13 103 -39c8 -6 16 -12 24 -12c11 0 12 9 11 32h133c0 -52 -10 -192 -133 -192
c-37 0 -67 13 -103 39c-8 6 -16 12 -24 12c-11 0 -12 -9 -11 -32z" />
    <glyph glyph-name="wacute" unicode="&#x1e83;" horiz-adv-x="1377" 
d="M425 0h-207l-219 780h213l126 -465l146 465h178l146 -464l126 464h214l-219 -780h-207l-149 453zM462 818l-67 116l260 185l97 -168z" />
    <glyph glyph-name="wcircumflex" unicode="&#x175;" horiz-adv-x="1377" 
d="M425 0h-207l-219 780h213l126 -465l146 465h178l146 -464l126 464h214l-219 -780h-207l-149 453zM800 932l-86 -107l-141 93l-143 -93l-85 107l228 179z" />
    <glyph glyph-name="wdieresis" unicode="&#x1e85;" horiz-adv-x="1377" 
d="M425 0h-207l-219 780h213l126 -465l146 465h178l146 -464l126 464h214l-219 -780h-207l-149 453zM351 928c0 52 43 96 97 96c53 0 96 -44 96 -96c0 -54 -43 -98 -96 -98c-54 0 -97 44 -97 98zM603 928c0 52 43 96 97 96c53 0 96 -44 96 -96c0 -54 -43 -98 -96 -98
c-54 0 -97 44 -97 98z" />
    <glyph glyph-name="wgrave" unicode="&#x1e81;" horiz-adv-x="1377" 
d="M425 0h-207l-219 780h213l126 -465l146 465h178l146 -464l126 464h214l-219 -780h-207l-149 453zM752 934l-67 -116l-290 133l97 168z" />
    <glyph glyph-name="yacute" unicode="&#xfd;" horiz-adv-x="1046" 
d="M235 780l172 -283l173 283h236l-309 -494v-286h-199v286l-308 494h235zM296 818l-67 116l260 185l97 -168z" />
    <glyph glyph-name="ydieresis" unicode="&#xff;" horiz-adv-x="1046" 
d="M235 780l172 -283l173 283h236l-309 -494v-286h-199v286l-308 494h235zM185 928c0 52 43 96 97 96c53 0 96 -44 96 -96c0 -54 -43 -98 -96 -98c-54 0 -97 44 -97 98zM437 928c0 52 43 96 97 96c53 0 96 -44 96 -96c0 -54 -43 -98 -96 -98c-54 0 -97 44 -97 98z" />
    <glyph glyph-name="ygrave" unicode="&#x1ef3;" horiz-adv-x="1046" 
d="M235 780l172 -283l173 283h236l-309 -494v-286h-199v286l-308 494h235zM586 934l-67 -116l-290 133l97 168z" />
    <glyph glyph-name="zacute" unicode="&#x17a;" horiz-adv-x="959" 
d="M43 586v194h649v-146l-364 -441h365v-193h-662v146l363 440h-351zM251 818l-67 116l260 185l97 -168z" />
    <glyph glyph-name="zcaron" unicode="&#x17e;" horiz-adv-x="959" 
d="M43 586v194h649v-146l-364 -441h365v-193h-662v146l363 440h-351zM503 1111l86 -107l-227 -179l-228 179l85 107l143 -92z" />
    <glyph glyph-name="zdotaccent" unicode="&#x17c;" horiz-adv-x="959" 
d="M43 586v194h649v-146l-364 -441h365v-193h-662v146l363 440h-351zM266 918c0 52 43 96 97 96c53 0 96 -44 96 -96c0 -54 -43 -98 -96 -98c-54 0 -97 44 -97 98z" />
    <glyph glyph-name="onequarter" unicode="&#xbc;" horiz-adv-x="1202" 
d="M44 597v145l116 38h93v-507h-138v348zM886 0h-134v85h-240v107l186 315h153l-172 -292h73v91h134v-91h51v-130h-51v-85zM292 0h-151l462 780h151z" />
    <glyph glyph-name="onehalf" unicode="&#xbd;" horiz-adv-x="1242" 
d="M39 597v145l116 38h93v-507h-138v348zM969 138v-138h-385v103l187 164c43 38 62 55 62 78c0 22 -17 38 -49 38c-34 0 -58 -19 -58 -51v-16h-135v16c0 126 103 185 195 185c99 0 186 -64 186 -172c0 -85 -65 -140 -109 -178l-34 -29h140zM287 0h-151l462 780h151z" />
    <glyph glyph-name="threequarters" unicode="&#xbe;" horiz-adv-x="1318" 
d="M1002 0h-134v85h-240v107l186 315h153l-172 -292h73v91h134v-91h51v-130h-51v-85zM408 0h-151l462 780h151zM37 314l75 113c47 -23 81 -31 110 -31c42 0 65 13 65 36c0 22 -30 41 -127 41v112c96 0 116 25 116 44c0 15 -16 34 -47 34c-19 0 -49 -3 -49 -34v-2h-131v14
c0 97 91 149 180 149c94 0 184 -55 184 -143c0 -43 -18 -84 -61 -114c49 -25 77 -64 77 -113c0 -98 -93 -157 -203 -157c-58 0 -125 15 -189 51z" />
    <glyph glyph-name="oslash" unicode="&#xf8;" horiz-adv-x="1103" 
d="M23 390c0 223 188 405 414 405c72 0 140 -19 200 -51l29 36h169l-94 -117c68 -72 110 -168 110 -273c0 -223 -187 -405 -414 -405c-73 0 -141 19 -200 51l-29 -36h-169l93 116c-68 72 -109 169 -109 274zM649 390c0 43 -13 83 -34 116l-254 -315c24 -9 49 -13 76 -13
c119 0 212 94 212 212zM225 390c0 -43 12 -83 34 -116l253 314c-24 9 -49 14 -75 14c-118 0 -212 -94 -212 -212z" />
    <glyph glyph-name="Oslash" unicode="&#xd8;" horiz-adv-x="1103" 
d="M23 390c0 223 188 405 414 405c72 0 140 -19 200 -51l29 36h169l-94 -117c68 -72 110 -168 110 -273c0 -223 -187 -405 -414 -405c-73 0 -141 19 -200 51l-29 -36h-169l93 116c-68 72 -109 169 -109 274zM649 390c0 43 -13 83 -34 116l-254 -315c24 -9 49 -13 76 -13
c119 0 212 94 212 212zM225 390c0 -43 12 -83 34 -116l253 314c-24 9 -49 14 -75 14c-118 0 -212 -94 -212 -212z" />
    <glyph glyph-name="fraction.alt" unicode="&#xe999;" horiz-adv-x="793" 
d="M126 0h-151l462 780h151z" />
    <glyph glyph-name="quotedbl" unicode="&#x22;" horiz-adv-x="747" 
d="M209 432h-134l-30 348h194zM442 432h-134l-30 348h194z" />
    <glyph glyph-name="uni00A0" unicode="&#xa0;" horiz-adv-x="511" 
 />
    <glyph glyph-name="ampersand.alt" unicode="&#xe001;" horiz-adv-x="1184" 
d="M358 440c0 -29 -23 -44 -56 -44c-38 0 -65 19 -96 54c-48 -10 -90 -60 -90 -134c0 -109 93 -214 285 -214c173 0 307 85 307 217c0 65 -32 118 -62 148c-94 -8 -175 -22 -178 -93c-2 -46 31 -61 50 -60c-15 11 -21 27 -20 46c2 37 27 57 58 57c33 0 60 -24 60 -62
c0 -45 -37 -78 -88 -78c-55 0 -116 39 -116 127c0 247 483 112 483 272c0 52 -52 72 -88 72c-17 0 -30 -5 -32 -13c19 -11 32 -29 32 -54c0 -35 -26 -60 -61 -60c-39 0 -61 32 -61 62c0 40 37 100 116 100c72 0 137 -51 137 -147c0 -129 -117 -155 -251 -165
c28 -26 76 -87 76 -190c0 -200 -183 -307 -360 -307c-201 0 -364 137 -364 317c0 111 62 174 133 201c-27 38 -35 82 -35 116c0 118 94 185 191 185c94 0 169 -62 169 -141c0 -52 -32 -83 -74 -83s-63 32 -63 59c0 39 43 74 86 43c2 3 3 7 3 11c0 26 -40 62 -94 62
c-72 0 -137 -62 -137 -155c0 -28 6 -56 19 -84h18c46 0 103 -19 103 -65z" />
    </font>
</defs>
</svg>
