<?xml version="1.0" standalone="no"?>
<!DOCTYPE svg PUBLIC "-//W3C//DTD SVG 1.1//EN" "http://www.w3.org/Graphics/SVG/1.1/DTD/svg11.dtd" >
<svg xmlns="http://www.w3.org/2000/svg" xmlns:xlink="http://www.w3.org/1999/xlink" version="1.1">
<metadata>
Created by FontForge 20170910 at Fri Jul  8 23:14:28 2016
 By Jimmy Wärting
Copyright \(c\) 2015 by Radomir Tinkov. All rights reserved.
</metadata>
<defs>
<font id="Gilroy-RegularItalic" horiz-adv-x="570" >
  <font-face 
    font-family="Gilroy Italic"
    font-weight="400"
    font-style="italic"
    font-stretch="normal"
    units-per-em="1000"
    panose-1="0 0 5 0 0 0 0 0 0 0"
    ascent="800"
    descent="-200"
    x-height="500"
    cap-height="700"
    bbox="-307 -240 1049 960"
    underline-thickness="50"
    underline-position="-100"
    slope="-10"
    unicode-range="U+0020-FB02"
  />
<missing-glyph horiz-adv-x="500" 
d="M410 800v-1000h-317v1000h317zM333 733h-165v-33h65v-37h-66v-33h166v33h-66v37h66v33zM267 604h-100v-104h166v34h-66v70zM233 570v-36h-33v36h33zM333 473h-166v-33h66v-37h-66v-33h100v70h66v33zM333 413h-33v-66h-133v-34h166v100zM333 291h-100v-56h34v23h33v-47
h-100v80h-33v-113h166v113zM333 118h-166v-113h166v113zM300 85v-47h-100v47h100zM333 -18h-166v-33h70l-70 -47v-33h166v33h-102l70 47h32v33z" />
    <glyph glyph-name="f_f" unicode="ff" horiz-adv-x="590" 
d="M429 530c23 135 111 202 244 192l-11 -64c-96 8 -150 -32 -167 -128l-5 -30h144l-11 -64h-144l-77 -436h-66l77 436h-204l-77 -436h-66l77 436h-85l11 64h85l4 20c23 135 110 202 244 192l-12 -64c-95 8 -149 -32 -166 -128l-4 -20h204z" />
    <glyph glyph-name="f_f_i" unicode="ffi" horiz-adv-x="786" 
d="M760 500l-88 -500h-66l77 436h-204l-77 -436h-66l77 436h-204l-77 -436h-66l77 436h-85l11 64h85l4 20c23 135 110 202 244 192l-12 -64c-95 8 -149 -32 -166 -128l-4 -20h204l5 30c23 135 109 192 244 192c30 0 60 -4 94 -12l-10 -60c-34 6 -64 8 -95 8
c-97 0 -150 -32 -167 -128l-5 -30h270z" />
    <glyph glyph-name="f_f_l" unicode="ffl" horiz-adv-x="786" 
d="M673 722c41 0 81 -4 124 -12l-125 -710h-66l116 659c-20 2 -39 3 -59 3c-97 0 -151 -36 -168 -132l-5 -30h114l-11 -64h-114l-77 -436h-66l77 436h-204l-77 -436h-66l77 436h-85l11 64h85l4 20c23 135 110 202 244 192l-12 -64c-95 8 -149 -32 -166 -128l-4 -20h204l5 30
c23 135 109 192 244 192z" />
    <glyph glyph-name="fi" unicode="fi" horiz-adv-x="516" 
d="M490 500l-88 -500h-66l77 436h-204l-77 -436h-66l77 436h-85l11 64h85l4 20c23 135 109 192 244 192c30 0 59 -4 93 -12l-10 -60c-34 6 -64 8 -95 8c-97 0 -149 -32 -166 -128l-4 -20h270z" />
    <glyph glyph-name="fl" unicode="fl" horiz-adv-x="516" 
d="M402 712c41 0 80 -4 123 -12l-123 -700h-66l114 649c-20 2 -39 3 -59 3c-97 0 -150 -36 -167 -132l-4 -20h114l-11 -64h-114l-77 -436h-66l77 436h-85l11 64h85l4 20c23 135 109 192 244 192z" />
    <glyph glyph-name=".notdef" horiz-adv-x="500" 
d="M410 800v-1000h-317v1000h317zM333 733h-165v-33h65v-37h-66v-33h166v33h-66v37h66v33zM267 604h-100v-104h166v34h-66v70zM233 570v-36h-33v36h33zM333 473h-166v-33h66v-37h-66v-33h100v70h66v33zM333 413h-33v-66h-133v-34h166v100zM333 291h-100v-56h34v23h33v-47
h-100v80h-33v-113h166v113zM333 118h-166v-113h166v113zM300 85v-47h-100v47h100zM333 -18h-166v-33h70l-70 -47v-33h166v33h-102l70 47h32v33z" />
    <glyph glyph-name="A" unicode="A" horiz-adv-x="630" 
d="M504 0l-34 172h-332l-96 -172h-76l392 700h72l146 -700h-72zM174 238h283l-74 375z" />
    <glyph glyph-name="Aacute" unicode="&#xc1;" horiz-adv-x="630" 
d="M539 900l-116 -130h-66l100 130h82zM504 0l-34 172h-332l-96 -172h-76l392 700h72l146 -700h-72zM174 238h283l-74 375z" />
    <glyph glyph-name="Abreve" unicode="&#x102;" horiz-adv-x="630" 
d="M406 762c-79 0 -133 47 -118 130h64c-10 -54 14 -72 63 -72s80 23 89 72h64c-15 -83 -71 -130 -162 -130zM504 0l-34 172h-332l-96 -172h-76l392 700h72l146 -700h-72zM174 238h283l-74 375z" />
    <glyph glyph-name="Acircumflex" unicode="&#xc2;" horiz-adv-x="630" 
d="M425 857l-85 -87h-78l128 130h78l84 -130h-72zM504 0l-34 172h-332l-96 -172h-76l392 700h72l146 -700h-72zM174 238h283l-74 375z" />
    <glyph glyph-name="Adieresis" unicode="&#xc4;" horiz-adv-x="630" 
d="M312 775c-25 0 -42 20 -37 45c4 25 28 45 53 45s41 -20 37 -45c-5 -25 -28 -45 -53 -45zM502 775c-25 0 -42 20 -37 45c4 25 28 45 53 45s41 -20 37 -45c-5 -25 -28 -45 -53 -45zM504 0l-34 172h-332l-96 -172h-76l392 700h72l146 -700h-72zM174 238h283l-74 375z" />
    <glyph glyph-name="Agrave" unicode="&#xc0;" horiz-adv-x="630" 
d="M447 770h-64l-74 130h80zM504 0l-34 172h-332l-96 -172h-76l392 700h72l146 -700h-72zM174 238h283l-74 375z" />
    <glyph glyph-name="Amacron" unicode="&#x100;" horiz-adv-x="630" 
d="M548 838l-10 -58h-260l10 58h260zM504 0l-34 172h-332l-96 -172h-76l392 700h72l146 -700h-72zM174 238h283l-74 375z" />
    <glyph glyph-name="Aogonek" unicode="&#x104;" horiz-adv-x="630" 
d="M478 -124c-4 -22 8 -31 29 -31c15 0 28 2 43 7l-9 -52c-18 -8 -37 -12 -61 -12c-49 0 -77 37 -69 81c7 40 39 85 93 131l-34 172h-332l-96 -172h-76l392 700h72l146 -700c-53 -42 -92 -91 -98 -124zM174 238h283l-74 375z" />
    <glyph glyph-name="Aring" unicode="&#xc5;" horiz-adv-x="630" 
d="M504 0l-34 172h-332l-96 -172h-76l375 670c-34 17 -50 53 -43 93c9 57 60 97 121 97c68 0 99 -50 91 -103c-7 -41 -35 -74 -73 -88l139 -669h-72zM353 760c-5 -28 10 -49 42 -49s56 21 61 49c5 30 -13 49 -43 49c-29 0 -54 -18 -60 -49zM174 238h283l-74 375z" />
    <glyph glyph-name="Atilde" unicode="&#xc3;" horiz-adv-x="630" 
d="M412 803c-46 40 -72 56 -86 -23h-58c20 125 97 139 157 87c46 -40 71 -56 85 23h58c-20 -125 -96 -139 -156 -87zM504 0l-34 172h-332l-96 -172h-76l392 700h72l146 -700h-72zM174 238h283l-74 375z" />
    <glyph glyph-name="AE" unicode="&#xc6;" horiz-adv-x="880" 
d="M903 634h-316l-43 -248h300l-12 -66h-300l-44 -254h320l-12 -66h-390l30 172h-262l-135 -172h-83l187 237v1h1l364 462h406zM226 238h222l64 364z" />
    <glyph glyph-name="B" unicode="B" horiz-adv-x="620" 
d="M595 507c-10 -64 -51 -116 -107 -146c59 -30 93 -94 81 -171c-16 -103 -108 -190 -228 -190h-305l123 700h267c110 0 185 -88 169 -193zM526 512c12 67 -32 122 -102 122h-207l-42 -244h211c65 0 128 54 140 122zM500 195c12 71 -33 129 -102 129h-235l-45 -258h229
c75 0 141 59 153 129z" />
    <glyph glyph-name="C" unicode="C" horiz-adv-x="745" 
d="M360 -12c-216 0 -336 174 -301 372c36 203 215 352 412 352c139 0 239 -69 287 -174l-62 -33c-36 79 -103 139 -226 139c-174 0 -315 -131 -343 -294c-28 -166 71 -294 241 -294c109 0 207 54 267 143l59 -37c-74 -105 -198 -174 -334 -174z" />
    <glyph glyph-name="Cacute" unicode="&#x106;" horiz-adv-x="745" 
d="M448 770h66l116 130h-82zM360 -12c-216 0 -336 174 -301 372c36 203 215 352 412 352c139 0 239 -69 287 -174l-62 -33c-36 79 -103 139 -226 139c-174 0 -315 -131 -343 -294c-28 -166 71 -294 241 -294c109 0 207 54 267 143l59 -37c-74 -105 -198 -174 -334 -174z" />
    <glyph glyph-name="Ccaron" unicode="&#x10c;" horiz-adv-x="745" 
d="M459 770l-84 130h71l55 -86l85 86h79l-128 -130h-78zM470 644c-174 0 -315 -131 -343 -294c-28 -166 71 -294 241 -294c109 0 207 54 267 143l59 -37c-74 -105 -198 -174 -334 -174c-216 0 -336 174 -301 372c36 203 215 352 412 352c139 0 239 -69 287 -174l-62 -33
c-36 79 -103 139 -226 139z" />
    <glyph glyph-name="Ccedilla" unicode="&#xc7;" horiz-adv-x="745" 
d="M470 644c-174 0 -315 -131 -343 -294c-28 -166 71 -294 241 -294c109 0 207 54 267 143l59 -37c-69 -98 -182 -165 -307 -173l-6 -34c53 -10 85 -45 78 -86c-9 -50 -50 -97 -220 -85l10 54c96 -8 147 7 152 36c5 28 -30 42 -86 41l13 74c-196 17 -302 183 -269 371
c36 203 215 352 412 352c139 0 239 -69 287 -174l-62 -33c-36 79 -103 139 -226 139z" />
    <glyph glyph-name="Cdotaccent" unicode="&#x10a;" horiz-adv-x="745" 
d="M497 770c-31 0 -51 24 -45 55c5 31 33 55 64 55s51 -24 46 -55c-6 -31 -34 -55 -65 -55zM360 -12c-216 0 -336 174 -301 372c36 203 215 352 412 352c139 0 239 -69 287 -174l-62 -33c-36 79 -103 139 -226 139c-174 0 -315 -131 -343 -294c-28 -166 71 -294 241 -294
c109 0 207 54 267 143l59 -37c-74 -105 -198 -174 -334 -174z" />
    <glyph glyph-name="D" unicode="D" horiz-adv-x="722" 
d="M429 700c188 0 303 -167 269 -360s-194 -340 -392 -340h-270l123 700h270zM630 350c27 157 -56 284 -212 284h-201l-99 -568h200c156 0 285 127 312 284z" />
    <glyph glyph-name="Eth" unicode="&#xd0;" horiz-adv-x="742" 
d="M449 700c188 0 303 -167 269 -360s-194 -340 -392 -340h-270l56 318h-70l11 64h70l56 318h270zM650 350c27 157 -56 284 -212 284h-201l-44 -252h220l-11 -64h-220l-44 -252h200c156 0 285 127 312 284z" />
    <glyph glyph-name="Dcaron" unicode="&#x10e;" horiz-adv-x="722" 
d="M393 770l-84 130h71l55 -86l85 86h79l-128 -130h-78zM429 700c188 0 303 -167 269 -360s-194 -340 -392 -340h-270l123 700h270zM630 350c27 157 -56 284 -212 284h-201l-99 -568h200c156 0 285 127 312 284z" />
    <glyph glyph-name="Dcroat" unicode="&#x110;" horiz-adv-x="742" 
d="M449 700c188 0 303 -167 269 -360s-194 -340 -392 -340h-270l56 318h-70l11 64h70l56 318h270zM650 350c27 157 -56 284 -212 284h-201l-44 -252h220l-11 -64h-220l-44 -252h200c156 0 285 127 312 284z" />
    <glyph glyph-name="E" unicode="E" horiz-adv-x="530" 
d="M553 634h-336l-43 -248h310l-12 -66h-310l-44 -254h340l-12 -66h-410l123 700h405z" />
    <glyph glyph-name="Eacute" unicode="&#xc9;" horiz-adv-x="530" 
d="M507 900l-116 -130h-66l100 130h82zM553 634h-336l-43 -248h310l-12 -66h-310l-44 -254h340l-12 -66h-410l123 700h405z" />
    <glyph glyph-name="Ecaron" unicode="&#x11a;" horiz-adv-x="530" 
d="M336 770l-84 130h71l55 -86l85 86h79l-128 -130h-78zM553 634h-336l-43 -248h310l-12 -66h-310l-44 -254h340l-12 -66h-410l123 700h405z" />
    <glyph glyph-name="Ecircumflex" unicode="&#xca;" horiz-adv-x="530" 
d="M393 857l-85 -87h-78l128 130h78l84 -130h-72zM553 634h-336l-43 -248h310l-12 -66h-310l-44 -254h340l-12 -66h-410l123 700h405z" />
    <glyph glyph-name="Edieresis" unicode="&#xcb;" horiz-adv-x="530" 
d="M280 775c-25 0 -42 20 -37 45c4 25 28 45 53 45s41 -20 37 -45c-5 -25 -28 -45 -53 -45zM470 775c-25 0 -42 20 -37 45c4 25 28 45 53 45s41 -20 37 -45c-5 -25 -28 -45 -53 -45zM553 634h-336l-43 -248h310l-12 -66h-310l-44 -254h340l-12 -66h-410l123 700h405z" />
    <glyph glyph-name="Edotaccent" unicode="&#x116;" horiz-adv-x="530" 
d="M374 770c-31 0 -51 24 -45 55c5 31 33 55 64 55s51 -24 46 -55c-6 -31 -34 -55 -65 -55zM553 634h-336l-43 -248h310l-12 -66h-310l-44 -254h340l-12 -66h-410l123 700h405z" />
    <glyph glyph-name="Egrave" unicode="&#xc8;" horiz-adv-x="530" 
d="M415 770h-64l-74 130h80zM553 634h-336l-43 -248h310l-12 -66h-310l-44 -254h340l-12 -66h-410l123 700h405z" />
    <glyph glyph-name="Emacron" unicode="&#x112;" horiz-adv-x="530" 
d="M516 838l-10 -58h-260l10 58h260zM553 634h-336l-43 -248h310l-12 -66h-310l-44 -254h340l-12 -66h-410l123 700h405z" />
    <glyph glyph-name="Eogonek" unicode="&#x118;" horiz-adv-x="530" 
d="M553 634h-336l-43 -248h310l-12 -66h-310l-44 -254h340l-12 -66c-53 -42 -93 -87 -98 -120c-3 -20 8 -35 29 -35c15 0 28 3 43 9l-10 -56c-16 -7 -34 -10 -59 -10c-57 0 -77 44 -70 86s40 84 96 126h-341l123 700h405z" />
    <glyph glyph-name="F" unicode="F" horiz-adv-x="515" 
d="M542 634h-325l-45 -258h310l-12 -66h-310l-54 -310h-70l123 700h395z" />
    <glyph glyph-name="G" unicode="G" horiz-adv-x="790" 
d="M764 333l-6 -35c-29 -168 -177 -310 -384 -310c-225 0 -351 173 -314 377c36 200 212 347 416 347c139 0 236 -69 288 -174l-62 -33c-40 79 -108 139 -228 139c-177 0 -318 -127 -346 -291c-28 -163 64 -297 249 -297c158 0 270 96 304 211h-279l12 66h350z" />
    <glyph glyph-name="Gbreve" unicode="&#x11e;" horiz-adv-x="790" 
d="M484 762c-79 0 -133 47 -118 130h64c-10 -54 14 -72 63 -72s80 23 89 72h64c-15 -83 -71 -130 -162 -130zM764 333l-6 -35c-29 -168 -177 -310 -384 -310c-225 0 -351 173 -314 377c36 200 212 347 416 347c139 0 236 -69 288 -174l-62 -33c-40 79 -108 139 -228 139
c-177 0 -318 -127 -346 -291c-28 -163 64 -297 249 -297c158 0 270 96 304 211h-279l12 66h350z" />
    <glyph glyph-name="Gcommaaccent" unicode="&#x122;" horiz-adv-x="790" 
d="M764 333l-6 -35c-29 -168 -177 -310 -384 -310c-225 0 -351 173 -314 377c36 200 212 347 416 347c139 0 236 -69 288 -174l-62 -33c-40 79 -108 139 -228 139c-177 0 -318 -127 -346 -291c-28 -163 64 -297 249 -297c158 0 270 96 304 211h-279l12 66h350zM300 -240
l40 170h66l-60 -170h-46z" />
    <glyph glyph-name="Gdotaccent" unicode="&#x120;" horiz-adv-x="790" 
d="M484 770c-31 0 -51 24 -45 55c5 31 33 55 64 55s51 -24 46 -55c-6 -31 -34 -55 -65 -55zM764 333l-6 -35c-29 -168 -177 -310 -384 -310c-225 0 -351 173 -314 377c36 200 212 347 416 347c139 0 236 -69 288 -174l-62 -33c-40 79 -108 139 -228 139
c-177 0 -318 -127 -346 -291c-28 -163 64 -297 249 -297c158 0 270 96 304 211h-279l12 66h350z" />
    <glyph glyph-name="H" unicode="H" horiz-adv-x="680" 
d="M609 700h70l-123 -700h-70l57 327h-380l-57 -327h-70l123 700h70l-54 -307h380z" />
    <glyph glyph-name="Hbar" unicode="&#x126;" horiz-adv-x="730" 
d="M746 568l-10 -56h-65l-90 -512h-70l57 327h-380l-57 -327h-70l90 512h-65l10 56h65l23 132h70l-23 -132h380l23 132h70l-23 -132h65zM580 393l21 119h-380l-21 -119h380z" />
    <glyph glyph-name="I" unicode="I" horiz-adv-x="230" 
d="M159 700h70l-123 -700h-70z" />
    <glyph glyph-name="Iacute" unicode="&#xcd;" horiz-adv-x="230" 
d="M157 770h66l116 130h-82zM159 700h70l-123 -700h-70z" />
    <glyph glyph-name="Icircumflex" unicode="&#xce;" horiz-adv-x="230" 
d="M268 900l84 -130h-72l-55 87l-85 -87h-78l128 130h78zM36 0l123 700h70l-123 -700h-70z" />
    <glyph glyph-name="Idieresis" unicode="&#xcf;" horiz-adv-x="230" 
d="M112 775c-25 0 -42 20 -37 45c4 25 28 45 53 45s41 -20 37 -45c-5 -25 -28 -45 -53 -45zM302 775c-25 0 -42 20 -37 45c4 25 28 45 53 45s41 -20 37 -45c-5 -25 -28 -45 -53 -45zM159 700h70l-123 -700h-70z" />
    <glyph glyph-name="Idotaccent" unicode="&#x130;" horiz-adv-x="230" 
d="M206 770c-31 0 -51 24 -45 55c5 31 33 55 64 55s51 -24 46 -55c-6 -31 -34 -55 -65 -55zM159 700h70l-123 -700h-70z" />
    <glyph glyph-name="Igrave" unicode="&#xcc;" horiz-adv-x="230" 
d="M247 770l-58 130h-80l74 -130h64zM159 700h70l-123 -700h-70z" />
    <glyph glyph-name="Imacron" unicode="&#x12a;" horiz-adv-x="230" 
d="M78 780l10 58h260l-10 -58h-260zM159 700h70l-123 -700h-70z" />
    <glyph glyph-name="Iogonek" unicode="&#x12e;" horiz-adv-x="230" 
d="M40 -119c-5 -27 7 -36 28 -36c15 0 28 3 43 9l-9 -55c-16 -7 -35 -11 -61 -11c-49 0 -75 37 -67 86c7 43 34 91 63 130l122 696h70l-123 -700c-35 -46 -59 -81 -66 -119z" />
    <glyph glyph-name="J" unicode="J" horiz-adv-x="553" 
d="M215 -12c-98 0 -171 41 -199 124l63 34c19 -64 70 -90 141 -90c90 0 165 41 183 142l88 502h70l-88 -504c-27 -153 -144 -208 -258 -208z" />
    <glyph glyph-name="K" unicode="K" horiz-adv-x="578" 
d="M641 700l-397 -345l280 -355h-83l-274 346l-61 -346h-70l123 700h70l-56 -322l374 322h94z" />
    <glyph glyph-name="Kcommaaccent" unicode="&#x136;" horiz-adv-x="578" 
d="M641 700l-397 -345l280 -355h-83l-274 346l-61 -346h-70l123 700h70l-56 -322l374 322h94zM179 -240l40 170h66l-60 -170h-46z" />
    <glyph glyph-name="L" unicode="L" horiz-adv-x="490" 
d="M118 66h320l-12 -66h-390l123 700h70z" />
    <glyph glyph-name="Lacute" unicode="&#x139;" horiz-adv-x="490" 
d="M356 900l-116 -130h-66l100 130h82zM118 66h320l-12 -66h-390l123 700h70z" />
    <glyph glyph-name="Lcaron" unicode="&#x13d;" horiz-adv-x="490" 
d="M118 66h320l-12 -66h-390l123 700h70zM415 700l-60 -170h-46l40 170h66z" />
    <glyph glyph-name="Lcommaaccent" unicode="&#x13b;" horiz-adv-x="490" 
d="M118 66h320l-12 -66h-390l123 700h70zM157 -240l40 170h66l-60 -170h-46z" />
    <glyph glyph-name="Lslash" unicode="&#x141;" horiz-adv-x="520" 
d="M148 66h320l-12 -66h-390l44 248l-78 -46l12 69l78 46l67 383h70l-59 -337l179 105l-12 -69l-179 -106z" />
    <glyph glyph-name="M" unicode="M" horiz-adv-x="800" 
d="M799 700l-123 -700h-70l103 589l-312 -405h-10l-176 416l-105 -600h-70l123 700h82l166 -394l304 394h88z" />
    <glyph glyph-name="N" unicode="N" horiz-adv-x="680" 
d="M36 0l123 700h54l297 -569l99 569h70l-123 -700h-54l-296 569l-100 -569h-70z" />
    <glyph glyph-name="Nacute" unicode="&#x143;" horiz-adv-x="680" 
d="M382 770h66l116 130h-82zM36 0l123 700h54l297 -569l99 569h70l-123 -700h-54l-296 569l-100 -569h-70z" />
    <glyph glyph-name="Ncaron" unicode="&#x147;" horiz-adv-x="680" 
d="M393 770l-84 130h71l55 -86l85 86h79l-128 -130h-78zM609 700h70l-123 -700h-54l-296 569l-100 -569h-70l123 700h54l297 -569z" />
    <glyph glyph-name="Ncommaaccent" unicode="&#x145;" horiz-adv-x="680" 
d="M36 0l123 700h54l297 -569l99 569h70l-123 -700h-54l-296 569l-100 -569h-70zM258 -240l60 170h-66l-40 -170h46z" />
    <glyph glyph-name="Eng" unicode="&#x14a;" horiz-adv-x="680" 
d="M609 700h70l-123 -700c-29 -166 -128 -202 -245 -200l12 68c85 -2 143 24 163 132l4 23l-284 546l-100 -569h-70l123 700h54l297 -569z" />
    <glyph glyph-name="Ntilde" unicode="&#xd1;" horiz-adv-x="680" 
d="M293 780c20 125 97 139 157 87c46 -40 71 -56 85 23h58c-20 -125 -96 -139 -156 -87c-46 40 -72 56 -86 -23h-58zM36 0l123 700h54l297 -569l99 569h70l-123 -700h-54l-296 569l-100 -569h-70z" />
    <glyph glyph-name="O" unicode="O" horiz-adv-x="808" 
d="M360 -12c-202 0 -337 172 -301 372c35 200 212 352 421 352c204 0 338 -177 303 -377c-36 -200 -212 -347 -423 -347zM372 56c173 0 312 126 341 289c28 163 -74 299 -245 299s-311 -131 -339 -294c-29 -163 74 -294 243 -294z" />
    <glyph glyph-name="Oacute" unicode="&#xd3;" horiz-adv-x="808" 
d="M445 770h66l116 130h-82zM360 -12c-202 0 -337 172 -301 372c35 200 212 352 421 352c204 0 338 -177 303 -377c-36 -200 -212 -347 -423 -347zM372 56c173 0 312 126 341 289c28 163 -74 299 -245 299s-311 -131 -339 -294c-29 -163 74 -294 243 -294z" />
    <glyph glyph-name="Ocircumflex" unicode="&#xd4;" horiz-adv-x="808" 
d="M513 857l-85 -87h-78l128 130h78l84 -130h-72zM480 712c204 0 338 -177 303 -377c-36 -200 -212 -347 -423 -347c-202 0 -337 172 -301 372c35 200 212 352 421 352zM713 345c28 163 -74 299 -245 299s-311 -131 -339 -294c-29 -163 74 -294 243 -294
c173 0 312 126 341 289z" />
    <glyph glyph-name="Odieresis" unicode="&#xd6;" horiz-adv-x="808" 
d="M400 775c-25 0 -42 20 -37 45c4 25 28 45 53 45s41 -20 37 -45c-5 -25 -28 -45 -53 -45zM590 775c-25 0 -42 20 -37 45c4 25 28 45 53 45s41 -20 37 -45c-5 -25 -28 -45 -53 -45zM360 -12c-202 0 -337 172 -301 372c35 200 212 352 421 352c204 0 338 -177 303 -377
c-36 -200 -212 -347 -423 -347zM372 56c173 0 312 126 341 289c28 163 -74 299 -245 299s-311 -131 -339 -294c-29 -163 74 -294 243 -294z" />
    <glyph glyph-name="Ograve" unicode="&#xd2;" horiz-adv-x="808" 
d="M535 770l-58 130h-80l74 -130h64zM360 -12c-202 0 -337 172 -301 372c35 200 212 352 421 352c204 0 338 -177 303 -377c-36 -200 -212 -347 -423 -347zM372 56c173 0 312 126 341 289c28 163 -74 299 -245 299s-311 -131 -339 -294c-29 -163 74 -294 243 -294z" />
    <glyph glyph-name="Ohungarumlaut" unicode="&#x150;" horiz-adv-x="808" 
d="M365 770h70l96 130h-76zM508 770h70l106 130h-76zM360 -12c-202 0 -337 172 -301 372c35 200 212 352 421 352c204 0 338 -177 303 -377c-36 -200 -212 -347 -423 -347zM372 56c173 0 312 126 341 289c28 163 -74 299 -245 299s-311 -131 -339 -294
c-29 -163 74 -294 243 -294z" />
    <glyph glyph-name="Omacron" unicode="&#x14c;" horiz-adv-x="808" 
d="M366 780l10 58h260l-10 -58h-260zM360 -12c-202 0 -337 172 -301 372c35 200 212 352 421 352c204 0 338 -177 303 -377c-36 -200 -212 -347 -423 -347zM372 56c173 0 312 126 341 289c28 163 -74 299 -245 299s-311 -131 -339 -294c-29 -163 74 -294 243 -294z" />
    <glyph glyph-name="Oslash" unicode="&#xd8;" horiz-adv-x="818" 
d="M726 605c58 -70 85 -167 67 -270c-36 -200 -212 -347 -423 -347c-79 0 -148 26 -200 70l-59 -58l-45 28l68 67c-57 68 -83 163 -65 265c35 200 212 352 421 352c79 0 147 -26 199 -70l59 58l45 -29zM139 350c-14 -80 3 -153 45 -206l454 448c-41 33 -96 52 -160 52
c-171 0 -311 -131 -339 -294zM723 345c14 81 -4 156 -48 210l-454 -447c41 -33 96 -52 161 -52c173 0 312 126 341 289z" />
    <glyph glyph-name="Otilde" unicode="&#xd5;" horiz-adv-x="808" 
d="M356 780c20 125 97 139 157 87c46 -40 71 -56 85 23h58c-20 -125 -96 -139 -156 -87c-46 40 -72 56 -86 -23h-58zM360 -12c-202 0 -337 172 -301 372c35 200 212 352 421 352c204 0 338 -177 303 -377c-36 -200 -212 -347 -423 -347zM372 56c173 0 312 126 341 289
c28 163 -74 299 -245 299s-311 -131 -339 -294c-29 -163 74 -294 243 -294z" />
    <glyph glyph-name="OE" unicode="&#x152;" horiz-adv-x="916" 
d="M939 634h-316l-43 -248h300l-12 -66h-300l-44 -254h320l-12 -66h-390c-30 -8 -63 -12 -95 -12c-199 0 -324 167 -288 367c35 200 207 357 416 357c32 0 63 -4 90 -12h385zM454 71l99 558c-27 10 -57 15 -90 15c-166 0 -306 -131 -334 -294c-29 -163 64 -294 230 -294
c33 0 65 5 95 15z" />
    <glyph glyph-name="P" unicode="P" horiz-adv-x="589" 
d="M404 700c134 0 207 -96 186 -220c-20 -121 -120 -220 -279 -220h-159l-46 -260h-70l123 700h245zM522 490c15 88 -35 144 -125 144h-180l-54 -308h156c114 0 188 73 203 164z" />
    <glyph glyph-name="Thorn" unicode="&#xde;" horiz-adv-x="590" 
d="M382 570c134 0 207 -96 186 -220c-20 -121 -120 -220 -279 -220h-160l-23 -130h-70l123 700h70l-23 -130h176zM500 360c15 88 -35 144 -125 144h-180l-55 -308h157c114 0 188 73 203 164z" />
    <glyph glyph-name="Q" unicode="Q" horiz-adv-x="813" 
d="M783 335c-18 -100 -71 -187 -146 -249l58 -70l-50 -43l-63 75c-65 -38 -141 -60 -222 -60c-202 0 -337 172 -301 372c35 200 212 352 421 352c204 0 338 -177 303 -377zM539 99l-128 153l51 43l132 -158c61 52 104 125 119 208c28 163 -74 299 -245 299
s-311 -131 -339 -294c-29 -163 74 -294 243 -294c61 0 118 16 167 43z" />
    <glyph glyph-name="R" unicode="R" horiz-adv-x="610" 
d="M439 700c111 0 194 -104 173 -220c-16 -95 -91 -169 -185 -192l119 -288h-73l-115 280h-203l-49 -280h-70l123 700h280zM544 490c15 80 -39 144 -116 144h-211l-50 -288h210c79 0 153 65 167 144z" />
    <glyph glyph-name="Racute" unicode="&#x154;" horiz-adv-x="610" 
d="M514 900l-116 -130h-66l100 130h82zM439 700c111 0 194 -104 173 -220c-16 -95 -91 -169 -185 -192l119 -288h-73l-115 280h-203l-49 -280h-70l123 700h280zM544 490c15 80 -39 144 -116 144h-211l-50 -288h210c79 0 153 65 167 144z" />
    <glyph glyph-name="Rcaron" unicode="&#x158;" horiz-adv-x="610" 
d="M343 770l-84 130h71l55 -86l85 86h79l-128 -130h-78zM439 700c111 0 194 -104 173 -220c-16 -95 -91 -169 -185 -192l119 -288h-73l-115 280h-203l-49 -280h-70l123 700h280zM544 490c15 80 -39 144 -116 144h-211l-50 -288h210c79 0 153 65 167 144z" />
    <glyph glyph-name="Rcommaaccent" unicode="&#x156;" horiz-adv-x="610" 
d="M439 700c111 0 194 -104 173 -220c-16 -95 -91 -169 -185 -192l119 -288h-73l-115 280h-203l-49 -280h-70l123 700h280zM544 490c15 80 -39 144 -116 144h-211l-50 -288h210c79 0 153 65 167 144zM207 -240l40 170h66l-60 -170h-46z" />
    <glyph glyph-name="S" unicode="S" horiz-adv-x="584" 
d="M267 -12c-131 0 -217 64 -243 171l61 32c16 -81 75 -135 184 -135c99 0 170 44 186 116c20 91 -70 122 -155 151c-93 32 -209 83 -182 217c24 119 137 172 237 172c124 0 190 -71 217 -149l-62 -32c-20 61 -63 113 -159 113c-73 0 -147 -37 -163 -111
c-19 -90 66 -122 152 -152c82 -29 212 -75 184 -217c-24 -120 -134 -176 -257 -176z" />
    <glyph glyph-name="Sacute" unicode="&#x15a;" horiz-adv-x="584" 
d="M332 770h66l116 130h-82zM267 -12c-131 0 -217 64 -243 171l61 32c16 -81 75 -135 184 -135c99 0 170 44 186 116c20 91 -70 122 -155 151c-93 32 -209 83 -182 217c24 119 137 172 237 172c124 0 190 -71 217 -149l-62 -32c-20 61 -63 113 -159 113
c-73 0 -147 -37 -163 -111c-19 -90 66 -122 152 -152c82 -29 212 -75 184 -217c-24 -120 -134 -176 -257 -176z" />
    <glyph glyph-name="Scaron" unicode="&#x160;" horiz-adv-x="584" 
d="M343 770l-84 130h71l55 -86l85 86h79l-128 -130h-78zM340 381c82 -29 212 -75 184 -217c-24 -120 -134 -176 -257 -176c-131 0 -217 64 -243 171l61 32c16 -81 75 -135 184 -135c99 0 170 44 186 116c20 91 -70 122 -155 151c-93 32 -209 83 -182 217
c24 119 137 172 237 172c124 0 190 -71 217 -149l-62 -32c-20 61 -63 113 -159 113c-73 0 -147 -37 -163 -111c-19 -90 66 -122 152 -152z" />
    <glyph glyph-name="Scedilla" unicode="&#x15e;" horiz-adv-x="584" 
d="M340 381c82 -29 212 -75 184 -217c-23 -116 -127 -172 -245 -176l-6 -33c53 -10 85 -45 78 -86c-9 -50 -50 -97 -220 -85l10 54c96 -8 147 7 152 36c5 28 -30 42 -86 41l13 76c-104 14 -173 74 -196 168l61 32c16 -81 75 -135 184 -135c99 0 170 44 186 116
c20 91 -70 122 -155 151c-93 32 -209 83 -182 217c24 119 137 172 237 172c124 0 190 -71 217 -149l-62 -32c-20 61 -63 113 -159 113c-73 0 -147 -37 -163 -111c-19 -90 66 -122 152 -152z" />
    <glyph glyph-name="Scommaaccent" unicode="&#x218;" horiz-adv-x="584" 
d="M267 -12c-131 0 -217 64 -243 171l61 32c16 -81 75 -135 184 -135c99 0 170 44 186 116c20 91 -70 122 -155 151c-93 32 -209 83 -182 217c24 119 137 172 237 172c124 0 190 -71 217 -149l-62 -32c-20 61 -63 113 -159 113c-73 0 -147 -37 -163 -111
c-19 -90 66 -122 152 -152c82 -29 212 -75 184 -217c-24 -120 -134 -176 -257 -176zM231 -240l60 170h-66l-40 -170h46z" />
    <glyph glyph-name="T" unicode="T" horiz-adv-x="540" 
d="M599 700l-11 -66h-216l-111 -634h-70l111 634h-214l11 66h500z" />
    <glyph glyph-name="Tbar" unicode="&#x166;" horiz-adv-x="540" 
d="M588 634h-216l-44 -252h145l-11 -64h-145l-56 -318h-70l56 318h-145l11 64h145l44 252h-214l11 66h500z" />
    <glyph glyph-name="Tcaron" unicode="&#x164;" horiz-adv-x="540" 
d="M323 770l-84 130h71l55 -86l85 86h79l-128 -130h-78zM599 700l-11 -66h-216l-111 -634h-70l111 634h-214l11 66h500z" />
    <glyph glyph-name="uni0162" unicode="&#x162;" horiz-adv-x="540" 
d="M599 700l-11 -66h-216l-111 -634h-70l111 634h-214l11 66h500zM142 -240l40 170h66l-60 -170h-46z" />
    <glyph glyph-name="uni021A" unicode="&#x21a;" horiz-adv-x="540" 
d="M599 700l-11 -66h-216l-111 -634h-70l111 634h-214l11 66h500zM142 -240l40 170h66l-60 -170h-46z" />
    <glyph glyph-name="U" unicode="U" horiz-adv-x="660" 
d="M294 -12c-156 0 -252 101 -226 250l81 462h70l-81 -462c-19 -109 35 -182 156 -182c125 0 206 78 224 182l81 462h70l-81 -462c-28 -158 -145 -250 -294 -250z" />
    <glyph glyph-name="Uacute" unicode="&#xda;" horiz-adv-x="660" 
d="M371 770h66l116 130h-82zM294 -12c-156 0 -252 101 -226 250l81 462h70l-81 -462c-19 -109 35 -182 156 -182c125 0 206 78 224 182l81 462h70l-81 -462c-28 -158 -145 -250 -294 -250z" />
    <glyph glyph-name="Ucircumflex" unicode="&#xdb;" horiz-adv-x="660" 
d="M439 857l-85 -87h-78l128 130h78l84 -130h-72zM599 700h70l-81 -462c-28 -158 -145 -250 -294 -250c-156 0 -252 101 -226 250l81 462h70l-81 -462c-19 -109 35 -182 156 -182c125 0 206 78 224 182z" />
    <glyph glyph-name="Udieresis" unicode="&#xdc;" horiz-adv-x="660" 
d="M326 775c-25 0 -42 20 -37 45c4 25 28 45 53 45s41 -20 37 -45c-5 -25 -28 -45 -53 -45zM516 775c-25 0 -42 20 -37 45c4 25 28 45 53 45s41 -20 37 -45c-5 -25 -28 -45 -53 -45zM294 -12c-156 0 -252 101 -226 250l81 462h70l-81 -462c-19 -109 35 -182 156 -182
c125 0 206 78 224 182l81 462h70l-81 -462c-28 -158 -145 -250 -294 -250z" />
    <glyph glyph-name="Ugrave" unicode="&#xd9;" horiz-adv-x="660" 
d="M461 770l-58 130h-80l74 -130h64zM294 -12c-156 0 -252 101 -226 250l81 462h70l-81 -462c-19 -109 35 -182 156 -182c125 0 206 78 224 182l81 462h70l-81 -462c-28 -158 -145 -250 -294 -250z" />
    <glyph glyph-name="Uhungarumlaut" unicode="&#x170;" horiz-adv-x="660" 
d="M291 770h70l96 130h-76zM434 770h70l106 130h-76zM294 -12c-156 0 -252 101 -226 250l81 462h70l-81 -462c-19 -109 35 -182 156 -182c125 0 206 78 224 182l81 462h70l-81 -462c-28 -158 -145 -250 -294 -250z" />
    <glyph glyph-name="Umacron" unicode="&#x16a;" horiz-adv-x="660" 
d="M292 780l10 58h260l-10 -58h-260zM294 -12c-156 0 -252 101 -226 250l81 462h70l-81 -462c-19 -109 35 -182 156 -182c125 0 206 78 224 182l81 462h70l-81 -462c-28 -158 -145 -250 -294 -250z" />
    <glyph glyph-name="Uogonek" unicode="&#x172;" horiz-adv-x="660" 
d="M599 700h70l-81 -462c-17 -96 -67 -167 -136 -209c-91 -63 -135 -110 -141 -152c-4 -26 10 -32 32 -32c12 0 25 2 40 8l-9 -55c-17 -7 -38 -10 -55 -10c-58 0 -83 35 -75 81c6 37 34 78 84 121c-11 -1 -23 -2 -34 -2c-156 0 -252 101 -226 250l81 462h70l-81 -462
c-19 -109 35 -182 156 -182c125 0 206 78 224 182z" />
    <glyph glyph-name="Uring" unicode="&#x16e;" horiz-adv-x="660" 
d="M415 720c-67 0 -100 48 -91 103c9 57 60 97 121 97c68 0 99 -50 91 -103c-9 -57 -59 -97 -121 -97zM421 771c32 0 56 21 61 49c5 30 -13 49 -43 49c-29 0 -54 -18 -60 -49c-5 -28 10 -49 42 -49zM294 -12c-156 0 -252 101 -226 250l81 462h70l-81 -462
c-19 -109 35 -182 156 -182c125 0 206 78 224 182l81 462h70l-81 -462c-28 -158 -145 -250 -294 -250z" />
    <glyph glyph-name="V" unicode="V" horiz-adv-x="608" 
d="M224 0l-135 700h70l112 -611l328 611h78l-381 -700h-72z" />
    <glyph glyph-name="W" unicode="W" horiz-adv-x="1000" 
d="M189 0l-80 700h69l68 -608l289 608h82l76 -608l282 608h74l-326 -700h-84l-76 608l-290 -608h-84z" />
    <glyph glyph-name="Wacute" unicode="&#x1e82;" horiz-adv-x="1000" 
d="M542 770h66l116 130h-82zM189 0l-80 700h69l68 -608l289 608h82l76 -608l282 608h74l-326 -700h-84l-76 608l-290 -608h-84z" />
    <glyph glyph-name="Wcircumflex" unicode="&#x174;" horiz-adv-x="1000" 
d="M610 857l-85 -87h-78l128 130h78l84 -130h-72zM975 700h74l-326 -700h-84l-76 608l-290 -608h-84l-80 700h69l68 -608l289 608h82l76 -608z" />
    <glyph glyph-name="Wdieresis" unicode="&#x1e84;" horiz-adv-x="1000" 
d="M497 775c-25 0 -42 20 -37 45c4 25 28 45 53 45s41 -20 37 -45c-5 -25 -28 -45 -53 -45zM687 775c-25 0 -42 20 -37 45c4 25 28 45 53 45s41 -20 37 -45c-5 -25 -28 -45 -53 -45zM189 0l-80 700h69l68 -608l289 608h82l76 -608l282 608h74l-326 -700h-84l-76 608
l-290 -608h-84z" />
    <glyph glyph-name="Wgrave" unicode="&#x1e80;" horiz-adv-x="1000" 
d="M632 770l-58 130h-80l74 -130h64zM189 0l-80 700h69l68 -608l289 608h82l76 -608l282 608h74l-326 -700h-84l-76 608l-290 -608h-84z" />
    <glyph glyph-name="X" unicode="X" horiz-adv-x="580" 
d="M624 700l-277 -342l169 -358h-72l-142 302l-244 -302h-82l296 366l-158 334h72l131 -278l225 278h82z" />
    <glyph glyph-name="Y" unicode="Y" horiz-adv-x="575" 
d="M644 700l-309 -374l-57 -326h-70l57 327l-176 373h72l146 -309l255 309h82z" />
    <glyph glyph-name="Yacute" unicode="&#xdd;" horiz-adv-x="575" 
d="M508 900l-116 -130h-66l100 130h82zM644 700l-309 -374l-57 -326h-70l57 327l-176 373h72l146 -309l255 309h82z" />
    <glyph glyph-name="Ycircumflex" unicode="&#x176;" horiz-adv-x="575" 
d="M394 857l-85 -87h-78l128 130h78l84 -130h-72zM644 700l-309 -374l-57 -326h-70l57 327l-176 373h72l146 -309l255 309h82z" />
    <glyph glyph-name="Ydieresis" unicode="&#x178;" horiz-adv-x="575" 
d="M281 775c-25 0 -42 20 -37 45c4 25 28 45 53 45s41 -20 37 -45c-5 -25 -28 -45 -53 -45zM471 775c-25 0 -42 20 -37 45c4 25 28 45 53 45s41 -20 37 -45c-5 -25 -28 -45 -53 -45zM644 700l-309 -374l-57 -326h-70l57 327l-176 373h72l146 -309l255 309h82z" />
    <glyph glyph-name="Ygrave" unicode="&#x1ef2;" horiz-adv-x="575" 
d="M416 770h-64l-74 130h80zM644 700l-309 -374l-57 -326h-70l57 327l-176 373h72l146 -309l255 309h82z" />
    <glyph glyph-name="Z" unicode="Z" horiz-adv-x="520" 
d="M559 700l-11 -66l-461 -568h371l-12 -66h-450l12 66l460 568h-350l11 66h430z" />
    <glyph glyph-name="Zacute" unicode="&#x179;" horiz-adv-x="520" 
d="M489 900l-116 -130h-66l100 130h82zM559 700l-11 -66l-461 -568h371l-12 -66h-450l12 66l460 568h-350l11 66h430z" />
    <glyph glyph-name="Zcaron" unicode="&#x17d;" horiz-adv-x="520" 
d="M318 770l-84 130h71l55 -86l85 86h79l-128 -130h-78zM559 700l-11 -66l-461 -568h371l-12 -66h-450l12 66l460 568h-350l11 66h430z" />
    <glyph glyph-name="Zdotaccent" unicode="&#x17b;" horiz-adv-x="520" 
d="M356 770c-31 0 -51 24 -45 55c5 31 33 55 64 55s51 -24 46 -55c-6 -31 -34 -55 -65 -55zM559 700l-11 -66l-461 -568h371l-12 -66h-450l12 66l460 568h-350l11 66h430z" />
    <glyph glyph-name="a" unicode="a" horiz-adv-x="638" 
d="M546 500h66l-88 -500h-66l15 85c-51 -61 -127 -97 -217 -97c-139 0 -240 124 -214 272c30 169 163 252 286 252c84 0 163 -40 199 -118zM272 52c109 0 206 78 228 186l2 12c20 130 -70 198 -169 198c-96 0 -202 -64 -225 -193c-19 -111 51 -203 164 -203z" />
    <glyph glyph-name="aacute" unicode="&#xe1;" horiz-adv-x="638" 
d="M491 700l-116 -130h-66l100 130h82zM546 500h66l-88 -500h-66l15 85c-51 -61 -127 -97 -217 -97c-139 0 -240 124 -214 272c30 169 163 252 286 252c84 0 163 -40 199 -118zM272 52c109 0 206 78 228 186l2 12c20 130 -70 198 -169 198c-96 0 -202 -64 -225 -193
c-19 -111 51 -203 164 -203z" />
    <glyph glyph-name="abreve" unicode="&#x103;" horiz-adv-x="638" 
d="M358 562c-79 0 -133 47 -118 130h64c-10 -54 14 -72 63 -72s80 23 89 72h64c-15 -83 -71 -130 -162 -130zM546 500h66l-88 -500h-66l15 85c-51 -61 -127 -97 -217 -97c-139 0 -240 124 -214 272c30 169 163 252 286 252c84 0 163 -40 199 -118zM272 52
c109 0 206 78 228 186l2 12c20 130 -70 198 -169 198c-96 0 -202 -64 -225 -193c-19 -111 51 -203 164 -203z" />
    <glyph glyph-name="acircumflex" unicode="&#xe2;" horiz-adv-x="638" 
d="M377 657l-85 -87h-78l128 130h78l84 -130h-72zM546 500h66l-88 -500h-66l15 85c-51 -61 -127 -97 -217 -97c-139 0 -240 124 -214 272c30 169 163 252 286 252c84 0 163 -40 199 -118zM272 52c109 0 206 78 228 186l2 12c20 130 -70 198 -169 198
c-96 0 -202 -64 -225 -193c-19 -111 51 -203 164 -203z" />
    <glyph glyph-name="adieresis" unicode="&#xe4;" horiz-adv-x="638" 
d="M264 575c-25 0 -42 20 -37 45c4 25 28 45 53 45s41 -20 37 -45c-5 -25 -28 -45 -53 -45zM454 575c-25 0 -42 20 -37 45c4 25 28 45 53 45s41 -20 37 -45c-5 -25 -28 -45 -53 -45zM546 500h66l-88 -500h-66l15 85c-51 -61 -127 -97 -217 -97c-139 0 -240 124 -214 272
c30 169 163 252 286 252c84 0 163 -40 199 -118zM272 52c109 0 206 78 228 186l2 12c20 130 -70 198 -169 198c-96 0 -202 -64 -225 -193c-19 -111 51 -203 164 -203z" />
    <glyph glyph-name="agrave" unicode="&#xe0;" horiz-adv-x="638" 
d="M399 570h-64l-74 130h80zM546 500h66l-88 -500h-66l15 85c-51 -61 -127 -97 -217 -97c-139 0 -240 124 -214 272c30 169 163 252 286 252c84 0 163 -40 199 -118zM272 52c109 0 206 78 228 186l2 12c20 130 -70 198 -169 198c-96 0 -202 -64 -225 -193
c-19 -111 51 -203 164 -203z" />
    <glyph glyph-name="amacron" unicode="&#x101;" horiz-adv-x="638" 
d="M500 638l-10 -58h-260l10 58h260zM546 500h66l-88 -500h-66l15 85c-51 -61 -127 -97 -217 -97c-139 0 -240 124 -214 272c30 169 163 252 286 252c84 0 163 -40 199 -118zM272 52c109 0 206 78 228 186l2 12c20 130 -70 198 -169 198c-96 0 -202 -64 -225 -193
c-19 -111 51 -203 164 -203z" />
    <glyph glyph-name="aogonek" unicode="&#x105;" horiz-adv-x="639" 
d="M524 0c-53 -42 -94 -91 -98 -124c-3 -22 8 -31 29 -31c15 0 28 3 43 9l-9 -55c-19 -7 -38 -11 -61 -11c-54 0 -77 37 -69 81c7 38 39 86 101 143l13 73c-51 -61 -127 -97 -217 -97c-139 0 -240 124 -214 272c30 169 163 252 286 252c84 0 163 -40 199 -118l19 106h66z
M272 52c109 0 206 78 228 186l2 12c20 130 -70 198 -169 198c-96 0 -202 -64 -225 -193c-19 -111 51 -203 164 -203z" />
    <glyph glyph-name="aring" unicode="&#xe5;" horiz-adv-x="638" 
d="M358 550c-67 0 -100 48 -91 103c9 57 60 97 121 97c68 0 99 -50 91 -103c-9 -57 -59 -97 -121 -97zM322 650c-5 -28 10 -49 42 -49s56 21 61 49c5 30 -13 49 -43 49c-29 0 -54 -18 -60 -49zM546 500h66l-88 -500h-66l15 85c-51 -61 -127 -97 -217 -97
c-139 0 -240 124 -214 272c30 169 163 252 286 252c84 0 163 -40 199 -118zM272 52c109 0 206 78 228 186l2 12c20 130 -70 198 -169 198c-96 0 -202 -64 -225 -193c-19 -111 51 -203 164 -203z" />
    <glyph glyph-name="atilde" unicode="&#xe3;" horiz-adv-x="638" 
d="M364 603c-46 40 -72 56 -86 -23h-58c20 125 97 139 157 87c46 -40 71 -56 85 23h58c-20 -125 -96 -139 -156 -87zM546 500h66l-88 -500h-66l15 85c-51 -61 -127 -97 -217 -97c-139 0 -240 124 -214 272c30 169 163 252 286 252c84 0 163 -40 199 -118zM272 52
c109 0 206 78 228 186l2 12c20 130 -70 198 -169 198c-96 0 -202 -64 -225 -193c-19 -111 51 -203 164 -203z" />
    <glyph glyph-name="ae" unicode="&#xe6;" horiz-adv-x="1044" 
d="M811 512c143 0 225 -128 198 -264c-2 -10 -5 -21 -8 -31h-437c-4 -102 60 -165 165 -165c83 0 144 37 180 85l52 -34c-54 -68 -140 -115 -235 -115c-94 0 -157 44 -184 114l-18 -102h-66l15 85c-51 -61 -127 -97 -217 -97c-139 0 -240 124 -214 272
c30 169 163 252 286 252c84 0 163 -40 199 -118l19 106h66l-17 -97c49 66 122 109 216 109zM272 52c109 0 206 78 228 186l2 12c20 130 -70 198 -169 198c-96 0 -202 -64 -225 -193c-19 -111 51 -203 164 -203zM575 281h371c8 110 -60 167 -149 167
c-109 0 -192 -69 -222 -167z" />
    <glyph glyph-name="b" unicode="b" horiz-adv-x="636" 
d="M384 512c136 0 238 -116 212 -264s-149 -260 -304 -260c-85 0 -150 46 -182 117l-18 -105h-66l123 700h66l-51 -291c52 63 129 103 220 103zM530 255c20 111 -51 193 -162 193s-212 -87 -232 -198c-19 -111 51 -198 162 -198c116 0 213 92 232 203z" />
    <glyph glyph-name="c" unicode="c" horiz-adv-x="553" 
d="M258 -12c-146 0 -242 125 -216 273s154 251 303 251c98 0 176 -51 204 -130l-57 -29c-21 58 -75 95 -153 95c-113 0 -211 -83 -231 -194c-19 -111 46 -202 161 -202c78 0 145 41 183 100l53 -35c-51 -81 -142 -129 -247 -129z" />
    <glyph glyph-name="cacute" unicode="&#x107;" horiz-adv-x="553" 
d="M295 570h66l116 130h-82zM258 -12c-146 0 -242 125 -216 273s154 251 303 251c98 0 176 -51 204 -130l-57 -29c-21 58 -75 95 -153 95c-113 0 -211 -83 -231 -194c-19 -111 46 -202 161 -202c78 0 145 41 183 100l53 -35c-51 -81 -142 -129 -247 -129z" />
    <glyph glyph-name="ccaron" unicode="&#x10d;" horiz-adv-x="553" 
d="M306 570l-84 130h71l55 -86l85 86h79l-128 -130h-78zM269 52c78 0 145 41 183 100l53 -35c-51 -81 -142 -129 -247 -129c-146 0 -242 125 -216 273s154 251 303 251c98 0 176 -51 204 -130l-57 -29c-21 58 -75 95 -153 95c-113 0 -211 -83 -231 -194
c-19 -111 46 -202 161 -202z" />
    <glyph glyph-name="ccedilla" unicode="&#xe7;" horiz-adv-x="553" 
d="M269 52c78 0 145 41 183 100l53 -35c-48 -76 -130 -122 -226 -128l-6 -34c53 -10 85 -45 78 -86c-9 -50 -50 -97 -220 -85l10 54c96 -8 147 7 152 36c5 28 -30 42 -86 41l13 76c-124 19 -202 135 -178 270c26 148 154 251 303 251c98 0 176 -51 204 -130l-57 -29
c-21 58 -75 95 -153 95c-113 0 -211 -83 -231 -194c-19 -111 46 -202 161 -202z" />
    <glyph glyph-name="cdotaccent" unicode="&#x10b;" horiz-adv-x="553" 
d="M344 570c-31 0 -51 24 -45 55c5 31 33 55 64 55s51 -24 46 -55c-6 -31 -34 -55 -65 -55zM258 -12c-146 0 -242 125 -216 273s154 251 303 251c98 0 176 -51 204 -130l-57 -29c-21 58 -75 95 -153 95c-113 0 -211 -83 -231 -194c-19 -111 46 -202 161 -202
c78 0 145 41 183 100l53 -35c-51 -81 -142 -129 -247 -129z" />
    <glyph glyph-name="d" unicode="d" horiz-adv-x="638" 
d="M581 700h66l-123 -700h-66l15 85c-51 -61 -127 -97 -217 -97c-139 0 -240 124 -214 272c30 169 163 252 286 252c84 0 163 -40 199 -118zM272 52c109 0 205 78 228 185l2 16c19 128 -70 195 -169 195c-96 0 -203 -64 -225 -193c-19 -111 51 -203 164 -203z" />
    <glyph glyph-name="eth" unicode="&#xf0;" horiz-adv-x="587" 
d="M513 372c22 -38 37 -102 28 -157c-27 -148 -146 -227 -284 -227c-127 0 -245 109 -218 257c24 139 140 217 266 217c37 0 69 -8 96 -22l-76 135l-134 -75l11 60l100 56l-47 84h68l32 -55l121 67l-11 -60l-86 -48zM475 220c7 41 2 85 -14 113c-19 32 -62 71 -149 71
c-107 0 -189 -58 -207 -164c-20 -111 60 -188 163 -188c99 0 187 57 207 168z" />
    <glyph glyph-name="dcaron" unicode="&#x10f;" horiz-adv-x="703" 
d="M527 394l54 306h66l-123 -700h-66l15 85c-51 -61 -127 -97 -217 -97c-139 0 -240 124 -214 272c30 169 163 252 286 252c84 0 163 -40 199 -118zM726 700h66l-60 -170h-46zM272 52c109 0 205 78 228 185l2 16c19 128 -70 195 -169 195c-96 0 -203 -64 -225 -193
c-19 -111 51 -203 164 -203z" />
    <glyph glyph-name="dcroat" unicode="&#x111;" horiz-adv-x="646" 
d="M703 630l-9 -54h-70l-101 -576h-66l15 84c-52 -60 -126 -96 -216 -96c-139 0 -240 124 -214 272c30 169 163 252 286 252c84 0 162 -40 198 -116l32 180h-184l9 54h185l12 70h66l-12 -70h69zM272 52c103 0 195 68 223 167l9 50c9 117 -77 179 -171 179
c-96 0 -202 -64 -225 -193c-19 -111 51 -203 164 -203z" />
    <glyph glyph-name="e" unicode="e" horiz-adv-x="584" 
d="M339 512c154 0 238 -124 210 -264c-1 -5 -5 -22 -8 -31h-437c-4 -101 62 -165 167 -165c76 0 139 33 177 86l52 -34c-50 -75 -147 -116 -238 -116c-155 0 -247 119 -220 272c26 147 152 252 297 252zM114 281h372c9 113 -58 167 -151 167c-106 0 -191 -66 -221 -167z" />
    <glyph glyph-name="eacute" unicode="&#xe9;" horiz-adv-x="584" 
d="M490 700l-116 -130h-66l100 130h82zM339 512c154 0 238 -124 210 -264c-1 -5 -5 -22 -8 -31h-437c-4 -101 62 -165 167 -165c76 0 139 33 177 86l52 -34c-50 -75 -147 -116 -238 -116c-155 0 -247 119 -220 272c26 147 152 252 297 252zM114 281h372
c9 113 -58 167 -151 167c-106 0 -191 -66 -221 -167z" />
    <glyph glyph-name="ecaron" unicode="&#x11b;" horiz-adv-x="584" 
d="M319 570l-84 130h71l55 -86l85 86h79l-128 -130h-78zM339 512c154 0 238 -124 210 -264c-1 -5 -5 -22 -8 -31h-437c-4 -101 62 -165 167 -165c76 0 139 33 177 86l52 -34c-50 -75 -147 -116 -238 -116c-155 0 -247 119 -220 272c26 147 152 252 297 252zM114 281h372
c9 113 -58 167 -151 167c-106 0 -191 -66 -221 -167z" />
    <glyph glyph-name="ecircumflex" unicode="&#xea;" horiz-adv-x="584" 
d="M376 657l-85 -87h-78l128 130h78l84 -130h-72zM339 512c154 0 238 -124 210 -264c-1 -5 -5 -22 -8 -31h-437c-4 -101 62 -165 167 -165c76 0 139 33 177 86l52 -34c-50 -75 -147 -116 -238 -116c-155 0 -247 119 -220 272c26 147 152 252 297 252zM114 281h372
c9 113 -58 167 -151 167c-106 0 -191 -66 -221 -167z" />
    <glyph glyph-name="edieresis" unicode="&#xeb;" horiz-adv-x="584" 
d="M263 575c-25 0 -42 20 -37 45c4 25 28 45 53 45s41 -20 37 -45c-5 -25 -28 -45 -53 -45zM453 575c-25 0 -42 20 -37 45c4 25 28 45 53 45s41 -20 37 -45c-5 -25 -28 -45 -53 -45zM339 512c154 0 238 -124 210 -264c-1 -5 -5 -22 -8 -31h-437c-4 -101 62 -165 167 -165
c76 0 139 33 177 86l52 -34c-50 -75 -147 -116 -238 -116c-155 0 -247 119 -220 272c26 147 152 252 297 252zM114 281h372c9 113 -58 167 -151 167c-106 0 -191 -66 -221 -167z" />
    <glyph glyph-name="edotaccent" unicode="&#x117;" horiz-adv-x="584" 
d="M357 570c-31 0 -51 24 -45 55c5 31 33 55 64 55s51 -24 46 -55c-6 -31 -34 -55 -65 -55zM339 512c154 0 238 -124 210 -264c-1 -5 -5 -22 -8 -31h-437c-4 -101 62 -165 167 -165c76 0 139 33 177 86l52 -34c-50 -75 -147 -116 -238 -116c-155 0 -247 119 -220 272
c26 147 152 252 297 252zM114 281h372c9 113 -58 167 -151 167c-106 0 -191 -66 -221 -167z" />
    <glyph glyph-name="egrave" unicode="&#xe8;" horiz-adv-x="584" 
d="M398 570h-64l-74 130h80zM339 512c154 0 238 -124 210 -264c-1 -5 -5 -22 -8 -31h-437c-4 -101 62 -165 167 -165c76 0 139 33 177 86l52 -34c-50 -75 -147 -116 -238 -116c-155 0 -247 119 -220 272c26 147 152 252 297 252zM114 281h372c9 113 -58 167 -151 167
c-106 0 -191 -66 -221 -167z" />
    <glyph glyph-name="emacron" unicode="&#x113;" horiz-adv-x="584" 
d="M499 638l-10 -58h-260l10 58h260zM339 512c154 0 238 -124 210 -264c-1 -5 -5 -22 -8 -31h-437c-4 -101 62 -165 167 -165c76 0 139 33 177 86l52 -34c-50 -75 -147 -116 -238 -116c-155 0 -247 119 -220 272c26 147 152 252 297 252zM114 281h372
c9 113 -58 167 -151 167c-106 0 -191 -66 -221 -167z" />
    <glyph glyph-name="eogonek" unicode="&#x119;" horiz-adv-x="584" 
d="M339 512c154 0 238 -124 210 -264c-1 -5 -5 -22 -8 -31h-437c-4 -101 62 -165 167 -165c76 0 139 33 177 86l52 -34c-15 -22 -34 -41 -55 -57c-103 -83 -139 -139 -145 -171c-4 -22 7 -31 30 -31c13 0 27 3 42 9l-9 -55c-19 -7 -39 -11 -58 -11c-58 0 -80 37 -72 81
c6 32 29 78 87 124c-19 -3 -39 -5 -58 -5c-155 0 -247 119 -220 272c26 147 152 252 297 252zM114 281h372c9 113 -58 167 -151 167c-106 0 -191 -66 -221 -167z" />
    <glyph glyph-name="f" unicode="f" horiz-adv-x="321" 
d="M158 520c24 135 110 202 244 192l-12 -64c-90 8 -149 -32 -166 -128l-4 -20h144l-11 -64h-144l-77 -436h-66l77 436h-85l11 64h85z" />
    <glyph glyph-name="g" unicode="g" horiz-adv-x="639" 
d="M546 500h66l-84 -480c-27 -152 -144 -232 -287 -232c-106 0 -185 46 -220 122l59 30c20 -49 67 -88 164 -88c123 0 199 63 218 168l12 67c-52 -63 -127 -99 -211 -99c-153 0 -244 122 -221 272c24 161 161 252 286 252c82 0 163 -39 199 -118zM501 243v2l1 5
c22 130 -74 198 -169 198c-97 0 -206 -69 -225 -193c-18 -116 52 -203 167 -203c106 0 203 75 226 191z" />
    <glyph glyph-name="gbreve" unicode="&#x11f;" horiz-adv-x="639" 
d="M366 562c-79 0 -133 47 -118 130h64c-10 -54 14 -72 63 -72s80 23 89 72h64c-15 -83 -71 -130 -162 -130zM546 500h66l-84 -480c-27 -152 -144 -232 -287 -232c-106 0 -185 46 -220 122l59 30c20 -49 67 -88 164 -88c123 0 199 63 218 168l12 67
c-52 -63 -127 -99 -211 -99c-153 0 -244 122 -221 272c24 161 161 252 286 252c82 0 163 -39 199 -118zM501 243v2l1 5c22 130 -74 198 -169 198c-97 0 -206 -69 -225 -193c-18 -116 52 -203 167 -203c106 0 203 75 226 191z" />
    <glyph glyph-name="gcommaaccent" unicode="&#x123;" horiz-adv-x="639" 
d="M437 760l-40 -170h-66l60 170h46zM546 500h66l-84 -480c-27 -152 -144 -232 -287 -232c-106 0 -185 46 -220 122l59 30c20 -49 67 -88 164 -88c123 0 199 63 218 168l12 67c-52 -63 -127 -99 -211 -99c-153 0 -244 122 -221 272c24 161 161 252 286 252
c82 0 163 -39 199 -118zM501 243v2l1 5c22 130 -74 198 -169 198c-97 0 -206 -69 -225 -193c-18 -116 52 -203 167 -203c106 0 203 75 226 191z" />
    <glyph glyph-name="gdotaccent" unicode="&#x121;" horiz-adv-x="639" 
d="M366 570c-31 0 -51 24 -45 55c5 31 33 55 64 55s51 -24 46 -55c-6 -31 -34 -55 -65 -55zM546 500h66l-84 -480c-27 -152 -144 -232 -287 -232c-106 0 -185 46 -220 122l59 30c20 -49 67 -88 164 -88c123 0 199 63 218 168l12 67c-52 -63 -127 -99 -211 -99
c-153 0 -244 122 -221 272c24 161 161 252 286 252c82 0 163 -39 199 -118zM501 243v2l1 5c22 130 -74 198 -169 198c-97 0 -206 -69 -225 -193c-18 -116 52 -203 167 -203c106 0 203 75 226 191z" />
    <glyph glyph-name="h" unicode="h" horiz-adv-x="558" 
d="M345 512c122 0 186 -81 165 -205l-54 -307h-66l54 307c15 89 -20 141 -111 141c-87 0 -169 -50 -194 -179l-47 -269h-66l123 700h66l-47 -270c49 58 111 82 177 82z" />
    <glyph glyph-name="hbar" unicode="&#x127;" horiz-adv-x="568" 
d="M355 512c122 0 186 -81 165 -205l-54 -307h-66l54 307c15 89 -20 141 -111 141c-87 0 -169 -50 -194 -179l-47 -269h-66l101 576h-69l9 54h70l12 70h66l-12 -70h144l-9 -54h-145l-25 -146c49 58 111 82 177 82z" />
    <glyph glyph-name="i" unicode="i" horiz-adv-x="206" 
d="M165 606c-27 0 -43 22 -39 48s27 48 56 48c27 0 45 -22 40 -48s-27 -48 -57 -48zM26 0l88 500h66l-88 -500h-66z" />
    <glyph glyph-name="dotlessi" unicode="&#x131;" horiz-adv-x="206" 
d="M26 0l88 500h66l-88 -500h-66z" />
    <glyph glyph-name="iacute" unicode="&#xed;" horiz-adv-x="206" 
d="M130 570h64l88 130h-80zM26 0l88 500h66l-88 -500h-66z" />
    <glyph glyph-name="icircumflex" unicode="&#xee;" horiz-adv-x="206" 
d="M221 700l64 -130h-75l-37 76l-63 -76h-75l108 130h78zM26 0l88 500h66l-88 -500h-66z" />
    <glyph glyph-name="idieresis" unicode="&#xef;" horiz-adv-x="206" 
d="M91 575c-25 0 -42 20 -37 45c4 25 28 45 53 45s41 -20 37 -45c-5 -25 -28 -45 -53 -45zM229 575c-25 0 -41 20 -37 45s28 45 53 45s42 -20 37 -45s-28 -45 -53 -45zM26 0l88 500h66l-88 -500h-66z" />
    <glyph glyph-name="i.loclTRK" horiz-adv-x="206" 
d="M159 570c-31 0 -51 24 -45 55c5 31 33 55 64 55s51 -24 46 -55c-6 -31 -34 -55 -65 -55zM26 0l88 500h66l-88 -500h-66z" />
    <glyph glyph-name="igrave" unicode="&#xec;" horiz-adv-x="206" 
d="M191 570l-28 130h-80l44 -130h64zM92 0h-66l88 500h66z" />
    <glyph glyph-name="imacron" unicode="&#x12b;" horiz-adv-x="206" 
d="M61 580l10 58h200l-10 -58h-200zM26 0l88 500h66l-88 -500h-66z" />
    <glyph glyph-name="iogonek" unicode="&#x12f;" horiz-adv-x="206" 
d="M182 702c27 0 45 -22 40 -48s-27 -48 -57 -48c-27 0 -43 22 -39 48s27 48 56 48zM92 0c-33 -42 -55 -81 -61 -114c-4 -22 6 -41 27 -41c15 0 28 3 43 9l-9 -55c-19 -7 -38 -11 -61 -11c-54 0 -75 46 -67 90c6 34 19 66 63 127l87 495h66z" />
    <glyph glyph-name="j" unicode="j" horiz-adv-x="230" 
d="M206 702c27 0 45 -22 40 -48s-27 -48 -57 -48c-27 0 -43 22 -39 48s27 48 56 48zM43 -40l95 540h66l-95 -540c-24 -137 -97 -182 -210 -172l11 64c75 -8 118 22 133 108z" />
    <glyph glyph-name="k" unicode="k" horiz-adv-x="494" 
d="M508 500l-302 -240l224 -260h-80l-214 249l-44 -249h-66l123 700h66l-73 -418l274 218h92z" />
    <glyph glyph-name="kcommaaccent" unicode="&#x137;" horiz-adv-x="494" 
d="M508 500l-302 -240l224 -260h-80l-214 249l-44 -249h-66l123 700h66l-73 -418l274 218h92zM137 -240l40 170h66l-60 -170h-46z" />
    <glyph glyph-name="l" unicode="l" horiz-adv-x="207" 
d="M27 0l52 299l76 431h66l-76 -431l-52 -299h-66z" />
    <glyph glyph-name="lacute" unicode="&#x13a;" horiz-adv-x="207" 
d="M162 770h66l116 130h-82zM27 0l52 299l76 431h66l-76 -431l-52 -299h-66z" />
    <glyph glyph-name="lcaron" unicode="&#x13e;" horiz-adv-x="262" 
d="M27 0l52 299l76 431h66l-76 -431l-52 -299h-66zM297 560l60 170h-66l-40 -170h46z" />
    <glyph glyph-name="lcommaaccent" unicode="&#x13c;" horiz-adv-x="207" 
d="M27 0l52 299l76 431h66l-76 -431l-52 -299h-66zM21 -240l60 170h-66l-40 -170h46z" />
    <glyph glyph-name="lslash" unicode="&#x142;" horiz-adv-x="240" 
d="M257 460l-12 -68l-76 -46l-8 -47l-52 -299h-66l52 299v1l-74 -45l12 68l74 45l64 362h66l-56 -316z" />
    <glyph glyph-name="m" unicode="m" horiz-adv-x="848" 
d="M648 512c100 0 175 -73 153 -200l-55 -312h-66l55 312c15 89 -26 136 -100 136c-71 0 -141 -41 -165 -158l-51 -290h-66l55 312c15 89 -22 136 -93 136s-149 -43 -173 -161l-50 -287h-66l88 500h66l-11 -65c48 55 106 77 163 77c66 0 117 -32 137 -93
c50 66 118 93 179 93z" />
    <glyph glyph-name="n" unicode="n" horiz-adv-x="558" 
d="M345 512c122 0 186 -81 165 -205l-54 -307h-66l54 307c15 89 -20 141 -111 141c-86 0 -168 -49 -193 -176l-48 -272h-66l88 500h66l-12 -70c49 59 111 82 177 82z" />
    <glyph glyph-name="nacute" unicode="&#x144;" horiz-adv-x="558" 
d="M464 700l-116 -130h-66l100 130h82zM345 512c122 0 186 -81 165 -205l-54 -307h-66l54 307c15 89 -20 141 -111 141c-86 0 -168 -49 -193 -176l-48 -272h-66l88 500h66l-12 -70c49 59 111 82 177 82z" />
    <glyph glyph-name="ncaron" unicode="&#x148;" horiz-adv-x="558" 
d="M293 570l-84 130h71l55 -86l85 86h79l-128 -130h-78zM345 512c122 0 186 -81 165 -205l-54 -307h-66l54 307c15 89 -20 141 -111 141c-86 0 -168 -49 -193 -176l-48 -272h-66l88 500h66l-12 -70c49 59 111 82 177 82z" />
    <glyph glyph-name="ncommaaccent" unicode="&#x146;" horiz-adv-x="558" 
d="M345 512c122 0 186 -81 165 -205l-54 -307h-66l54 307c15 89 -20 141 -111 141c-86 0 -168 -49 -193 -176l-48 -272h-66l88 500h66l-12 -70c49 59 111 82 177 82zM170 -240l40 170h66l-60 -170h-46z" />
    <glyph glyph-name="eng" unicode="&#x14b;" horiz-adv-x="558" 
d="M345 512c122 0 186 -81 165 -205l-61 -347c-21 -120 -97 -182 -210 -172l11 64c75 -8 118 22 133 108l61 347c15 89 -20 141 -111 141c-86 0 -168 -49 -193 -176l-48 -272h-66l88 500h66l-12 -70c49 59 111 82 177 82z" />
    <glyph glyph-name="ntilde" unicode="&#xf1;" horiz-adv-x="558" 
d="M337 603c-46 40 -72 56 -86 -23h-58c20 125 97 139 157 87c46 -40 71 -56 85 23h58c-20 -125 -96 -139 -156 -87zM345 512c122 0 186 -81 165 -205l-54 -307h-66l54 307c15 89 -20 141 -111 141c-86 0 -168 -49 -193 -176l-48 -272h-66l88 500h66l-12 -70
c49 59 111 82 177 82z" />
    <glyph glyph-name="o" unicode="o" horiz-adv-x="607" 
d="M263 -12c-131 0 -252 96 -222 267c30 172 180 257 310 257c129 0 244 -99 215 -266c-30 -175 -173 -258 -303 -258zM269 52c99 0 209 67 232 201c23 128 -64 195 -162 195c-98 -1 -208 -67 -232 -198c-22 -132 64 -199 162 -198z" />
    <glyph glyph-name="oacute" unicode="&#xf3;" horiz-adv-x="607" 
d="M311 570h66l116 130h-82zM263 -12c-131 0 -252 96 -222 267c30 172 180 257 310 257c129 0 244 -99 215 -266c-30 -175 -173 -258 -303 -258zM269 52c99 0 209 67 232 201c23 128 -64 195 -162 195c-98 -1 -208 -67 -232 -198c-22 -132 64 -199 162 -198z" />
    <glyph glyph-name="ocircumflex" unicode="&#xf4;" horiz-adv-x="607" 
d="M379 657l-85 -87h-78l128 130h78l84 -130h-72zM351 512c129 0 244 -99 215 -266c-30 -175 -173 -258 -303 -258c-131 0 -252 96 -222 267c30 172 180 257 310 257zM501 253c23 128 -64 195 -162 195c-98 -1 -208 -67 -232 -198c-22 -132 64 -199 162 -198
c99 0 209 67 232 201z" />
    <glyph glyph-name="odieresis" unicode="&#xf6;" horiz-adv-x="607" 
d="M266 575c-25 0 -42 20 -37 45c4 25 28 45 53 45s41 -20 37 -45c-5 -25 -28 -45 -53 -45zM456 575c-25 0 -42 20 -37 45c4 25 28 45 53 45s41 -20 37 -45c-5 -25 -28 -45 -53 -45zM263 -12c-131 0 -252 96 -222 267c30 172 180 257 310 257c129 0 244 -99 215 -266
c-30 -175 -173 -258 -303 -258zM269 52c99 0 209 67 232 201c23 128 -64 195 -162 195c-98 -1 -208 -67 -232 -198c-22 -132 64 -199 162 -198z" />
    <glyph glyph-name="ograve" unicode="&#xf2;" horiz-adv-x="607" 
d="M401 570l-58 130h-80l74 -130h64zM263 -12c-131 0 -252 96 -222 267c30 172 180 257 310 257c129 0 244 -99 215 -266c-30 -175 -173 -258 -303 -258zM269 52c99 0 209 67 232 201c23 128 -64 195 -162 195c-98 -1 -208 -67 -232 -198c-22 -132 64 -199 162 -198z" />
    <glyph glyph-name="ohungarumlaut" unicode="&#x151;" horiz-adv-x="607" 
d="M231 570h70l96 130h-76zM374 570h70l106 130h-76zM263 -12c-131 0 -252 96 -222 267c30 172 180 257 310 257c129 0 244 -99 215 -266c-30 -175 -173 -258 -303 -258zM269 52c99 0 209 67 232 201c23 128 -64 195 -162 195c-98 -1 -208 -67 -232 -198
c-22 -132 64 -199 162 -198z" />
    <glyph glyph-name="omacron" unicode="&#x14d;" horiz-adv-x="607" 
d="M232 580l10 58h260l-10 -58h-260zM263 -12c-131 0 -252 96 -222 267c30 172 180 257 310 257c129 0 244 -99 215 -266c-30 -175 -173 -258 -303 -258zM269 52c99 0 209 67 232 201c23 128 -64 195 -162 195c-98 -1 -208 -67 -232 -198c-22 -132 64 -199 162 -198z" />
    <glyph glyph-name="oslash" unicode="&#xf8;" horiz-adv-x="607" 
d="M583 480l-55 -51c35 -45 51 -107 38 -183c-30 -175 -173 -258 -303 -258c-55 0 -109 17 -150 50l-46 -43l-40 25l53 50c-35 45 -53 107 -39 185c30 172 180 257 310 257c54 0 106 -18 146 -50l46 43zM107 250c-9 -56 1 -101 23 -133l317 298c-30 22 -68 33 -108 33
c-98 -1 -208 -67 -232 -198zM501 253c10 54 0 97 -22 129l-317 -298c29 -22 67 -32 107 -32c99 0 209 67 232 201z" />
    <glyph glyph-name="otilde" unicode="&#xf5;" horiz-adv-x="607" 
d="M222 580c20 125 97 139 157 87c46 -40 71 -56 85 23h58c-20 -125 -96 -139 -156 -87c-46 40 -72 56 -86 -23h-58zM263 -12c-131 0 -252 96 -222 267c30 172 180 257 310 257c129 0 244 -99 215 -266c-30 -175 -173 -258 -303 -258zM269 52c99 0 209 67 232 201
c23 128 -64 195 -162 195c-98 -1 -208 -67 -232 -198c-22 -132 64 -199 162 -198z" />
    <glyph glyph-name="oe" unicode="&#x153;" horiz-adv-x="1044" 
d="M804 512c144 0 233 -124 205 -264c-1 -5 -5 -22 -8 -31h-437c-4 -101 62 -165 167 -165c76 0 139 33 177 86l52 -34c-50 -75 -147 -116 -233 -116c-108 0 -183 58 -210 145c-53 -88 -147 -145 -259 -145c-148 0 -243 119 -217 267s153 257 309 257c98 0 174 -58 202 -144
c52 88 146 144 252 144zM501 250c20 111 -51 198 -162 198c-117 0 -212 -87 -232 -198c-19 -111 45 -198 162 -198c111 0 213 87 232 198zM574 281h372c9 113 -58 167 -151 167c-106 0 -191 -66 -221 -167z" />
    <glyph glyph-name="p" unicode="p" horiz-adv-x="638" 
d="M382 512c139 0 240 -124 214 -272c-30 -169 -163 -252 -286 -252c-84 0 -163 40 -199 118l-54 -306h-66l123 700h66l-15 -85c51 61 127 97 217 97zM530 245c19 111 -51 203 -164 203c-109 0 -205 -78 -228 -185l-2 -16c-19 -128 70 -195 169 -195c96 0 203 64 225 193z
" />
    <glyph glyph-name="thorn" unicode="&#xfe;" horiz-adv-x="638" 
d="M382 512c139 0 240 -124 214 -272c-30 -169 -163 -252 -286 -252c-84 0 -164 40 -199 118l-54 -306h-66l158 900h66l-50 -286c51 61 127 98 217 98zM530 245c19 111 -51 203 -164 203c-110 0 -207 -79 -228 -188l-2 -10c-20 -130 70 -198 169 -198c96 0 203 64 225 193z
" />
    <glyph glyph-name="q" unicode="q" horiz-adv-x="638" 
d="M546 500h66l-123 -700h-66l50 286c-51 -61 -127 -98 -217 -98c-139 0 -240 124 -214 272c30 169 163 252 286 252c84 0 164 -40 199 -118zM272 52c108 0 204 76 227 182l4 19c17 127 -72 195 -170 195c-96 0 -202 -64 -225 -193c-19 -111 51 -203 164 -203z" />
    <glyph glyph-name="r" unicode="r" horiz-adv-x="315" 
d="M168 430c50 63 110 82 172 78l-12 -64c-80 0 -165 -42 -187 -166l-49 -278h-66l88 500h66z" />
    <glyph glyph-name="racute" unicode="&#x155;" horiz-adv-x="315" 
d="M371 700l-116 -130h-66l100 130h82zM168 430c50 63 110 82 172 78l-12 -64c-80 0 -165 -42 -187 -166l-49 -278h-66l88 500h66z" />
    <glyph glyph-name="rcaron" unicode="&#x159;" horiz-adv-x="315" 
d="M200 570l-84 130h71l55 -86l85 86h79l-128 -130h-78zM168 430c50 63 110 82 172 78l-12 -64c-80 0 -165 -42 -187 -166l-49 -278h-66l88 500h66z" />
    <glyph glyph-name="rcommaaccent" unicode="&#x157;" horiz-adv-x="315" 
d="M168 430c50 63 110 82 172 78l-12 -64c-80 0 -165 -42 -187 -166l-49 -278h-66l88 500h66zM-25 -240l40 170h66l-60 -170h-46z" />
    <glyph glyph-name="s" unicode="s" horiz-adv-x="475" 
d="M205 -12c-102 0 -161 52 -180 119l59 31c10 -50 56 -86 126 -86c66 0 117 28 126 79c22 122 -281 63 -248 248c13 73 86 133 183 133c83 0 141 -37 169 -102l-58 -31c-15 50 -65 69 -113 69c-46 0 -105 -22 -115 -78c-22 -120 280 -63 248 -248
c-15 -84 -90 -134 -197 -134z" />
    <glyph glyph-name="sacute" unicode="&#x15b;" horiz-adv-x="475" 
d="M245 570h66l116 130h-82zM205 -12c-102 0 -161 52 -180 119l59 31c10 -50 56 -86 126 -86c66 0 117 28 126 79c22 122 -281 63 -248 248c13 73 86 133 183 133c83 0 141 -37 169 -102l-58 -31c-15 50 -65 69 -113 69c-46 0 -105 -22 -115 -78c-22 -120 280 -63 248 -248
c-15 -84 -90 -134 -197 -134z" />
    <glyph glyph-name="scaron" unicode="&#x161;" horiz-adv-x="475" 
d="M256 570l-84 130h71l55 -86l85 86h79l-128 -130h-78zM269 448c-46 0 -105 -22 -115 -78c-22 -120 280 -63 248 -248c-15 -84 -90 -134 -197 -134c-102 0 -161 52 -180 119l59 31c10 -50 56 -86 126 -86c66 0 117 28 126 79c22 122 -281 63 -248 248c13 73 86 133 183 133
c83 0 141 -37 169 -102l-58 -31c-15 50 -65 69 -113 69z" />
    <glyph glyph-name="scedilla" unicode="&#x15f;" horiz-adv-x="475" 
d="M154 370c-22 -120 280 -63 248 -248c-14 -80 -83 -129 -181 -134l-6 -33c53 -10 85 -45 78 -86c-9 -50 -50 -97 -220 -85l10 54c96 -8 147 7 152 36c5 28 -30 42 -86 41l13 76c-76 13 -121 59 -137 116l59 31c10 -50 56 -86 126 -86c66 0 117 28 126 79
c22 122 -281 63 -248 248c13 73 86 133 183 133c83 0 141 -37 169 -102l-58 -31c-15 50 -65 69 -113 69c-46 0 -105 -22 -115 -78z" />
    <glyph glyph-name="scommaaccent" unicode="&#x219;" horiz-adv-x="475" 
d="M205 -12c-102 0 -161 52 -180 119l59 31c10 -50 56 -86 126 -86c66 0 117 28 126 79c22 122 -281 63 -248 248c13 73 86 133 183 133c83 0 141 -37 169 -102l-58 -31c-15 50 -65 69 -113 69c-46 0 -105 -22 -115 -78c-22 -120 280 -63 248 -248
c-15 -84 -90 -134 -197 -134zM173 -240l60 170h-66l-40 -170h46z" />
    <glyph glyph-name="germandbls" unicode="&#xdf;" horiz-adv-x="516" 
d="M244 -3l11 60c84 -5 144 18 156 84c18 97 -116 166 -100 253c10 61 106 93 119 167c10 56 -32 87 -95 87c-53 0 -134 -29 -153 -138l-90 -510h-66l91 515c24 138 121 197 226 197c107 0 170 -70 153 -156s-110 -127 -118 -169c-11 -61 119 -131 98 -252
c-16 -92 -90 -147 -232 -138z" />
    <glyph glyph-name="t" unicode="t" horiz-adv-x="376" 
d="M224 436l-53 -303c-15 -86 38 -80 131 -75l-10 -58c-131 -20 -208 13 -187 133l54 303h-106l12 64h105l21 120l69 20l-25 -140h145l-12 -64h-144z" />
    <glyph glyph-name="tbar" unicode="&#x167;" horiz-adv-x="376" 
d="M368 436h-144l-26 -149h97l-9 -54h-97l-18 -100c-15 -86 38 -80 131 -75l-10 -58c-131 -20 -208 13 -187 133l18 100h-67l9 54h67l27 149h-106l12 64h105l21 120l69 20l-25 -140h145z" />
    <glyph glyph-name="tcaron" unicode="&#x165;" horiz-adv-x="376" 
d="M405 715l-59 -160h-46l39 160h66zM260 640l-25 -140h145l-12 -64h-144l-53 -303c-15 -86 38 -80 131 -75l-10 -58c-131 -20 -208 13 -187 133l54 303h-106l12 64h105l21 120z" />
    <glyph glyph-name="uni0163" unicode="&#x163;" horiz-adv-x="376" 
d="M224 436l-53 -303c-15 -86 38 -80 131 -75l-10 -58c-131 -20 -208 13 -187 133l54 303h-106l12 64h105l21 120l69 20l-25 -140h145l-12 -64h-144zM109 -240l40 170h66l-60 -170h-46z" />
    <glyph glyph-name="uni021B" unicode="&#x21b;" horiz-adv-x="376" 
d="M224 436l-53 -303c-15 -86 38 -80 131 -75l-10 -58c-131 -20 -208 13 -187 133l54 303h-106l12 64h105l21 120l69 20l-25 -140h145l-12 -64h-144zM109 -240l40 170h66l-60 -170h-46z" />
    <glyph glyph-name="u" unicode="u" horiz-adv-x="558" 
d="M466 500h66l-88 -500h-66l12 70c-49 -59 -111 -82 -177 -82c-122 0 -186 81 -165 205l54 307h66l-54 -307c-15 -89 20 -141 111 -141c86 0 168 49 193 176z" />
    <glyph glyph-name="uacute" unicode="&#xfa;" horiz-adv-x="558" 
d="M459 700l-116 -130h-66l100 130h82zM466 500h66l-88 -500h-66l12 70c-49 -59 -111 -82 -177 -82c-122 0 -186 81 -165 205l54 307h66l-54 -307c-15 -89 20 -141 111 -141c86 0 168 49 193 176z" />
    <glyph glyph-name="ucircumflex" unicode="&#xfb;" horiz-adv-x="558" 
d="M345 657l-85 -87h-78l128 130h78l84 -130h-72zM466 500h66l-88 -500h-66l12 70c-49 -59 -111 -82 -177 -82c-122 0 -186 81 -165 205l54 307h66l-54 -307c-15 -89 20 -141 111 -141c86 0 168 49 193 176z" />
    <glyph glyph-name="udieresis" unicode="&#xfc;" horiz-adv-x="558" 
d="M232 575c-25 0 -42 20 -37 45c4 25 28 45 53 45s41 -20 37 -45c-5 -25 -28 -45 -53 -45zM422 575c-25 0 -42 20 -37 45c4 25 28 45 53 45s41 -20 37 -45c-5 -25 -28 -45 -53 -45zM466 500h66l-88 -500h-66l12 70c-49 -59 -111 -82 -177 -82c-122 0 -186 81 -165 205
l54 307h66l-54 -307c-15 -89 20 -141 111 -141c86 0 168 49 193 176z" />
    <glyph glyph-name="ugrave" unicode="&#xf9;" horiz-adv-x="558" 
d="M367 570h-64l-74 130h80zM466 500h66l-88 -500h-66l12 70c-49 -59 -111 -82 -177 -82c-122 0 -186 81 -165 205l54 307h66l-54 -307c-15 -89 20 -141 111 -141c86 0 168 49 193 176z" />
    <glyph glyph-name="uhungarumlaut" unicode="&#x171;" horiz-adv-x="558" 
d="M363 700l-96 -130h-70l90 130h76zM410 570h-70l100 130h76zM466 500h66l-88 -500h-66l12 70c-49 -59 -111 -82 -177 -82c-122 0 -186 81 -165 205l54 307h66l-54 -307c-15 -89 20 -141 111 -141c86 0 168 49 193 176z" />
    <glyph glyph-name="umacron" unicode="&#x16b;" horiz-adv-x="558" 
d="M468 638l-10 -58h-260l10 58h260zM466 500h66l-88 -500h-66l12 70c-49 -59 -111 -82 -177 -82c-122 0 -186 81 -165 205l54 307h66l-54 -307c-15 -89 20 -141 111 -141c86 0 168 49 193 176z" />
    <glyph glyph-name="uogonek" unicode="&#x173;" horiz-adv-x="559" 
d="M444 0c-53 -42 -93 -91 -98 -124c-3 -22 8 -31 29 -31c15 0 28 3 43 9l-9 -55c-19 -7 -38 -11 -61 -11c-54 0 -77 37 -69 81c7 39 39 82 101 142l10 59c-49 -59 -111 -82 -177 -82c-122 0 -186 81 -165 205l54 307h66l-54 -307c-15 -89 20 -141 111 -141
c86 0 168 49 193 176l48 272h66z" />
    <glyph glyph-name="uring" unicode="&#x16f;" horiz-adv-x="558" 
d="M326 550c-67 0 -100 48 -91 103c9 57 60 97 121 97c68 0 99 -50 91 -103c-9 -57 -59 -97 -121 -97zM290 650c-5 -28 10 -49 42 -49s56 21 61 49c5 30 -13 49 -43 49c-29 0 -54 -18 -60 -49zM466 500h66l-88 -500h-66l12 70c-49 -59 -111 -82 -177 -82
c-122 0 -186 81 -165 205l54 307h66l-54 -307c-15 -89 20 -141 111 -141c86 0 168 49 193 176z" />
    <glyph glyph-name="v" unicode="v" horiz-adv-x="470" 
d="M430 500h74l-273 -500h-80l-97 500h67l79 -428z" />
    <glyph glyph-name="w" unicode="w" horiz-adv-x="770" 
d="M713 500h71l-242 -500h-72l-58 403l-200 -403h-72l-66 500h65l50 -415l204 415h67l-1 -2l58 -413z" />
    <glyph glyph-name="wacute" unicode="&#x1e83;" horiz-adv-x="770" 
d="M574 700l-116 -130h-66l100 130h82zM713 500h71l-242 -500h-72l-58 403l-200 -403h-72l-66 500h65l50 -415l204 415h67l-1 -2l58 -413z" />
    <glyph glyph-name="wcircumflex" unicode="&#x175;" horiz-adv-x="770" 
d="M460 657l-85 -87h-78l128 130h78l84 -130h-72zM713 500h71l-242 -500h-72l-58 403l-200 -403h-72l-66 500h65l50 -415l204 415h67l-1 -2l58 -413z" />
    <glyph glyph-name="wdieresis" unicode="&#x1e85;" horiz-adv-x="770" 
d="M347 575c-25 0 -42 20 -37 45c4 25 28 45 53 45s41 -20 37 -45c-5 -25 -28 -45 -53 -45zM537 575c-25 0 -42 20 -37 45c4 25 28 45 53 45s41 -20 37 -45c-5 -25 -28 -45 -53 -45zM713 500h71l-242 -500h-72l-58 403l-200 -403h-72l-66 500h65l50 -415l204 415h67l-1 -2
l58 -413z" />
    <glyph glyph-name="wgrave" unicode="&#x1e81;" horiz-adv-x="770" 
d="M482 570h-64l-74 130h80zM713 500h71l-242 -500h-72l-58 403l-200 -403h-72l-66 500h65l50 -415l204 415h67l-1 -2l58 -413z" />
    <glyph glyph-name="x" unicode="x" horiz-adv-x="510" 
d="M521 500l-225 -245l150 -255h-74l-122 206l-189 -206h-85l241 262l-140 238h74l111 -189l174 189h85z" />
    <glyph glyph-name="y" unicode="y" horiz-adv-x="510" 
d="M470 500h74l-310 -546c-59 -104 -140 -161 -229 -154l11 62c63 -7 110 36 151 104l21 35l-134 499h67l111 -425z" />
    <glyph glyph-name="yacute" unicode="&#xfd;" horiz-adv-x="510" 
d="M427 700l-116 -130h-66l100 130h82zM470 500h74l-310 -546c-59 -104 -140 -161 -229 -154l11 62c63 -7 110 36 151 104l21 35l-134 499h67l111 -425z" />
    <glyph glyph-name="ycircumflex" unicode="&#x177;" horiz-adv-x="510" 
d="M313 657l-85 -87h-78l128 130h78l84 -130h-72zM470 500h74l-310 -546c-59 -104 -140 -161 -229 -154l11 62c63 -7 110 36 151 104l21 35l-134 499h67l111 -425z" />
    <glyph glyph-name="ydieresis" unicode="&#xff;" horiz-adv-x="510" 
d="M200 575c-25 0 -42 20 -37 45c4 25 28 45 53 45s41 -20 37 -45c-5 -25 -28 -45 -53 -45zM390 575c-25 0 -42 20 -37 45c4 25 28 45 53 45s41 -20 37 -45c-5 -25 -28 -45 -53 -45zM470 500h74l-310 -546c-59 -104 -140 -161 -229 -154l11 62c63 -7 110 36 151 104l21 35
l-134 499h67l111 -425z" />
    <glyph glyph-name="ygrave" unicode="&#x1ef3;" horiz-adv-x="510" 
d="M335 570h-64l-74 130h80zM470 500h74l-310 -546c-59 -104 -140 -161 -229 -154l11 62c63 -7 110 36 151 104l21 35l-134 499h67l111 -425z" />
    <glyph glyph-name="z" unicode="z" horiz-adv-x="450" 
d="M454 500l-8 -44l-344 -392h285l-11 -64h-380l8 44l344 392h-265l11 64h360z" />
    <glyph glyph-name="zacute" unicode="&#x17a;" horiz-adv-x="450" 
d="M421 700l-116 -130h-66l100 130h82zM454 500l-8 -44l-344 -392h285l-11 -64h-380l8 44l344 392h-265l11 64h360z" />
    <glyph glyph-name="zcaron" unicode="&#x17e;" horiz-adv-x="450" 
d="M250 570l-84 130h71l55 -86l85 86h79l-128 -130h-78zM83 436l11 64h360l-8 -44l-344 -392h285l-11 -64h-380l8 44l344 392h-265z" />
    <glyph glyph-name="zdotaccent" unicode="&#x17c;" horiz-adv-x="450" 
d="M288 570c-31 0 -51 24 -45 55c5 31 33 55 64 55s51 -24 46 -55c-6 -31 -34 -55 -65 -55zM454 500l-8 -44l-344 -392h285l-11 -64h-380l8 44l344 392h-265l11 64h360z" />
    <glyph glyph-name="f_f_j" horiz-adv-x="786" 
d="M760 500l-95 -540c-21 -120 -97 -182 -210 -172l11 64c75 -8 118 22 133 108l84 476h-204l-77 -436h-66l77 436h-204l-77 -436h-66l77 436h-85l11 64h85l4 20c23 135 110 202 244 192l-12 -64c-95 8 -149 -32 -166 -128l-4 -20h204l5 30c23 135 109 192 244 192
c30 0 60 -4 94 -12l-10 -60c-34 6 -64 8 -95 8c-97 0 -150 -32 -167 -128l-5 -30h270z" />
    <glyph glyph-name="f_j" horiz-adv-x="516" 
d="M490 500l-95 -540c-21 -120 -97 -182 -210 -172l11 64c75 -8 118 22 133 108l84 476h-204l-77 -436h-66l77 436h-85l11 64h85l4 20c23 135 109 192 244 192c30 0 59 -4 93 -12l-10 -60c-34 6 -64 8 -95 8c-97 0 -149 -32 -166 -128l-4 -20h270z" />
    <glyph glyph-name="uni0410" unicode="&#x410;" horiz-adv-x="630" 
d="M504 0l-34 172h-332l-96 -172h-76l392 700h72l146 -700h-72zM174 238h283l-74 375z" />
    <glyph glyph-name="uni0411" unicode="&#x411;" horiz-adv-x="587" 
d="M558 634h-341l-37 -214h190c111 0 194 -104 173 -220c-20 -115 -126 -200 -247 -200h-260l123 700h410zM358 354h-190l-50 -288h190c79 0 153 65 167 144c16 86 -40 144 -117 144z" />
    <glyph glyph-name="uni0412" unicode="&#x412;" horiz-adv-x="620" 
d="M595 507c-10 -64 -51 -116 -107 -146c59 -30 93 -94 81 -171c-16 -103 -108 -190 -228 -190h-305l123 700h267c110 0 185 -88 169 -193zM526 512c12 67 -32 122 -102 122h-207l-42 -244h211c65 0 128 54 140 122zM500 195c12 71 -33 129 -102 129h-235l-45 -258h229
c75 0 141 59 153 129z" />
    <glyph glyph-name="uni0413" unicode="&#x413;" horiz-adv-x="490" 
d="M549 700l-11 -66h-321l-111 -634h-70l123 700h390z" />
    <glyph glyph-name="uni0403" unicode="&#x403;" horiz-adv-x="490" 
d="M500 899l-116 -130h-66l100 130h82zM549 700l-11 -66h-321l-111 -634h-70l123 700h390z" />
    <glyph glyph-name="uni0490" unicode="&#x490;" horiz-adv-x="490" 
d="M501 820h70l-33 -186h-321l-111 -634h-70l123 700h321z" />
    <glyph glyph-name="uni0414" unicode="&#x414;" horiz-adv-x="690" 
d="M548 66h75l-35 -200h-70l23 134h-500l-23 -134h-70l35 200h56c48 46 90 114 114 250l67 384h439zM126 66h352l100 568h-299l-57 -320c-23 -130 -60 -203 -96 -248z" />
    <glyph glyph-name="uni0415" unicode="&#x415;" horiz-adv-x="530" 
d="M553 634h-336l-43 -248h310l-12 -66h-310l-44 -254h340l-12 -66h-410l123 700h405z" />
    <glyph glyph-name="uni0401" unicode="&#x401;" horiz-adv-x="530" 
d="M280 775c-25 0 -42 20 -37 45c4 25 28 45 53 45s41 -20 37 -45c-5 -25 -28 -45 -53 -45zM470 775c-25 0 -42 20 -37 45c4 25 28 45 53 45s41 -20 37 -45c-5 -25 -28 -45 -53 -45zM553 634h-336l-43 -248h310l-12 -66h-310l-44 -254h340l-12 -66h-410l123 700h405z" />
    <glyph glyph-name="uni0416" unicode="&#x416;" horiz-adv-x="850" 
d="M899 700l-354 -347l241 -353h-74l-236 342l-60 -342h-70l60 342l-341 -342h-89l367 367l-234 333h74l229 -323l57 323h70l-57 -322l330 322h87z" />
    <glyph glyph-name="uni0417" unicode="&#x417;" horiz-adv-x="567" 
d="M547 513c-12 -70 -56 -123 -123 -153c70 -31 105 -96 91 -176c-20 -114 -109 -196 -274 -196c-136 0 -198 78 -219 158l63 32c17 -63 49 -124 168 -124c112 0 179 61 193 139c13 77 -33 131 -133 131h-80l11 66h55c96 0 166 58 179 133c13 72 -38 123 -130 123
s-150 -55 -185 -113l-56 37c46 77 127 142 253 142c131 0 206 -90 187 -199z" />
    <glyph glyph-name="uni0418" unicode="&#x418;" horiz-adv-x="680" 
d="M36 0l123 700h70l-100 -564l490 564h60l-123 -700h-70l99 564l-489 -564h-60z" />
    <glyph glyph-name="uni0419" unicode="&#x419;" horiz-adv-x="680" 
d="M303 780l10 58h260l-10 -58h-260zM36 0l123 700h70l-100 -564l490 564h60l-123 -700h-70l99 564l-489 -564h-60z" />
    <glyph glyph-name="uni041A" unicode="&#x41a;" horiz-adv-x="578" 
d="M641 700l-397 -345l280 -355h-83l-274 346l-61 -346h-70l123 700h70l-56 -322l374 322h94z" />
    <glyph glyph-name="uni040C" unicode="&#x40c;" horiz-adv-x="578" 
d="M510 899l-116 -130h-66l100 130h82zM641 700l-397 -345l280 -355h-83l-274 346l-61 -346h-70l123 700h70l-56 -322l374 322h94z" />
    <glyph glyph-name="uni041B" unicode="&#x41b;" horiz-adv-x="695" 
d="M-29 -1l11 62c90 -12 153 43 190 250l68 389h454l-123 -700h-70l112 634h-314l-58 -325c-48 -270 -143 -321 -270 -310z" />
    <glyph glyph-name="uni041C" unicode="&#x41c;" horiz-adv-x="800" 
d="M799 700l-123 -700h-70l103 589l-312 -405h-10l-176 416l-105 -600h-70l123 700h82l166 -394l304 394h88z" />
    <glyph glyph-name="uni041D" unicode="&#x41d;" horiz-adv-x="680" 
d="M609 700h70l-123 -700h-70l57 327h-380l-57 -327h-70l123 700h70l-54 -307h380z" />
    <glyph glyph-name="uni041E" unicode="&#x41e;" horiz-adv-x="808" 
d="M360 -12c-202 0 -337 172 -301 372c35 200 212 352 421 352c204 0 338 -177 303 -377c-36 -200 -212 -347 -423 -347zM372 56c173 0 312 126 341 289c28 163 -74 299 -245 299s-311 -131 -339 -294c-29 -163 74 -294 243 -294z" />
    <glyph glyph-name="uni041F" unicode="&#x41f;" horiz-adv-x="660" 
d="M659 700l-123 -700h-70l111 634h-360l-111 -634h-70l123 700h500z" />
    <glyph glyph-name="uni0420" unicode="&#x420;" horiz-adv-x="589" 
d="M404 700c134 0 207 -96 186 -220c-20 -121 -120 -220 -279 -220h-159l-46 -260h-70l123 700h245zM522 490c15 88 -35 144 -125 144h-180l-54 -308h156c114 0 188 73 203 164z" />
    <glyph glyph-name="uni0421" unicode="&#x421;" horiz-adv-x="745" 
d="M360 -12c-216 0 -336 174 -301 372c36 203 215 352 412 352c139 0 239 -69 287 -174l-62 -33c-36 79 -103 139 -226 139c-174 0 -315 -131 -343 -294c-28 -166 71 -294 241 -294c109 0 207 54 267 143l59 -37c-74 -105 -198 -174 -334 -174z" />
    <glyph glyph-name="uni0422" unicode="&#x422;" horiz-adv-x="540" 
d="M599 700l-11 -66h-216l-111 -634h-70l111 634h-214l11 66h500z" />
    <glyph glyph-name="uni0423" unicode="&#x423;" 
d="M567 700h72l-319 -547c-67 -116 -142 -160 -250 -153l11 62c74 -6 124 22 168 97l21 35l-161 506h68l137 -431z" />
    <glyph glyph-name="uni040E" unicode="&#x40e;" 
d="M525 837l-10 -58h-260l10 58h260zM567 700h72l-319 -547c-67 -116 -142 -160 -250 -153l11 62c74 -6 124 22 168 97l21 35l-161 506h68l137 -431z" />
    <glyph glyph-name="uni0424" unicode="&#x424;" horiz-adv-x="806" 
d="M503 621c185 -12 321 -108 290 -276c-30 -168 -185 -258 -385 -266l-14 -79h-70l14 79c-187 12 -319 108 -289 276c29 167 185 258 384 266l14 79h70zM119 350c-24 -133 74 -199 230 -207l73 414c-159 -8 -280 -74 -303 -207zM723 350c23 133 -75 199 -231 207l-73 -414
c159 8 280 74 304 207z" />
    <glyph glyph-name="uni0425" unicode="&#x425;" horiz-adv-x="580" 
d="M624 700l-277 -342l169 -358h-72l-142 302l-244 -302h-82l296 366l-158 334h72l131 -278l225 278h82z" />
    <glyph glyph-name="uni0427" unicode="&#x427;" horiz-adv-x="625" 
d="M554 700h70l-123 -700h-70l50 282c-61 -23 -122 -32 -174 -32c-161 0 -227 88 -207 200l44 250h70l-44 -250c-14 -81 23 -134 147 -134c63 0 122 14 176 35z" />
    <glyph glyph-name="uni0426" unicode="&#x426;" horiz-adv-x="690" 
d="M548 66h75l-35 -200h-70l23 134h-505l123 700h70l-111 -634h360l111 634h70z" />
    <glyph glyph-name="uni0428" unicode="&#x428;" horiz-adv-x="950" 
d="M879 700h70l-123 -700h-790l123 700h70l-111 -634h290l111 634h70l-111 -634h290z" />
    <glyph glyph-name="uni0429" unicode="&#x429;" horiz-adv-x="980" 
d="M838 66h74l-35 -200h-70l24 134h-795l123 700h70l-111 -634h290l111 634h70l-111 -634h290l111 634h70z" />
    <glyph glyph-name="uni040F" unicode="&#x40f;" horiz-adv-x="660" 
d="M589 700h70l-123 -700h-215l-24 -134h-70l24 134h-215l123 700h70l-111 -634h360z" />
    <glyph glyph-name="uni042C" unicode="&#x42c;" horiz-adv-x="591" 
d="M358 440c121 0 208 -105 186 -230c-22 -126 -126 -210 -258 -210h-250l123 700h70l-46 -260h175zM474 220c16 89 -35 154 -127 154h-175l-54 -308h179c87 0 161 64 177 154z" />
    <glyph glyph-name="uni042A" unicode="&#x42a;" horiz-adv-x="701" 
d="M146 0l111 634h-189l11 66h260l-46 -260h175c121 0 208 -105 186 -230c-22 -126 -126 -210 -258 -210h-250zM228 66h179c87 0 161 64 177 154c16 89 -35 154 -127 154h-175z" />
    <glyph glyph-name="uni042B" unicode="&#x42b;" horiz-adv-x="775" 
d="M36 0l123 700h70l-46 -260h175c121 0 208 -105 186 -230c-22 -126 -126 -210 -258 -210h-250zM581 0l123 700h70l-123 -700h-70zM118 66h179c87 0 161 64 177 154c16 89 -35 154 -127 154h-175z" />
    <glyph glyph-name="uni0409" unicode="&#x409;" horiz-adv-x="996" 
d="M772 400c114 0 194 -91 174 -206c-20 -116 -127 -194 -245 -194h-230l112 634h-284l-58 -325c-47 -266 -139 -321 -270 -310l11 62c90 -12 153 43 190 250l68 389h424l-53 -300h161zM876 202c14 79 -39 132 -116 132h-160l-47 -268h160c77 0 149 56 163 136z" />
    <glyph glyph-name="uni040A" unicode="&#x40a;" horiz-adv-x="981" 
d="M757 400c114 0 194 -91 174 -206c-20 -116 -127 -194 -245 -194h-230l59 334h-350l-59 -334h-70l123 700h70l-53 -300h350l53 300h70l-53 -300h161zM861 202c14 79 -39 132 -116 132h-160l-47 -268h160c77 0 149 56 163 136z" />
    <glyph glyph-name="uni0405" unicode="&#x405;" horiz-adv-x="584" 
d="M267 -12c-131 0 -217 64 -243 171l61 32c16 -81 75 -135 184 -135c99 0 170 44 186 116c20 91 -70 122 -155 151c-93 32 -209 83 -182 217c24 119 137 172 237 172c124 0 190 -71 217 -149l-62 -32c-20 61 -63 113 -159 113c-73 0 -147 -37 -163 -111
c-19 -90 66 -122 152 -152c82 -29 212 -75 184 -217c-24 -120 -134 -176 -257 -176z" />
    <glyph glyph-name="uni0404" unicode="&#x404;" horiz-adv-x="745" 
d="M470 644c-162 0 -296 -114 -336 -261h386l-12 -66h-385c-10 -150 86 -261 245 -261c109 0 207 54 267 143l59 -37c-74 -105 -198 -174 -334 -174c-216 0 -336 174 -301 372c36 203 215 352 412 352c139 0 239 -69 287 -174l-62 -33c-36 79 -103 139 -226 139z" />
    <glyph glyph-name="uni042D" unicode="&#x42d;" horiz-adv-x="739" 
d="M421 712c215 0 327 -174 294 -370c-32 -192 -193 -354 -412 -354c-143 0 -241 69 -282 176l64 34c31 -86 109 -142 223 -142c162 0 290 112 330 261h-384l12 66h383c13 151 -77 261 -236 261c-116 0 -213 -59 -269 -146l-59 37c71 105 198 177 336 177z" />
    <glyph glyph-name="uni0406" unicode="&#x406;" horiz-adv-x="230" 
d="M159 700h70l-123 -700h-70z" />
    <glyph glyph-name="uni0407" unicode="&#x407;" horiz-adv-x="230" 
d="M112 775c-25 0 -42 20 -37 45c4 25 28 45 53 45s41 -20 37 -45c-5 -25 -28 -45 -53 -45zM302 775c-25 0 -42 20 -37 45c4 25 28 45 53 45s41 -20 37 -45c-5 -25 -28 -45 -53 -45zM159 700h70l-123 -700h-70z" />
    <glyph glyph-name="uni0408" unicode="&#x408;" horiz-adv-x="553" 
d="M215 -12c-98 0 -171 41 -199 124l63 34c19 -64 70 -90 141 -90c90 0 165 41 183 142l88 502h70l-88 -504c-27 -153 -144 -208 -258 -208z" />
    <glyph glyph-name="uni040B" unicode="&#x40b;" horiz-adv-x="693" 
d="M474 472c109 0 186 -59 165 -190l-50 -282h-70l50 282c16 95 -27 126 -102 126c-51 0 -108 -14 -161 -38l-65 -370h-70l111 634h-194l11 66h490l-11 -66h-226l-34 -196c54 23 110 34 156 34z" />
    <glyph glyph-name="uni042E" unicode="&#x42e;" horiz-adv-x="1042" 
d="M714 712c204 0 338 -177 303 -377c-36 -200 -212 -347 -423 -347c-191 0 -317 153 -300 339h-131l-57 -327h-70l123 700h70l-54 -307h130c47 183 212 319 409 319zM947 345c28 163 -74 299 -245 299s-311 -131 -339 -294c-29 -163 74 -294 243 -294
c173 0 312 126 341 289z" />
    <glyph glyph-name="uni042F" unicode="&#x42f;" horiz-adv-x="620" 
d="M619 700l-123 -700h-70l49 280h-163l-241 -280h-85l246 285c-97 21 -158 112 -140 213c21 116 125 202 251 202h276zM287 346h200l50 288h-205c-81 0 -155 -61 -170 -141c-14 -79 36 -147 125 -147z" />
    <glyph glyph-name="uni0402" unicode="&#x402;" horiz-adv-x="688" 
d="M474 472c109 0 186 -59 165 -190l-21 -118c-21 -120 -87 -182 -210 -172l11 64c75 -8 114 22 129 108l21 118c16 95 -27 126 -102 126c-51 0 -108 -14 -161 -38l-65 -370h-70l111 634h-194l11 66h490l-11 -66h-226l-34 -196c54 23 110 34 156 34z" />
    <glyph glyph-name="uni0414.loclBGR" horiz-adv-x="700" 
d="M578 66h65l-36 -200h-70l24 134h-510l-24 -134h-70l36 200h64l336 634h72zM132 66h377l-91 547z" />
    <glyph glyph-name="uni041B.loclBGR" horiz-adv-x="608" 
d="M-34 0l381 700h72l135 -700h-70l-112 613l-330 -613h-76z" />
    <glyph glyph-name="uni0424.loclBGR" horiz-adv-x="847" 
d="M539 711c198 -15 321 -161 284 -369c-37 -209 -200 -340 -411 -353l-16 -89h-70l16 89c-198 16 -320 161 -283 369s199 340 410 353l16 89h70zM129 350c-31 -171 60 -283 224 -297l105 594c-171 -14 -299 -126 -329 -297zM753 350c30 171 -61 283 -225 297l-105 -594
c171 14 299 126 330 297z" />
    <glyph glyph-name="uni0414.ss01" horiz-adv-x="690" 
d="M659 700l-111 -634h75l-12 -66h-640l12 66h56c48 46 90 114 114 250l67 384h439zM126 66h352l100 568h-299l-57 -320c-23 -130 -60 -203 -96 -248z" />
    <glyph glyph-name="uni0426.ss01" horiz-adv-x="690" 
d="M548 66h75l-12 -66h-575l123 700h70l-111 -634h360l111 634h70z" />
    <glyph glyph-name="uni0429.ss01" horiz-adv-x="980" 
d="M838 66h75l-12 -66h-865l123 700h70l-111 -634h290l111 634h70l-111 -634h290l111 634h70z" />
    <glyph glyph-name="uni0414.loclBGR.ss01" horiz-adv-x="700" 
d="M578 66h65l-12 -66h-650l12 66h64l336 634h72zM132 66h377l-91 547z" />
    <glyph glyph-name="uni0430" unicode="&#x430;" horiz-adv-x="638" 
d="M546 500h66l-88 -500h-66l15 85c-51 -61 -127 -97 -217 -97c-139 0 -240 124 -214 272c30 169 163 252 286 252c84 0 163 -40 199 -118zM272 52c109 0 206 78 228 186l2 12c20 130 -70 198 -169 198c-96 0 -202 -64 -225 -193c-19 -111 51 -203 164 -203z" />
    <glyph glyph-name="uni0431" unicode="&#x431;" horiz-adv-x="568" 
d="M250 -12c-133 0 -238 103 -211 257c28 161 71 245 246 323c113 50 197 62 226 147l50 -30c-33 -100 -142 -128 -248 -171c-95 -38 -140 -73 -171 -137c61 61 137 78 198 78c121 0 216 -102 192 -238c-24 -135 -137 -229 -282 -229zM257 54c105 0 192 71 209 168
c17 98 -44 169 -144 169c-89 0 -199 -54 -217 -159c-18 -102 50 -178 152 -178z" />
    <glyph glyph-name="uni0432" unicode="&#x432;" horiz-adv-x="499" 
d="M465 360c-8 -47 -33 -84 -77 -105c49 -21 71 -67 61 -121c-13 -77 -72 -134 -180 -134h-243l88 500h223c90 0 142 -64 128 -140zM399 362c9 46 -17 74 -74 74h-156l-27 -152h151c58 0 98 28 106 78zM385 144c8 46 -19 76 -78 76h-176l-28 -156h177c56 0 96 30 105 80z
" />
    <glyph glyph-name="uni0433" unicode="&#x433;" horiz-adv-x="395" 
d="M434 500l-11 -64h-254l-77 -436h-66l88 500h320z" />
    <glyph glyph-name="uni0453" unicode="&#x453;" horiz-adv-x="395" 
d="M395 700l-116 -130h-66l100 130h82zM434 500l-11 -64h-254l-77 -436h-66l88 500h320z" />
    <glyph glyph-name="uni0491" unicode="&#x491;" horiz-adv-x="395" 
d="M386 604h66l-29 -168h-254l-77 -436h-66l88 500h254z" />
    <glyph glyph-name="uni0434" unicode="&#x434;" horiz-adv-x="590" 
d="M457 64h70l-35 -198h-66l24 134h-408l-24 -134h-66l35 198h61c40 42 67 91 85 189l43 247h358zM131 64h260l66 372h-226l-32 -183c-14 -83 -37 -141 -68 -189z" />
    <glyph glyph-name="uni0435" unicode="&#x435;" horiz-adv-x="584" 
d="M339 512c154 0 238 -124 210 -264c-1 -5 -5 -22 -8 -31h-437c-4 -101 62 -165 167 -165c76 0 139 33 177 86l52 -34c-50 -75 -147 -116 -238 -116c-155 0 -247 119 -220 272c26 147 152 252 297 252zM114 281h372c9 113 -58 167 -151 167c-106 0 -191 -66 -221 -167z" />
    <glyph glyph-name="uni0451" unicode="&#x451;" horiz-adv-x="584" 
d="M263 575c-25 0 -42 20 -37 45c4 25 28 45 53 45s41 -20 37 -45c-5 -25 -28 -45 -53 -45zM453 575c-25 0 -42 20 -37 45c4 25 28 45 53 45s41 -20 37 -45c-5 -25 -28 -45 -53 -45zM339 512c154 0 238 -124 210 -264c-1 -5 -5 -22 -8 -31h-437c-4 -101 62 -165 167 -165
c76 0 139 33 177 86l52 -34c-50 -75 -147 -116 -238 -116c-155 0 -247 119 -220 272c26 147 152 252 297 252zM114 281h372c9 113 -58 167 -151 167c-106 0 -191 -66 -221 -167z" />
    <glyph glyph-name="uni0436" unicode="&#x436;" horiz-adv-x="672" 
d="M686 500l-254 -246l176 -254h-72l-169 244l-43 -244h-66l43 243l-247 -243h-78l269 266l-173 234h75l160 -222l39 222h66l-40 -226l234 226h80z" />
    <glyph glyph-name="uni0437" unicode="&#x437;" horiz-adv-x="446" 
d="M411 359c-9 -49 -35 -86 -81 -106c48 -25 73 -73 64 -126c-14 -77 -83 -139 -209 -139c-115 0 -167 56 -180 120l58 31c9 -50 46 -87 130 -87c80 0 128 39 136 89c9 46 -23 79 -82 79h-73l12 64h53c58 0 97 31 106 81c8 46 -25 83 -97 83c-59 0 -107 -24 -136 -77l-52 34
c40 62 103 107 195 107c115 0 169 -77 156 -153z" />
    <glyph glyph-name="uni0438" unicode="&#x438;" horiz-adv-x="560" 
d="M478 500h56l-88 -500h-66l66 380l-364 -380h-56l88 500h66l-67 -380z" />
    <glyph glyph-name="uni0439" unicode="&#x439;" horiz-adv-x="560" 
d="M208 580l10 58h260l-10 -58h-260zM478 500h56l-88 -500h-66l66 380l-364 -380h-56l88 500h66l-67 -380z" />
    <glyph glyph-name="uni043A" unicode="&#x43a;" horiz-adv-x="494" 
d="M508 500l-302 -240l224 -260h-80l-214 249l-44 -249h-66l88 500h66l-38 -218l274 218h92z" />
    <glyph glyph-name="uni045C" unicode="&#x45c;" horiz-adv-x="494" 
d="M435 700l-116 -130h-66l100 130h82zM508 500l-302 -240l224 -260h-80l-214 249l-44 -249h-66l88 500h66l-38 -218l274 218h92z" />
    <glyph glyph-name="uni043B" unicode="&#x43b;" horiz-adv-x="550" 
d="M524 500l-88 -500h-66l77 436h-226l-39 -223c-33 -188 -115 -220 -216 -213l11 62c70 -7 116 24 139 151l50 287h358z" />
    <glyph glyph-name="uni043C" unicode="&#x43c;" horiz-adv-x="630" 
d="M604 500l-88 -500h-66l70 397l-224 -282h-8l-126 285l-70 -400h-66l88 500h72l120 -274l218 274h80z" />
    <glyph glyph-name="uni043D" unicode="&#x43d;" horiz-adv-x="560" 
d="M468 500h66l-88 -500h-66l38 218h-288l-38 -218h-66l88 500h66l-38 -218h288z" />
    <glyph glyph-name="uni043E" unicode="&#x43e;" horiz-adv-x="607" 
d="M263 -12c-131 0 -252 96 -222 267c30 172 180 257 310 257c129 0 244 -99 215 -266c-30 -175 -173 -258 -303 -258zM269 52c99 0 209 67 232 201c23 128 -64 195 -162 195c-98 -1 -208 -67 -232 -198c-22 -132 64 -199 162 -198z" />
    <glyph glyph-name="uni043F" unicode="&#x43f;" horiz-adv-x="560" 
d="M534 500l-88 -500h-66l77 436h-288l-77 -436h-66l88 500h420z" />
    <glyph glyph-name="uni0440" unicode="&#x440;" horiz-adv-x="638" 
d="M382 512c139 0 240 -124 214 -272c-30 -169 -163 -252 -286 -252c-84 0 -163 40 -199 118l-54 -306h-66l123 700h66l-15 -85c51 61 127 97 217 97zM530 245c19 111 -51 203 -164 203c-109 0 -205 -78 -228 -185l-2 -16c-19 -128 70 -195 169 -195c96 0 203 64 225 193z
" />
    <glyph glyph-name="uni0441" unicode="&#x441;" horiz-adv-x="553" 
d="M258 -12c-146 0 -242 125 -216 273s154 251 303 251c98 0 176 -51 204 -130l-57 -29c-21 58 -75 95 -153 95c-113 0 -211 -83 -231 -194c-19 -111 46 -202 161 -202c78 0 145 41 183 100l53 -35c-51 -81 -142 -129 -247 -129z" />
    <glyph glyph-name="uni0442" unicode="&#x442;" horiz-adv-x="440" 
d="M474 500l-11 -64h-177l-77 -436h-66l77 436h-177l11 64h420z" />
    <glyph glyph-name="uni0443" unicode="&#x443;" horiz-adv-x="510" 
d="M470 500h74l-310 -546c-59 -104 -140 -161 -229 -154l11 62c63 -7 110 36 151 104l21 35l-134 499h67l111 -425z" />
    <glyph glyph-name="uni045E" unicode="&#x45e;" horiz-adv-x="510" 
d="M436 638l-10 -58h-260l10 58h260zM470 500h74l-310 -546c-59 -104 -140 -161 -229 -154l11 62c63 -7 110 36 151 104l21 35l-134 499h67l111 -425z" />
    <glyph glyph-name="uni0444" unicode="&#x444;" horiz-adv-x="672" 
d="M415 511c153 -15 240 -129 216 -267c-24 -139 -143 -242 -308 -255l-33 -189h-66l33 189c-153 15 -240 129 -216 267c24 139 145 242 308 255l33 189h66zM565 250c18 102 -40 184 -162 196l-68 -392c125 12 213 94 230 196zM107 250c-18 -102 41 -184 162 -196l68 392
c-125 -12 -212 -94 -230 -196z" />
    <glyph glyph-name="uni0445" unicode="&#x445;" horiz-adv-x="510" 
d="M521 500l-225 -245l150 -255h-74l-122 206l-189 -206h-85l241 262l-140 238h74l111 -189l174 189h85z" />
    <glyph glyph-name="uni0447" unicode="&#x447;" horiz-adv-x="530" 
d="M438 500h66l-88 -500h-66l33 187c-46 -17 -95 -27 -147 -27c-132 0 -189 74 -170 180l28 160h66l-28 -160c-14 -79 24 -118 107 -118c50 0 100 10 155 30z" />
    <glyph glyph-name="uni0446" unicode="&#x446;" horiz-adv-x="590" 
d="M447 64h80l-35 -198h-66l24 134h-424l88 500h66l-77 -436h278l77 436h66z" />
    <glyph glyph-name="uni0448" unicode="&#x448;" horiz-adv-x="810" 
d="M718 500h66l-88 -500h-670l88 500h66l-77 -436h236l77 436h66l-77 -436h236z" />
    <glyph glyph-name="uni0449" unicode="&#x449;" horiz-adv-x="840" 
d="M707 64h70l-35 -198h-66l24 134h-674l88 500h66l-77 -436h236l77 436h66l-77 -436h236l77 436h66z" />
    <glyph glyph-name="uni045F" unicode="&#x45f;" horiz-adv-x="560" 
d="M468 500h66l-88 -500h-177l-24 -134h-66l24 134h-177l88 500h66l-77 -436h288z" />
    <glyph glyph-name="uni044C" unicode="&#x44c;" horiz-adv-x="471" 
d="M284 310c87 0 156 -69 139 -161c-16 -92 -99 -149 -194 -149h-203l88 500h66l-33 -190h137zM357 155c10 57 -31 91 -85 91h-137l-32 -182h137c54 0 107 34 117 91z" />
    <glyph glyph-name="uni044A" unicode="&#x44a;" horiz-adv-x="541" 
d="M354 310c87 0 156 -69 139 -161c-16 -92 -99 -149 -194 -149h-203l77 436h-140l11 64h206l-33 -190h137zM427 155c10 57 -31 91 -85 91h-137l-32 -182h137c54 0 107 34 117 91z" />
    <glyph glyph-name="uni044B" unicode="&#x44b;" horiz-adv-x="646" 
d="M284 310c87 0 156 -69 139 -161c-16 -92 -99 -149 -194 -149h-203l88 500h66l-33 -190h137zM554 500h66l-88 -500h-66zM357 155c10 57 -31 91 -85 91h-137l-32 -182h137c54 0 107 34 117 91z" />
    <glyph glyph-name="uni0459" unicode="&#x459;" horiz-adv-x="791" 
d="M609 290c82 0 149 -59 132 -151s-93 -139 -183 -139h-198l77 436h-216l-39 -223c-32 -184 -115 -220 -216 -213l11 62c72 -9 116 24 139 151l50 287h348l-37 -210h132zM675 145c10 57 -28 81 -77 81h-132l-29 -162h132c49 0 96 24 106 81z" />
    <glyph glyph-name="uni045A" unicode="&#x45a;" horiz-adv-x="791" 
d="M609 290c82 0 149 -59 132 -151s-93 -139 -183 -139h-198l40 226h-268l-40 -226h-66l88 500h66l-37 -210h268l37 210h66l-37 -210h132zM675 145c10 57 -28 81 -77 81h-132l-29 -162h132c49 0 96 24 106 81z" />
    <glyph glyph-name="uni0455" unicode="&#x455;" horiz-adv-x="475" 
d="M205 -12c-102 0 -161 52 -180 119l59 31c10 -50 56 -86 126 -86c66 0 117 28 126 79c22 122 -281 63 -248 248c13 73 86 133 183 133c83 0 141 -37 169 -102l-58 -31c-15 50 -65 69 -113 69c-46 0 -105 -22 -115 -78c-22 -120 280 -63 248 -248
c-15 -84 -90 -134 -197 -134z" />
    <glyph glyph-name="uni0454" unicode="&#x454;" horiz-adv-x="553" 
d="M269 52c78 0 145 41 183 100l53 -35c-51 -81 -142 -129 -247 -129c-146 0 -242 125 -216 273s154 251 303 251c98 0 176 -51 204 -130l-57 -29c-21 58 -75 95 -153 95c-103 0 -194 -69 -224 -166h249l-12 -64h-247c-1 -94 62 -166 164 -166z" />
    <glyph glyph-name="uni044D" unicode="&#x44d;" horiz-adv-x="553" 
d="M295 512c152 0 242 -125 216 -273s-152 -251 -303 -251c-98 0 -176 51 -204 130l57 29c21 -62 75 -95 153 -95c103 0 195 69 224 166h-249l12 64h247c2 94 -56 166 -164 166c-78 0 -145 -41 -183 -100l-53 35c51 81 142 129 247 129z" />
    <glyph glyph-name="uni0456" unicode="&#x456;" horiz-adv-x="206" 
d="M165 606c-27 0 -43 22 -39 48s27 48 56 48c27 0 45 -22 40 -48s-27 -48 -57 -48zM26 0l88 500h66l-88 -500h-66z" />
    <glyph glyph-name="uni0457" unicode="&#x457;" horiz-adv-x="206" 
d="M65 575c-25 0 -42 20 -37 45c4 25 28 45 53 45s41 -20 37 -45c-5 -25 -28 -45 -53 -45zM255 575c-25 0 -42 20 -37 45c4 25 28 45 53 45s41 -20 37 -45c-5 -25 -28 -45 -53 -45zM26 0l88 500h66l-88 -500h-66z" />
    <glyph glyph-name="uni0458" unicode="&#x458;" horiz-adv-x="230" 
d="M206 702c27 0 45 -22 40 -48s-27 -48 -57 -48c-27 0 -43 22 -39 48s27 48 56 48zM43 -40l95 540h66l-95 -540c-24 -137 -97 -182 -210 -172l11 64c75 -8 118 22 133 108z" />
    <glyph glyph-name="uni045B" unicode="&#x45b;" horiz-adv-x="568" 
d="M355 512c122 0 186 -81 165 -205l-54 -307h-66l54 307c15 89 -20 141 -111 141c-87 0 -169 -50 -194 -179l-47 -269h-66l101 576h-69l9 54h70l12 70h66l-12 -70h144l-9 -54h-145l-25 -146c49 58 111 82 177 82z" />
    <glyph glyph-name="uni044E" unicode="&#x44e;" horiz-adv-x="800" 
d="M544 512c129 0 244 -99 215 -266c-30 -175 -173 -258 -303 -258c-121 0 -230 82 -221 230h-105l-38 -218h-66l88 500h66l-38 -218h103c40 154 176 230 299 230zM694 253c23 128 -64 195 -162 195c-98 -1 -208 -67 -232 -198c-22 -132 64 -199 162 -198
c99 0 209 67 232 201z" />
    <glyph glyph-name="uni044F" unicode="&#x44f;" horiz-adv-x="500" 
d="M474 500l-88 -500h-66l34 192h-91l-186 -192h-81l191 195c-71 15 -124 76 -110 156c16 92 101 149 194 149h203zM228 254h137l32 182h-137c-54 0 -107 -34 -117 -91s31 -91 85 -91z" />
    <glyph glyph-name="uni0452" unicode="&#x452;" horiz-adv-x="568" 
d="M355 512c122 0 186 -81 165 -205l-61 -347c-22 -126 -95 -180 -210 -172l11 64c75 -8 118 26 133 108l61 347c15 89 -20 141 -111 141c-87 0 -169 -50 -194 -179l-47 -269h-66l101 576h-69l9 54h70l12 70h66l-12 -70h144l-9 -54h-145l-25 -146c49 58 111 82 177 82z" />
    <glyph glyph-name="uni0432.loclBGR" horiz-adv-x="572" 
d="M421 396c76 -30 119 -101 101 -202c-23 -133 -120 -206 -267 -206c-135 0 -214 96 -187 248l42 240c26 151 119 236 251 236c110 0 178 -76 162 -174c-9 -55 -46 -102 -102 -142zM349 648c-85 0 -154 -61 -173 -172l-16 -92l107 21c29 6 56 8 82 6c62 39 100 87 108 133
c10 58 -29 104 -108 104zM456 200c20 112 -50 171 -200 141l-107 -21l-15 -90c-20 -118 29 -178 132 -178s174 55 190 148z" />
    <glyph glyph-name="uni0433.loclBGR" horiz-adv-x="456" 
d="M187 -12c-111 0 -176 70 -161 155c32 179 304 100 324 220c9 54 -40 85 -93 85c-50 0 -104 -25 -129 -77l-52 34c31 62 101 107 188 107c101 0 166 -74 152 -154c-31 -179 -302 -101 -324 -220c-11 -59 44 -86 99 -86c68 0 124 39 152 91l53 -35
c-37 -67 -104 -120 -209 -120z" />
    <glyph glyph-name="uni0434.loclBGR" horiz-adv-x="639" 
d="M546 500h66l-84 -480c-27 -152 -144 -232 -287 -232c-106 0 -185 46 -220 122l59 30c20 -49 67 -88 164 -88c123 0 199 63 218 168l12 67c-52 -63 -127 -99 -211 -99c-153 0 -244 122 -221 272c24 161 161 252 286 252c82 0 163 -39 199 -118zM501 243v2l1 5
c22 130 -74 198 -169 198c-97 0 -206 -69 -225 -193c-18 -116 52 -203 167 -203c106 0 203 75 226 191z" />
    <glyph glyph-name="uni0436.loclBGR" horiz-adv-x="674" 
d="M-24 0l269 266l-173 234h75l160 -222l76 422h66l-77 -426l234 226h80l-254 -246l176 -254h-72l-169 244l-43 -244h-66l43 243l-247 -243h-78z" />
    <glyph glyph-name="uni0438.loclBGR" horiz-adv-x="558" 
d="M466 500h66l-88 -500h-66l12 70c-49 -59 -111 -82 -177 -82c-122 0 -186 81 -165 205l54 307h66l-54 -307c-15 -89 20 -141 111 -141c86 0 168 49 193 176z" />
    <glyph glyph-name="uni0439.loclBGR" horiz-adv-x="558" 
d="M468 638l-10 -58h-260l10 58h260zM466 500h66l-88 -500h-66l12 70c-49 -59 -111 -82 -177 -82c-122 0 -186 81 -165 205l54 307h66l-54 -307c-15 -89 20 -141 111 -141c86 0 168 49 193 176z" />
    <glyph glyph-name="uni043A.loclBGR" horiz-adv-x="494" 
d="M508 500l-302 -240l224 -260h-80l-214 249l-44 -249h-66l123 700h66l-73 -418l274 218h92z" />
    <glyph glyph-name="uni043B.loclBGR" horiz-adv-x="470" 
d="M416 0h-68l-78 427l-231 -427h-73l273 500h80z" />
    <glyph glyph-name="uni043F.loclBGR" horiz-adv-x="558" 
d="M345 512c122 0 186 -81 165 -205l-54 -307h-66l54 307c15 89 -20 141 -111 141c-86 0 -168 -49 -193 -176l-48 -272h-66l88 500h66l-12 -70c49 59 111 82 177 82z" />
    <glyph glyph-name="uni0442.loclBGR" horiz-adv-x="848" 
d="M648 512c100 0 175 -73 153 -200l-55 -312h-66l55 312c15 89 -26 136 -100 136c-71 0 -141 -41 -165 -158l-51 -290h-66l55 312c15 89 -22 136 -93 136s-149 -43 -173 -161l-50 -287h-66l88 500h66l-11 -65c48 55 106 77 163 77c66 0 117 -32 137 -93
c50 66 118 93 179 93z" />
    <glyph glyph-name="uni0446.loclBGR" horiz-adv-x="594" 
d="M462 100c-4 -22 8 -36 30 -36h39l-35 -198h-66l24 136c-36 6 -57 31 -60 68c-49 -59 -112 -82 -181 -82c-122 0 -186 81 -165 205l54 307h66l-54 -307c-15 -89 20 -141 111 -141c88 0 172 52 195 186l46 262h66z" />
    <glyph glyph-name="uni0448.loclBGR" horiz-adv-x="848" 
d="M756 500h66l-88 -500h-66l11 65c-48 -55 -106 -77 -163 -77c-66 0 -117 32 -137 93c-50 -66 -118 -93 -179 -93c-100 0 -175 73 -153 200l55 312h66l-55 -312c-15 -89 26 -136 100 -136c71 0 141 41 165 158l51 290h66l-55 -312c-15 -89 22 -136 93 -136s149 43 173 161z
" />
    <glyph glyph-name="uni0449.loclBGR" horiz-adv-x="884" 
d="M752 100c-4 -22 8 -36 30 -36h39l-35 -198h-66l24 136c-36 6 -58 31 -60 68c-49 -59 -109 -82 -168 -82c-66 0 -118 32 -138 94c-49 -66 -117 -94 -178 -94c-100 0 -175 73 -153 200l55 312h66l-55 -312c-15 -89 26 -136 100 -136c71 0 141 41 165 158l51 290h66
l-55 -312c-15 -89 22 -136 93 -136c70 0 148 43 172 158l51 290h66z" />
    <glyph glyph-name="uni044C.loclBGR" horiz-adv-x="480" 
d="M269 338c117 0 182 -77 164 -184c-17 -96 -101 -166 -218 -166c-123 0 -187 91 -171 182l58 330h66l-28 -162h129zM367 164c11 67 -29 110 -110 110h-129l-18 -104c-12 -69 33 -118 114 -118c83 0 132 54 143 112z" />
    <glyph glyph-name="uni044A.loclBGR" horiz-adv-x="562" 
d="M351 338c117 0 182 -78 164 -185c-17 -96 -101 -165 -218 -165c-123 0 -187 91 -171 182l47 266h-140l11 64h206l-28 -162h129zM449 163c11 67 -29 111 -110 111h-129l-18 -104c-12 -70 33 -118 114 -118c83 0 132 53 143 111z" />
    <glyph glyph-name="uni044E.loclBGR" horiz-adv-x="800" 
d="M544 512c129 0 244 -99 215 -266c-30 -175 -173 -258 -303 -258c-121 0 -230 82 -221 230h-105l-38 -218h-66l123 700h66l-73 -418h103c39 156 176 230 299 230zM694 253c23 128 -64 195 -162 195c-98 -1 -208 -67 -232 -198c-22 -132 64 -199 162 -198
c99 0 209 67 232 201z" />
    <glyph glyph-name="uni0394" unicode="&#x394;" horiz-adv-x="630" 
d="M430 700l146 -700h-610l392 700h72zM80 66h413l-111 547z" />
    <glyph glyph-name="uni03A9" unicode="&#x3a9;" horiz-adv-x="807" 
d="M783 342c-22 -121 -97 -219 -198 -276h136l-12 -66h-273l12 66c131 33 241 147 265 284c28 163 -74 294 -240 294c-168 0 -316 -131 -344 -294c-24 -137 43 -251 165 -284l-9 -50l-3 -16h-273l12 66h141c-84 61 -125 169 -103 292c35 200 214 354 426 354
c198 0 333 -170 298 -370z" />
    <glyph glyph-name="pi" unicode="&#x3c0;" horiz-adv-x="650" 
d="M664 500l-11 -64h-83l-77 -436h-66l77 436h-288l-77 -436h-66l77 436h-87l11 64h590z" />
    <glyph glyph-name="zero" unicode="0" horiz-adv-x="633" 
d="M270 -12c-163 0 -239 154 -201 370s150 354 329 354c163 0 239 -154 201 -370s-150 -354 -329 -354zM282 56c123 0 214 107 247 294s-20 294 -143 294s-214 -107 -247 -294s20 -294 143 -294z" />
    <glyph glyph-name="one" unicode="1" horiz-adv-x="340" 
d="M279 700h60l-123 -700h-70l109 622v-1l-165 -47l-7 62z" />
    <glyph glyph-name="two" unicode="2" horiz-adv-x="525" 
d="M-4 0l11 63l297 254c71 60 128 120 140 185c18 95 -44 142 -116 142c-63 0 -123 -30 -172 -100l-55 36c61 89 146 132 235 132c108 0 203 -81 178 -218c-16 -89 -82 -156 -167 -227l-236 -199h342l-12 -68h-445z" />
    <glyph glyph-name="three" unicode="3" horiz-adv-x="530" 
d="M538 700l-11 -66l-200 -226c99 -16 175 -89 154 -211c-25 -139 -146 -209 -269 -209c-101 0 -181 47 -204 139l60 33c17 -71 70 -104 152 -104c91 0 174 50 191 147s-48 147 -139 147h-20l-23 48l210 236h-322l11 66h410z" />
    <glyph glyph-name="four" unicode="4" 
d="M547 206l-11 -66h-90l-25 -140h-70l25 140h-370l11 66l347 494h80l-347 -494h290l38 214h70l-38 -214h90z" />
    <glyph glyph-name="five" unicode="5" horiz-adv-x="545" 
d="M547 634h-311l-54 -216h117c111 0 221 -82 197 -221c-25 -139 -142 -209 -269 -209c-101 0 -185 50 -207 149l62 33c13 -77 73 -114 153 -114c91 0 174 50 191 147s-48 147 -139 147h-190l86 350h375z" />
    <glyph glyph-name="six" unicode="6" horiz-adv-x="531" 
d="M300 450c134 0 218 -100 194 -237c-25 -137 -133 -225 -275 -225c-134 0 -218 100 -193 237c10 58 36 107 73 144l279 331h85l-215 -254c17 3 34 4 52 4zM424 219c17 98 -35 163 -136 163s-175 -65 -192 -163c-18 -98 34 -163 135 -163s175 65 193 163z" />
    <glyph glyph-name="seven" unicode="7" horiz-adv-x="490" 
d="M99 700h430l-11 -66l-372 -634h-77l372 634h-353z" />
    <glyph glyph-name="eight" unicode="8" horiz-adv-x="550" 
d="M532 512c-13 -73 -61 -124 -120 -154c62 -34 99 -96 86 -174c-24 -132 -139 -196 -270 -196c-119 0 -222 76 -198 208c13 79 71 138 147 168c-49 33 -80 88 -67 160c24 133 140 188 246 188c98 0 200 -67 176 -200zM462 518c16 91 -48 126 -118 126s-148 -35 -164 -126
c-15 -85 51 -126 119 -126c76 0 148 41 163 126zM428 190c15 90 -54 134 -141 134c-91 0 -172 -44 -187 -134c-16 -90 49 -134 140 -134c95 0 172 44 188 134z" />
    <glyph glyph-name="nine" unicode="9" horiz-adv-x="533" 
d="M348 712c134 0 218 -102 194 -239c-10 -57 -35 -105 -72 -142l-279 -331h-85l214 254c-18 -2 -36 -4 -54 -4c-134 0 -218 102 -194 239s134 223 276 223zM142 481c-17 -98 35 -163 136 -163s177 65 194 163s-35 163 -136 163s-177 -65 -194 -163z" />
    <glyph glyph-name="zero.sinf" horiz-adv-x="412" 
d="M133 -172c-104 0 -161 91 -139 217s100 207 211 207c104 0 161 -91 139 -217s-100 -207 -211 -207zM142 -112c70 0 122 52 140 152s-16 152 -86 152s-122 -52 -140 -152s16 -152 86 -152z" />
    <glyph glyph-name="one.sinf" horiz-adv-x="240" 
d="M125 240h53l-71 -400h-62l58 328l-95 -27l-7 57z" />
    <glyph glyph-name="two.sinf" horiz-adv-x="340" 
d="M-42 -160l9 51l193 158c38 31 55 54 60 80c7 37 -15 63 -60 63c-39 0 -68 -24 -93 -64l-50 31c32 57 89 93 152 93c77 0 124 -55 113 -126c-7 -44 -35 -80 -87 -122l-129 -104h182l-10 -60h-280z" />
    <glyph glyph-name="three.sinf" horiz-adv-x="348" 
d="M293 240l-10 -60l-106 -108c60 -14 94 -62 83 -121c-13 -77 -80 -123 -168 -123c-63 0 -106 31 -127 84l54 28c12 -34 36 -52 83 -52c55 0 89 28 96 69c8 41 -19 69 -71 69h-4l-23 47l104 107h-179l10 60h258z" />
    <glyph glyph-name="four.sinf" horiz-adv-x="354" 
d="M285 -27l-10 -58h-51l-13 -75h-62l13 75h-206l10 58l196 267h71l-195 -267h134l17 96h62l-17 -96h51z" />
    <glyph glyph-name="five.sinf" horiz-adv-x="330" 
d="M281 182h-179l-22 -92h60c78 0 132 -59 117 -139c-13 -77 -73 -123 -165 -123c-64 0 -106 31 -126 85l56 28c12 -34 37 -53 80 -53c52 0 86 28 93 69c8 44 -16 73 -68 73h-122l52 210h234z" />
    <glyph glyph-name="six.sinf" horiz-adv-x="341" 
d="M145 107c85 0 139 -67 125 -145c-14 -79 -85 -134 -174 -134c-84 0 -139 67 -125 146c5 28 17 53 35 73l163 193h79l-115 -133h12zM208 -32c8 46 -19 79 -74 79c-54 0 -93 -33 -101 -79s19 -80 73 -80c55 0 94 34 102 80z" />
    <glyph glyph-name="seven.sinf" horiz-adv-x="297" 
d="M8 240h266l-8 -50l-207 -350h-69l203 340h-195z" />
    <glyph glyph-name="eight.sinf" horiz-adv-x="336" 
d="M279 134c-6 -39 -34 -68 -68 -85c35 -22 56 -60 47 -107c-12 -72 -79 -114 -163 -114c-81 0 -136 50 -124 122c9 48 42 83 86 102c-28 20 -45 51 -39 90c13 73 80 110 151 110c66 0 123 -45 110 -118zM217 138c6 34 -14 56 -58 56c-45 0 -73 -22 -79 -56
c-6 -35 14 -59 59 -59c44 0 72 24 78 59zM198 -46c7 41 -22 65 -70 65c-53 0 -86 -24 -93 -65c-7 -39 17 -66 70 -66c52 0 86 27 93 66z" />
    <glyph glyph-name="nine.sinf" horiz-adv-x="341" 
d="M171 252c80 0 139 -67 125 -146c-5 -28 -17 -52 -35 -73l-161 -193h-78l116 134c-5 -1 -11 -1 -16 -1c-81 0 -139 67 -125 145c14 79 87 134 174 134zM59 112c-8 -46 19 -79 74 -79c54 0 93 33 101 79s-19 80 -73 80c-55 0 -94 -34 -102 -80z" />
    <glyph glyph-name="zero.tf" 
d="M239 -12c-165 0 -238 152 -200 368s154 356 328 356c164 0 238 -152 200 -368s-153 -356 -328 -356zM251 56c123 0 213 107 246 294s-20 294 -142 294s-213 -107 -246 -294s19 -294 142 -294z" />
    <glyph glyph-name="one.tf" 
d="M304 66h204l-12 -66h-500l12 66h226l97 556v-1l-165 -47l-7 62l196 64h60z" />
    <glyph glyph-name="two.tf" 
d="M1 0l11 63l291 218c96 72 171 136 184 211c16 95 -37 152 -134 152c-74 0 -144 -44 -190 -119l-56 35c56 97 154 152 258 152c125 0 216 -88 192 -225c-17 -99 -94 -174 -205 -254l-229 -165h375l-12 -68h-485z" />
    <glyph glyph-name="three.tf" 
d="M578 700l-11 -66l-216 -225c116 -15 191 -89 170 -212c-25 -139 -144 -209 -289 -209c-115 0 -205 60 -225 158l62 32c16 -75 81 -122 171 -122c107 0 194 50 211 147s-49 147 -160 147h-18l-23 46l230 238h-363l11 66h450z" />
    <glyph glyph-name="four.tf" 
d="M542 206l-11 -66h-95l-25 -140h-70l25 140h-365l11 66l347 494h79l-347 -494h287l34 194h70l-34 -194h94z" />
    <glyph glyph-name="five.tf" 
d="M573 634h-341l-54 -216h137c127 0 230 -82 206 -221c-25 -139 -141 -209 -280 -209c-110 0 -200 60 -223 158l62 33c15 -76 80 -123 171 -123c101 0 183 50 200 147s-47 147 -148 147h-210l86 350h405z" />
    <glyph glyph-name="six.tf" 
d="M310 450c151 0 237 -101 213 -238c-25 -137 -135 -224 -294 -224c-149 0 -238 100 -213 237c9 54 33 101 68 137l303 338h85l-226 -255c20 3 42 5 64 5zM453 219c17 98 -37 163 -155 163s-195 -65 -212 -163c-18 -98 37 -163 155 -163s194 65 212 163z" />
    <glyph glyph-name="seven.tf" 
d="M119 700h490l-11 -66l-392 -634h-77l393 634h-414z" />
    <glyph glyph-name="eight.tf" 
d="M558 514c-12 -70 -58 -123 -121 -155c66 -34 100 -97 87 -173c-23 -130 -134 -198 -285 -198c-140 0 -237 76 -214 206c13 77 68 138 148 169c-51 34 -79 90 -67 159c23 129 133 190 261 190c117 0 214 -69 191 -198zM488 518c16 87 -44 126 -133 126
c-93 0 -163 -39 -179 -126c-14 -81 41 -126 134 -126s164 45 178 126zM454 190c14 85 -40 134 -156 134s-189 -49 -203 -134c-15 -85 44 -134 156 -134c116 0 188 49 203 134z" />
    <glyph glyph-name="nine.tf" 
d="M377 712c150 0 237 -99 213 -236c-9 -52 -32 -97 -65 -133l-305 -343h-86l227 256c-21 -4 -43 -6 -66 -6c-148 0 -237 99 -213 236s135 226 295 226zM152 481c-17 -98 36 -163 155 -163s196 65 213 163s-36 163 -155 163s-196 -65 -213 -163z" />
    <glyph glyph-name="zero.dnom" horiz-adv-x="412" 
d="M161 -12c-104 0 -161 91 -139 217s100 207 211 207c104 0 161 -91 139 -217s-100 -207 -211 -207zM170 48c70 0 122 52 140 152s-16 152 -86 152s-122 -52 -140 -152s16 -152 86 -152z" />
    <glyph glyph-name="one.dnom" horiz-adv-x="247" 
d="M153 400h53l-71 -400h-62l58 328l-95 -27l-7 57z" />
    <glyph glyph-name="two.dnom" horiz-adv-x="340" 
d="M-14 0l9 51l193 158c38 31 55 54 60 80c7 37 -15 63 -60 63c-39 0 -68 -24 -93 -64l-50 31c32 57 89 93 152 93c77 0 124 -55 113 -126c-7 -44 -35 -80 -87 -122l-129 -104h182l-10 -60h-280z" />
    <glyph glyph-name="three.dnom" horiz-adv-x="354" 
d="M322 400l-10 -60l-106 -108c60 -14 94 -62 83 -121c-13 -77 -80 -123 -168 -123c-63 0 -106 31 -127 84l54 28c12 -34 36 -52 83 -52c55 0 89 28 96 69c8 41 -19 69 -71 69h-4l-23 47l104 107h-179l10 60h258z" />
    <glyph glyph-name="four.dnom" horiz-adv-x="354" 
d="M313 133l-10 -58h-51l-13 -75h-62l13 75h-206l10 58l196 267h71l-195 -267h134l17 96h62l-17 -96h51z" />
    <glyph glyph-name="five.dnom" horiz-adv-x="343" 
d="M310 342h-179l-22 -92h60c78 0 132 -59 117 -139c-13 -77 -73 -123 -165 -123c-64 0 -106 31 -126 85l56 28c12 -34 37 -53 80 -53c52 0 86 28 93 69c8 44 -16 73 -68 73h-122l52 210h234z" />
    <glyph glyph-name="six.dnom" horiz-adv-x="342" 
d="M174 267c85 0 139 -67 125 -145c-14 -79 -85 -134 -174 -134c-84 0 -139 67 -125 146c5 28 17 53 35 73l163 193h79l-115 -133h12zM237 128c8 46 -19 79 -74 79c-54 0 -93 -33 -101 -79s19 -80 73 -80c55 0 94 34 102 80z" />
    <glyph glyph-name="seven.dnom" horiz-adv-x="296" 
d="M36 400h266l-8 -50l-207 -350h-69l203 340h-195z" />
    <glyph glyph-name="eight.dnom" horiz-adv-x="336" 
d="M307 294c-6 -39 -34 -68 -68 -85c35 -22 56 -60 47 -107c-12 -72 -79 -114 -163 -114c-81 0 -136 50 -124 122c9 48 42 83 86 102c-28 20 -45 51 -39 90c13 73 80 110 151 110c66 0 123 -45 110 -118zM245 298c6 34 -14 56 -58 56c-45 0 -73 -22 -79 -56
c-6 -35 14 -59 59 -59c44 0 72 24 78 59zM226 114c7 41 -22 65 -70 65c-53 0 -86 -24 -93 -65c-7 -39 17 -66 70 -66c52 0 86 27 93 66z" />
    <glyph glyph-name="nine.dnom" horiz-adv-x="341" 
d="M199 412c80 0 139 -67 125 -146c-5 -28 -17 -52 -35 -73l-161 -193h-78l116 134c-5 -1 -11 -1 -16 -1c-81 0 -139 67 -125 145c14 79 87 134 174 134zM87 272c-8 -46 19 -79 74 -79c54 0 93 33 101 79s-19 80 -73 80c-55 0 -94 -34 -102 -80z" />
    <glyph glyph-name="zero.numr" horiz-adv-x="412" 
d="M214 288c-104 0 -161 91 -139 217s100 207 211 207c104 0 161 -91 139 -217s-100 -207 -211 -207zM223 348c70 0 122 52 140 152s-16 152 -86 152s-122 -52 -140 -152s16 -152 86 -152z" />
    <glyph glyph-name="one.numr" horiz-adv-x="247" 
d="M206 700h53l-71 -400h-62l58 328l-95 -27l-7 57z" />
    <glyph glyph-name="two.numr" horiz-adv-x="340" 
d="M39 300l9 51l193 158c38 31 55 54 60 80c7 37 -15 63 -60 63c-39 0 -68 -24 -93 -64l-50 31c32 57 89 93 152 93c77 0 124 -55 113 -126c-7 -44 -35 -80 -87 -122l-129 -104h182l-10 -60h-280z" />
    <glyph glyph-name="three.numr" horiz-adv-x="353" 
d="M374 700l-10 -60l-106 -108c60 -14 94 -62 83 -121c-13 -77 -80 -123 -168 -123c-63 0 -106 31 -127 84l54 28c12 -34 36 -52 83 -52c55 0 89 28 96 69c8 41 -19 69 -71 69h-4l-23 47l104 107h-179l10 60h258z" />
    <glyph glyph-name="four.numr" horiz-adv-x="354" 
d="M366 433l-10 -58h-51l-13 -75h-62l13 75h-206l10 58l196 267h71l-195 -267h134l17 96h62l-17 -96h51z" />
    <glyph glyph-name="five.numr" horiz-adv-x="342" 
d="M362 642h-179l-22 -92h60c78 0 132 -59 117 -139c-13 -77 -73 -123 -165 -123c-64 0 -106 31 -126 85l56 28c12 -34 37 -53 80 -53c52 0 86 28 93 69c8 44 -16 73 -68 73h-122l52 210h234z" />
    <glyph glyph-name="six.numr" horiz-adv-x="341" 
d="M226 567c85 0 139 -67 125 -145c-14 -79 -85 -134 -174 -134c-84 0 -139 67 -125 146c5 28 17 53 35 73l163 193h79l-115 -133h12zM289 428c8 46 -19 79 -74 79c-54 0 -93 -33 -101 -79s19 -80 73 -80c55 0 94 34 102 80z" />
    <glyph glyph-name="seven.numr" horiz-adv-x="296" 
d="M89 700h266l-8 -50l-207 -350h-69l203 340h-195z" />
    <glyph glyph-name="eight.numr" horiz-adv-x="336" 
d="M360 594c-6 -39 -34 -68 -68 -85c35 -22 56 -60 47 -107c-12 -72 -79 -114 -163 -114c-81 0 -136 50 -124 122c9 48 42 83 86 102c-28 20 -45 51 -39 90c13 73 80 110 151 110c66 0 123 -45 110 -118zM298 598c6 34 -14 56 -58 56c-45 0 -73 -22 -79 -56
c-6 -35 14 -59 59 -59c44 0 72 24 78 59zM279 414c7 41 -22 65 -70 65c-53 0 -86 -24 -93 -65c-7 -39 17 -66 70 -66c52 0 86 27 93 66z" />
    <glyph glyph-name="nine.numr" horiz-adv-x="341" 
d="M252 712c80 0 139 -67 125 -146c-5 -28 -17 -52 -35 -73l-161 -193h-78l116 134c-5 -1 -11 -1 -16 -1c-81 0 -139 67 -125 145c14 79 87 134 174 134zM140 572c-8 -46 19 -79 74 -79c54 0 93 33 101 79s-19 80 -73 80c-55 0 -94 -34 -102 -80z" />
    <glyph glyph-name="zero.sups" horiz-adv-x="412" 
d="M242 448c-104 0 -161 91 -139 217s100 207 211 207c104 0 161 -91 139 -217s-100 -207 -211 -207zM251 508c70 0 122 52 140 152s-16 152 -86 152s-122 -52 -140 -152s16 -152 86 -152z" />
    <glyph glyph-name="one.sups" horiz-adv-x="248" 
d="M235 860h53l-71 -400h-62l58 328l-95 -27l-7 57z" />
    <glyph glyph-name="two.sups" horiz-adv-x="340" 
d="M67 460l9 51l193 158c38 31 55 54 60 80c7 37 -15 63 -60 63c-39 0 -68 -24 -93 -64l-50 31c32 57 89 93 152 93c77 0 124 -55 113 -126c-7 -44 -35 -80 -87 -122l-129 -104h182l-10 -60h-280z" />
    <glyph glyph-name="three.sups" horiz-adv-x="353" 
d="M403 860l-10 -60l-106 -108c60 -14 94 -62 83 -121c-13 -77 -80 -123 -168 -123c-63 0 -106 31 -127 84l54 28c12 -34 36 -52 83 -52c55 0 89 28 96 69c8 41 -19 69 -71 69h-4l-23 47l104 107h-179l10 60h258z" />
    <glyph glyph-name="four.sups" horiz-adv-x="354" 
d="M394 593l-10 -58h-51l-13 -75h-62l13 75h-206l10 58l196 267h71l-195 -267h134l17 96h62l-17 -96h51z" />
    <glyph glyph-name="five.sups" horiz-adv-x="342" 
d="M391 802h-179l-22 -92h60c78 0 132 -59 117 -139c-13 -77 -73 -123 -165 -123c-64 0 -106 31 -126 85l56 28c12 -34 37 -53 80 -53c52 0 86 28 93 69c8 44 -16 73 -68 73h-122l52 210h234z" />
    <glyph glyph-name="six.sups" horiz-adv-x="341" 
d="M255 727c85 0 139 -67 125 -145c-14 -79 -85 -134 -174 -134c-84 0 -139 67 -125 146c5 28 17 53 35 73l163 193h79l-115 -133h12zM318 588c8 46 -19 79 -74 79c-54 0 -93 -33 -101 -79s19 -80 73 -80c55 0 94 34 102 80z" />
    <glyph glyph-name="seven.sups" horiz-adv-x="297" 
d="M118 860h266l-8 -50l-207 -350h-69l203 340h-195z" />
    <glyph glyph-name="eight.sups" horiz-adv-x="336" 
d="M388 754c-6 -39 -34 -68 -68 -85c35 -22 56 -60 47 -107c-12 -72 -79 -114 -163 -114c-81 0 -136 50 -124 122c9 48 42 83 86 102c-28 20 -45 51 -39 90c13 73 80 110 151 110c66 0 123 -45 110 -118zM326 758c6 34 -14 56 -58 56c-45 0 -73 -22 -79 -56
c-6 -35 14 -59 59 -59c44 0 72 24 78 59zM307 574c7 41 -22 65 -70 65c-53 0 -86 -24 -93 -65c-7 -39 17 -66 70 -66c52 0 86 27 93 66z" />
    <glyph glyph-name="nine.sups" horiz-adv-x="341" 
d="M280 872c80 0 139 -67 125 -146c-5 -28 -17 -52 -35 -73l-161 -193h-78l116 134c-5 -1 -11 -1 -16 -1c-81 0 -139 67 -125 145c14 79 87 134 174 134zM168 732c-8 -46 19 -79 74 -79c54 0 93 33 101 79s-19 80 -73 80c-55 0 -94 -34 -102 -80z" />
    <glyph glyph-name="fraction" unicode="&#x2044;" horiz-adv-x="220" 
d="M-99 0h-65l518 700h65z" />
    <glyph glyph-name="onehalf" unicode="&#xbd;" horiz-adv-x="807" 
d="M184 628l-95 -27l-7 57l124 42h53l-71 -400h-62zM601 700h65l-518 -700h-65zM777 286c-7 -44 -35 -80 -87 -122l-129 -104h182l-10 -60h-280l9 51l193 158c38 31 55 54 60 80c7 37 -15 63 -60 63c-39 0 -68 -24 -93 -64l-50 31c32 57 89 93 152 93c77 0 124 -55 113 -126
z" />
    <glyph glyph-name="onequarter" unicode="&#xbc;" horiz-adv-x="821" 
d="M184 628l-95 -27l-7 57l124 42h53l-71 -400h-62zM601 700h65l-518 -700h-65zM780 133l-10 -58h-51l-13 -75h-62l13 75h-206l10 58l196 267h71l-195 -267h134l17 96h62l-17 -96h51z" />
    <glyph glyph-name="threequarters" unicode="&#xbe;" horiz-adv-x="927" 
d="M341 411c-13 -77 -80 -123 -168 -123c-63 0 -106 31 -127 84l54 28c12 -34 36 -52 83 -52c55 0 89 28 96 69c8 41 -19 69 -71 69h-4l-23 47l104 107h-179l10 60h258l-10 -60l-106 -108c60 -14 94 -62 83 -121zM707 700h65l-518 -700h-65zM886 133l-10 -58h-51l-13 -75
h-62l13 75h-206l10 58l196 267h71l-195 -267h134l17 96h62l-17 -96h51z" />
    <glyph glyph-name="oneeighth" unicode="&#x215b;" horiz-adv-x="803" 
d="M184 628l-95 -27l-7 57l124 42h53l-71 -400h-62zM601 700h65l-518 -700h-65zM774 294c-6 -39 -34 -68 -68 -85c35 -22 56 -60 47 -107c-12 -72 -79 -114 -163 -114c-81 0 -136 50 -124 122c9 48 42 83 86 102c-28 20 -45 51 -39 90c13 73 80 110 151 110
c66 0 123 -45 110 -118zM712 298c6 34 -14 56 -58 56c-45 0 -73 -22 -79 -56c-6 -35 14 -59 59 -59c44 0 72 24 78 59zM693 114c7 41 -22 65 -70 65c-53 0 -86 -24 -93 -65c-7 -39 17 -66 70 -66c52 0 86 27 93 66z" />
    <glyph glyph-name="threeeighths" unicode="&#x215c;" horiz-adv-x="909" 
d="M341 411c-13 -77 -80 -123 -168 -123c-63 0 -106 31 -127 84l54 28c12 -34 36 -52 83 -52c55 0 89 28 96 69c8 41 -19 69 -71 69h-4l-23 47l104 107h-179l10 60h258l-10 -60l-106 -108c60 -14 94 -62 83 -121zM707 700h65l-518 -700h-65zM880 294c-6 -39 -34 -68 -68 -85
c35 -22 56 -60 47 -107c-12 -72 -79 -114 -163 -114c-81 0 -136 50 -124 122c9 48 42 83 86 102c-28 20 -45 51 -39 90c13 73 80 110 151 110c66 0 123 -45 110 -118zM818 298c6 34 -14 56 -58 56c-45 0 -73 -22 -79 -56c-6 -35 14 -59 59 -59c44 0 72 24 78 59zM799 114
c7 41 -22 65 -70 65c-53 0 -86 -24 -93 -65c-7 -39 17 -66 70 -66c52 0 86 27 93 66z" />
    <glyph glyph-name="fiveeighths" unicode="&#x215d;" horiz-adv-x="898" 
d="M338 411c-13 -77 -73 -123 -165 -123c-64 0 -106 31 -126 85l56 28c12 -34 37 -53 80 -53c52 0 86 28 93 69c8 44 -16 73 -68 73h-122l52 210h234l-10 -58h-179l-22 -92h60c78 0 132 -59 117 -139zM696 700h65l-518 -700h-65zM869 294c-6 -39 -34 -68 -68 -85
c35 -22 56 -60 47 -107c-12 -72 -79 -114 -163 -114c-81 0 -136 50 -124 122c9 48 42 83 86 102c-28 20 -45 51 -39 90c13 73 80 110 151 110c66 0 123 -45 110 -118zM807 298c6 34 -14 56 -58 56c-45 0 -73 -22 -79 -56c-6 -35 14 -59 59 -59c44 0 72 24 78 59zM788 114
c7 41 -22 65 -70 65c-53 0 -86 -24 -93 -65c-7 -39 17 -66 70 -66c52 0 86 27 93 66z" />
    <glyph glyph-name="seveneighths" unicode="&#x215e;" horiz-adv-x="852" 
d="M140 300h-69l203 340h-195l10 60h266l-8 -50zM650 700h65l-518 -700h-65zM823 294c-6 -39 -34 -68 -68 -85c35 -22 56 -60 47 -107c-12 -72 -79 -114 -163 -114c-81 0 -136 50 -124 122c9 48 42 83 86 102c-28 20 -45 51 -39 90c13 73 80 110 151 110
c66 0 123 -45 110 -118zM761 298c6 34 -14 56 -58 56c-45 0 -73 -22 -79 -56c-6 -35 14 -59 59 -59c44 0 72 24 78 59zM742 114c7 41 -22 65 -70 65c-53 0 -86 -24 -93 -65c-7 -39 17 -66 70 -66c52 0 86 27 93 66z" />
    <glyph glyph-name="asterisk" unicode="*" horiz-adv-x="393" 
d="M396 610l-10 -56l-91 3l39 -75l-53 -30l-32 81l-60 -81l-49 30l65 75l-91 -3l10 56l90 -3l-39 75l54 30l31 -81l61 81l48 -30l-65 -75z" />
    <glyph glyph-name="backslash" unicode="\" horiz-adv-x="530" 
d="M378 -100l-241 900h50l241 -900h-50z" />
    <glyph glyph-name="periodcentered" unicode="&#xb7;" horiz-adv-x="231" 
d="M123 295c-31 0 -50 25 -45 56s31 54 64 54c31 0 52 -25 46 -56s-30 -54 -65 -54z" />
    <glyph glyph-name="bullet" unicode="&#x2022;" horiz-adv-x="300" 
d="M151 250c-56 0 -92 49 -82 105c10 55 59 95 117 95c55 0 91 -48 81 -103c-10 -56 -59 -97 -116 -97z" />
    <glyph glyph-name="colon" unicode=":" horiz-adv-x="230" 
d="M141 400c-31 0 -50 25 -45 56s31 54 64 54c31 0 52 -25 46 -56s-30 -54 -65 -54zM69 -10c-31 0 -50 25 -45 56s31 54 64 54c31 0 52 -25 46 -56s-30 -54 -65 -54z" />
    <glyph glyph-name="comma" unicode="," horiz-adv-x="240" 
d="M151 85l-100 -225h-60l80 225h80z" />
    <glyph glyph-name="ellipsis" unicode="&#x2026;" horiz-adv-x="610" 
d="M69 -10c-31 0 -50 25 -45 56s31 54 64 54c31 0 52 -25 46 -56s-30 -54 -65 -54zM259 -10c-31 0 -50 25 -45 56s31 54 64 54c31 0 52 -25 46 -56s-30 -54 -65 -54zM449 -10c-31 0 -50 25 -45 56s31 54 64 54c31 0 52 -25 46 -56s-30 -54 -65 -54z" />
    <glyph glyph-name="exclam" unicode="!" horiz-adv-x="230" 
d="M80 190l39 310l35 200h80l-35 -200l-69 -310h-50zM69 -10c-31 0 -50 25 -45 56s31 54 64 54c31 0 52 -25 46 -56s-30 -54 -65 -54z" />
    <glyph glyph-name="exclamdown" unicode="&#xa1;" horiz-adv-x="230" 
d="M161 510c31 0 50 -25 45 -56s-31 -54 -64 -54c-31 0 -52 25 -46 56s30 54 65 54zM150 310l-39 -310l-35 -200h-80l35 200l69 310h50z" />
    <glyph glyph-name="numbersign" unicode="#" horiz-adv-x="599" 
d="M587 410h-118l-42 -120h120l-20 -60h-120l-62 -180h-64l62 180h-132l-62 -180h-64l62 180h-120l20 60h120l42 120h-122l21 60h121l62 180h64l-62 -180h132l62 180h64l-62 -180h119zM363 290l42 120h-132l-42 -120h132z" />
    <glyph glyph-name="period" unicode="." horiz-adv-x="230" 
d="M69 -10c-31 0 -50 25 -45 56s31 54 64 54c31 0 52 -25 46 -56s-30 -54 -65 -54z" />
    <glyph glyph-name="question" unicode="?" horiz-adv-x="531" 
d="M199 190c31 176 227 207 250 337c14 81 -42 117 -119 117c-64 0 -129 -30 -164 -103l-59 35c49 94 143 136 235 136c102 0 199 -68 177 -191c-27 -155 -225 -185 -250 -331h-70zM199 -10c-31 0 -50 25 -45 56s31 54 64 54c31 0 52 -25 46 -56s-30 -54 -65 -54z" />
    <glyph glyph-name="questiondown" unicode="&#xbf;" horiz-adv-x="531" 
d="M332 510c31 0 50 -25 45 -56s-31 -54 -64 -54c-31 0 -52 25 -46 56s30 54 65 54zM332 310c-31 -176 -227 -207 -250 -337c-14 -81 42 -117 119 -117c64 0 129 30 164 103l59 -35c-49 -94 -143 -136 -235 -136c-102 0 -199 68 -177 191c27 155 225 185 250 331h70z" />
    <glyph glyph-name="quotedbl" unicode="&#x22;" horiz-adv-x="310" 
d="M104 500l25 200h70l-45 -200h-50zM244 500l25 200h70l-45 -200h-50z" />
    <glyph glyph-name="quotesingle" unicode="'" horiz-adv-x="170" 
d="M104 500l25 200h70l-45 -200h-50z" />
    <glyph glyph-name="semicolon" unicode=";" horiz-adv-x="246" 
d="M157 400c-31 0 -50 25 -45 56s31 54 64 54c31 0 52 -25 46 -56s-30 -54 -65 -54zM151 85l-100 -225h-60l80 225h80z" />
    <glyph glyph-name="slash" unicode="/" horiz-adv-x="530" 
d="M31 -100h-53l556 900h53z" />
    <glyph glyph-name="underscore" unicode="_" horiz-adv-x="520" 
d="M-29 -141l11 64h440l-11 -64h-440z" />
    <glyph glyph-name="braceleft" unicode="{" horiz-adv-x="355" 
d="M271 -108c-117 -10 -171 47 -151 162l29 167c15 86 -20 98 -87 98l12 64c67 0 106 12 121 98l29 167c23 130 96 172 209 162l-11 -64c-76 8 -117 -12 -132 -98l-29 -167c-15 -84 -48 -120 -101 -135c47 -15 68 -51 55 -125l-29 -167c-16 -86 18 -106 96 -98z" />
    <glyph glyph-name="braceright" unicode="}" horiz-adv-x="355" 
d="M119 810c117 10 171 -47 151 -162l-29 -167c-15 -86 20 -98 87 -98l-12 -64c-67 0 -106 -12 -121 -98l-29 -167c-23 -130 -96 -172 -209 -162l11 64c76 -8 117 12 132 98l29 167c15 84 48 120 101 135c-47 15 -68 51 -55 125l29 167c16 86 -18 106 -96 98z" />
    <glyph glyph-name="bracketleft" unicode="[" horiz-adv-x="280" 
d="M346 736h-134l-137 -772h135l-12 -64h-200l159 900h200z" />
    <glyph glyph-name="bracketright" unicode="]" horiz-adv-x="280" 
d="M317 800l-159 -900h-200l12 64h133l137 772h-134l11 64h200z" />
    <glyph glyph-name="parenleft" unicode="(" horiz-adv-x="267" 
d="M109 -100c-45 140 -58 296 -30 456s94 304 189 444h66c-95 -140 -161 -290 -189 -450s-15 -310 30 -450h-66z" />
    <glyph glyph-name="parenright" unicode=")" horiz-adv-x="266" 
d="M193 800c45 -140 58 -296 30 -456s-94 -304 -189 -444h-66c95 140 161 290 189 450s15 310 -30 450h66z" />
    <glyph glyph-name="emdash" unicode="&#x2014;" horiz-adv-x="749" 
d="M85 277l11 64h589l-11 -64h-589z" />
    <glyph glyph-name="endash" unicode="&#x2013;" horiz-adv-x="649" 
d="M85 277l11 64h489l-11 -64h-489z" />
    <glyph glyph-name="hyphen" unicode="-" horiz-adv-x="520" 
d="M85 277l11 64h360l-11 -64h-360z" />
    <glyph glyph-name="guillemotleft" unicode="&#xab;" horiz-adv-x="497" 
d="M309 489l-145 -185l77 -175h-82l-79 180l142 180h87zM469 489l-145 -185l77 -175h-82l-79 180l142 180h87z" />
    <glyph glyph-name="guillemotright" unicode="&#xbb;" horiz-adv-x="498" 
d="M199 489l79 -180l-142 -180h-87l145 185l-77 175h82zM359 489l79 -180l-142 -180h-87l145 185l-77 175h82z" />
    <glyph glyph-name="guilsinglleft" unicode="&#x2039;" horiz-adv-x="337" 
d="M309 489l-145 -185l77 -175h-82l-79 180l142 180h87z" />
    <glyph glyph-name="guilsinglright" unicode="&#x203a;" horiz-adv-x="338" 
d="M199 489l79 -180l-142 -180h-87l145 185l-77 175h82z" />
    <glyph glyph-name="quotedblbase" unicode="&#x201e;" horiz-adv-x="380" 
d="M151 85l-100 -225h-60l80 225h80zM291 85l-100 -225h-60l80 225h80z" />
    <glyph glyph-name="quotedblleft" unicode="&#x201c;" horiz-adv-x="381" 
d="M100 475l100 225h60l-80 -225h-80zM240 475l100 225h60l-80 -225h-80z" />
    <glyph glyph-name="quotedblright" unicode="&#x201d;" horiz-adv-x="381" 
d="M260 700l-100 -225h-60l80 225h80zM400 700l-100 -225h-60l80 225h80z" />
    <glyph glyph-name="quoteleft" unicode="&#x2018;" horiz-adv-x="241" 
d="M100 475l100 225h60l-80 -225h-80z" />
    <glyph glyph-name="quoteright" unicode="&#x2019;" horiz-adv-x="241" 
d="M260 700l-100 -225h-60l80 225h80z" />
    <glyph glyph-name="quotesinglbase" unicode="&#x201a;" horiz-adv-x="240" 
d="M151 85l-100 -225h-60l80 225h80z" />
    <glyph glyph-name="space" unicode=" " horiz-adv-x="250" 
 />
    <glyph glyph-name="cent" unicode="&#xa2;" horiz-adv-x="554" 
d="M287 152c78 0 145 41 183 100l53 -35c-51 -81 -142 -129 -247 -129c-22 0 -43 3 -63 8l-47 -96h-54l56 114c-82 45 -127 140 -108 247c26 148 154 251 303 251c17 0 33 -1 48 -4l46 92h54l-52 -106c51 -22 90 -61 108 -112l-57 -29c-14 38 -41 67 -80 82l-187 -378
c14 -3 28 -5 44 -5zM126 354c-13 -78 15 -146 72 -179l183 372c-7 1 -16 1 -24 1c-113 0 -211 -83 -231 -194z" />
    <glyph glyph-name="currency" unicode="&#xa4;" horiz-adv-x="552" 
d="M566 554l-84 -72c24 -37 34 -84 25 -136c-9 -51 -34 -96 -69 -131l56 -69l-38 -32l-57 69c-42 -28 -92 -45 -143 -45c-48 0 -90 17 -121 45l-83 -70l-30 33l84 72c-24 37 -34 84 -25 136c9 51 34 96 69 132l-56 68l37 32l58 -69c41 29 91 45 142 45c48 0 91 -17 122 -46
l83 71zM441 350c14 83 -38 148 -121 148s-159 -65 -173 -148c-15 -83 38 -148 121 -148s158 65 173 148z" />
    <glyph glyph-name="dollar" unicode="$" horiz-adv-x="561" 
d="M344 376c73 -32 188 -78 162 -212c-23 -114 -123 -170 -230 -176l-16 -88h-60l16 90c-99 12 -167 66 -195 150l63 31c18 -61 65 -104 144 -113l48 272c-80 35 -181 85 -156 210c24 117 134 171 223 172l16 88h60l-16 -93c79 -16 127 -67 152 -126l-63 -31
c-21 42 -49 76 -101 89zM190 533c-15 -73 38 -105 98 -132l43 243c-60 -5 -126 -42 -141 -111zM436 172c16 75 -42 107 -104 134l-44 -249c76 8 134 50 148 115z" />
    <glyph glyph-name="Euro" unicode="&#x20ac;" horiz-adv-x="595" 
d="M425 644c-101 0 -181 -72 -224 -202h253l-10 -58h-259c-3 -11 -5 -22 -7 -34c-2 -9 -3 -18 -4 -26h259l-10 -58h-254c-5 -135 49 -210 152 -210c71 0 131 36 171 102l56 -35c-54 -85 -135 -135 -239 -135c-141 0 -216 111 -211 278h-75l10 58h70c1 10 3 21 5 32
c2 9 3 19 5 28h-69l10 58h75c52 166 161 270 308 270c94 0 160 -50 189 -134l-64 -33c-19 64 -66 99 -137 99z" />
    <glyph glyph-name="florin" unicode="&#x192;" horiz-adv-x="439" 
d="M295 571c43 126 131 162 224 132l-11 -64c-67 28 -121 -2 -144 -68l-64 -188h114l-12 -64h-124l-133 -388c-43 -126 -132 -162 -224 -132l11 64c67 -28 121 2 144 68l133 388h-108l12 64h118z" />
    <glyph glyph-name="uni20BD" unicode="&#x20bd;" horiz-adv-x="591" 
d="M439 700c112 0 194 -100 173 -216c-20 -115 -127 -204 -247 -204h-180l-16 -94h260l-10 -58h-261l-22 -128h-70l22 128h-89l10 58h90l16 94h-90l12 66h90l62 354h250zM542 490c15 80 -37 144 -114 144h-181l-50 -288h180c77 0 151 65 165 144z" />
    <glyph glyph-name="sterling" unicode="&#xa3;" horiz-adv-x="585" 
d="M211 289l-39 -221h366l-12 -68h-530l12 68h94l39 221h-74l11 62h74l27 151c25 143 115 210 228 210c86 0 154 -52 180 -134l-58 -30c-23 61 -60 96 -130 96c-69 0 -133 -41 -150 -142l-27 -151h231l-11 -62h-231z" />
    <glyph glyph-name="yen" unicode="&#xa5;" horiz-adv-x="575" 
d="M644 700l-292 -353h168l-10 -58h-181l-11 -60h181l-10 -58h-181l-30 -171h-70l30 171h-179l10 58h179l11 60h-179l10 58h166l-167 353h72l146 -309l255 309h82z" />
    <glyph glyph-name="cent.tf" 
d="M293 152c78 0 145 41 183 100l53 -35c-51 -81 -142 -129 -247 -129c-22 0 -43 3 -63 8l-47 -96h-54l56 114c-82 45 -127 140 -108 247c26 148 154 251 303 251c17 0 33 -1 48 -4l46 92h54l-52 -106c51 -22 90 -61 108 -112l-57 -29c-14 38 -41 67 -80 82l-187 -378
c14 -3 28 -5 44 -5zM132 354c-13 -78 15 -146 72 -179l183 372c-7 1 -16 1 -24 1c-113 0 -211 -83 -231 -194z" />
    <glyph glyph-name="dollar.tf" 
d="M354 376c73 -32 188 -78 162 -212c-23 -113 -121 -169 -230 -175l-16 -89h-60l16 90c-107 10 -176 64 -205 150l63 31c19 -63 68 -106 154 -114l48 273c-80 35 -181 85 -156 210c23 115 130 169 223 172l16 88h60l-16 -92c87 -15 137 -67 162 -127l-63 -31
c-21 44 -51 79 -111 90zM200 533c-15 -73 38 -105 98 -133l43 243c-63 -5 -126 -42 -141 -110zM446 172c16 75 -42 107 -104 134l-44 -248c78 8 134 50 148 114z" />
    <glyph glyph-name="Euro.tf" 
d="M405 644c-95 0 -168 -72 -210 -202h244l-10 -58h-249c-3 -11 -5 -22 -7 -34c-2 -9 -3 -18 -4 -26h249l-10 -58h-245c-6 -135 43 -210 138 -210c68 0 129 41 169 117l56 -36c-50 -93 -135 -149 -237 -149c-131 0 -202 111 -196 278h-65l10 58h60c1 10 3 21 5 32
c2 9 3 19 5 28h-59l10 58h64c50 166 152 270 292 270c88 0 159 -53 182 -142l-61 -32c-17 68 -66 106 -131 106z" />
    <glyph glyph-name="florin.tf" 
d="M383 571c51 124 134 162 237 132l-11 -64c-77 28 -131 -5 -157 -68l-78 -188h150l-12 -64h-164l-161 -388c-51 -124 -134 -162 -236 -132l11 64c77 -28 130 5 156 68l161 388h-148l12 64h162z" />
    <glyph glyph-name="uni20BD.tf" 
d="M409 700c112 0 194 -100 173 -216c-20 -115 -127 -204 -247 -204h-160l-16 -94h240l-10 -58h-241l-22 -128h-70l22 128h-89l10 58h90l16 94h-90l12 66h90l62 354h230zM512 490c15 80 -37 144 -114 144h-161l-50 -288h160c77 0 151 65 165 144z" />
    <glyph glyph-name="sterling.tf" 
d="M201 289l-39 -221h366l-12 -68h-530l12 68h94l39 221h-74l11 62h74l27 151c25 143 115 210 228 210c86 0 154 -52 180 -134l-58 -30c-23 61 -60 96 -130 96c-69 0 -133 -41 -150 -142l-27 -151h231l-11 -62h-231z" />
    <glyph glyph-name="yen.tf" 
d="M642 700l-292 -353h168l-10 -58h-181l-11 -60h181l-10 -58h-181l-30 -171h-70l30 171h-179l10 58h179l11 60h-179l10 58h166l-167 353h73l146 -309l255 309h81z" />
    <glyph glyph-name="plus" unicode="+" horiz-adv-x="540" 
d="M503 382l-11 -64h-178l-31 -178h-64l31 178h-178l11 64h179l31 178h64l-31 -178h177z" />
    <glyph glyph-name="minus" unicode="&#x2212;" horiz-adv-x="540" 
d="M72 318l11 64h420l-11 -64h-420z" />
    <glyph glyph-name="multiply" unicode="&#xd7;" horiz-adv-x="471" 
d="M464 492l-167 -144l117 -140l-49 -42l-117 140l-163 -140l-42 42l167 144l-117 140l48 42l117 -140l163 140z" />
    <glyph glyph-name="divide" unicode="&#xf7;" horiz-adv-x="580" 
d="M331 482c-30 0 -51 26 -45 57c5 31 32 53 64 53c30 0 51 -26 46 -57c-6 -31 -32 -53 -65 -53zM72 318l11 64h460l-11 -64h-460zM265 108c-30 0 -51 26 -45 57c5 31 32 53 64 53c30 0 51 -26 46 -57c-6 -31 -32 -53 -65 -53z" />
    <glyph glyph-name="equal" unicode="=" horiz-adv-x="540" 
d="M90 418l11 64h420l-11 -64h-420zM54 218l12 64h420l-12 -64h-420z" />
    <glyph glyph-name="notequal" unicode="&#x2260;" horiz-adv-x="540" 
d="M510 418h-154l-84 -136h214l-12 -64h-242l-91 -148h-53l91 148h-125l12 64h153l84 136h-213l11 64h242l91 148h53l-91 -148h125z" />
    <glyph glyph-name="greater" unicode="&#x3e;" horiz-adv-x="520" 
d="M115 560l368 -175l-12 -70l-430 -175l14 78l347 136l-299 136z" />
    <glyph glyph-name="less" unicode="&#x3c;" horiz-adv-x="520" 
d="M515 560l-14 -78l-348 -136l300 -136l-12 -70l-369 175l12 70z" />
    <glyph glyph-name="greaterequal" unicode="&#x2265;" horiz-adv-x="520" 
d="M122 600l372 -156l-6 -33l-5 -33l-428 -156l14 78l336 115l-295 115zM34 100l11 64h400l-11 -64h-400z" />
    <glyph glyph-name="lessequal" unicode="&#x2264;" horiz-adv-x="520" 
d="M522 600l-14 -78l-337 -115l296 -115l-12 -70l-372 156l5 33l6 33zM34 100l11 64h400l-11 -64h-400z" />
    <glyph glyph-name="plusminus" unicode="&#xb1;" horiz-adv-x="541" 
d="M337 447h178l-11 -64h-178l-29 -163h-64l29 163h-178l11 64h178l29 163h64zM32 90l11 64h420l-11 -64h-420z" />
    <glyph glyph-name="approxequal" unicode="&#x2248;" horiz-adv-x="594" 
d="M309 402c-90 63 -136 37 -168 -36l-56 28c48 113 147 146 264 64c91 -64 135 -37 168 36l55 -28c-47 -113 -144 -147 -263 -64zM112 206l-55 28c47 113 147 146 264 64c91 -64 135 -37 168 36l55 -28c-47 -113 -144 -147 -263 -64c-90 63 -136 37 -169 -36z" />
    <glyph glyph-name="asciitilde" unicode="~" horiz-adv-x="594" 
d="M126 286l-55 28c47 113 147 146 264 64c91 -64 135 -37 168 36l55 -28c-47 -113 -144 -147 -263 -64c-90 63 -136 37 -169 -36z" />
    <glyph glyph-name="logicalnot" unicode="&#xac;" horiz-adv-x="520" 
d="M483 382l-31 -180h-66l20 116h-334l11 64h400z" />
    <glyph glyph-name="emptyset" unicode="&#x2205;" horiz-adv-x="807" 
d="M828 720l-112 -112c57 -68 85 -163 67 -266c-36 -200 -222 -354 -426 -354c-76 0 -142 25 -194 68l-76 -76h-74l113 112c-58 68 -85 163 -67 266c35 200 222 354 426 354c75 0 142 -25 193 -67l76 75h74zM119 350c-15 -84 5 -160 49 -215l467 467c-42 33 -98 52 -161 52
c-168 0 -325 -135 -355 -304zM723 350c15 84 -5 160 -50 215l-467 -466c42 -34 97 -53 161 -53c168 0 326 135 356 304z" />
    <glyph glyph-name="infinity" unicode="&#x221e;" horiz-adv-x="800" 
d="M630 510c87 0 148 -74 132 -165s-93 -155 -188 -155c-80 0 -130 57 -164 110c-51 -53 -118 -110 -204 -110c-87 0 -148 74 -132 165s93 155 188 155c80 0 130 -57 165 -110c50 53 117 110 203 110zM217 250c59 0 114 46 163 100c-30 54 -69 100 -128 100
c-57 0 -103 -42 -113 -100c-11 -58 21 -100 78 -100zM698 350c10 58 -22 100 -79 100c-59 0 -114 -46 -162 -100c29 -54 68 -100 127 -100c57 0 103 42 114 100z" />
    <glyph glyph-name="integral" unicode="&#x222b;" horiz-adv-x="439" 
d="M-80 -202l12 64c67 -28 117 6 138 68l219 640c42 124 125 162 230 132l-12 -64c-79 28 -128 -6 -149 -68l-219 -640c-42 -124 -126 -162 -219 -132z" />
    <glyph glyph-name="product" unicode="&#x220f;" horiz-adv-x="640" 
d="M1 -200l158 900h480l-158 -900h-66l147 836h-348l-147 -836h-66z" />
    <glyph glyph-name="summation" unicode="&#x2211;" horiz-adv-x="540" 
d="M-29 -200l11 65l310 400l-159 369l11 66h430l-11 -64h-360l165 -380l-304 -392h378l-11 -64h-460z" />
    <glyph glyph-name="radical" unicode="&#x221a;" horiz-adv-x="644" 
d="M241 0l-95 236h-88l11 64h122l88 -220l368 720h74l-410 -800h-70z" />
    <glyph glyph-name="uni00B5" unicode="&#xb5;" horiz-adv-x="606" 
d="M474 100c-4 -22 8 -36 30 -36h39l-11 -64h-47c-44 0 -75 27 -79 70c-49 -59 -111 -82 -177 -82c-59 0 -103 22 -128 62l-44 -250h-66l123 700h66l-55 -311c-13 -86 22 -137 112 -137c88 0 172 52 195 186l46 262h66z" />
    <glyph glyph-name="partialdiff" unicode="&#x2202;" horiz-adv-x="578" 
d="M315 712c151 0 259 -147 220 -368c-42 -234 -173 -356 -323 -356c-126 0 -191 100 -170 218c24 135 124 224 270 224c53 0 113 -16 161 -53c18 143 -34 270 -170 270c-46 0 -91 -10 -137 -35l11 64c44 25 89 36 138 36zM223 52c108 0 199 96 238 258
c-46 41 -107 56 -160 56c-98 0 -174 -57 -193 -166c-14 -81 18 -148 115 -148z" />
    <glyph glyph-name="percent" unicode="%" horiz-adv-x="710" 
d="M243 412c-86 0 -142 71 -127 154s90 146 180 146c86 0 141 -71 126 -154s-87 -146 -179 -146zM253 472c53 0 96 40 105 90s-20 90 -73 90s-96 -40 -105 -90s20 -90 73 -90zM66 96l562 527l43 -26l-563 -527zM451 -12c-86 0 -142 71 -127 154s90 146 180 146
c86 0 140 -71 126 -154s-89 -146 -179 -146zM461 48c53 0 96 40 105 90s-20 90 -73 90s-97 -40 -105 -90s20 -90 73 -90z" />
    <glyph glyph-name="perthousand" unicode="&#x2030;" horiz-adv-x="1065" 
d="M243 412c-86 0 -142 71 -127 154s90 146 180 146c86 0 141 -71 126 -154s-87 -146 -179 -146zM253 472c53 0 96 40 105 90s-20 90 -73 90s-96 -40 -105 -90s20 -90 73 -90zM66 96l562 527l43 -26l-563 -527zM451 -12c-86 0 -142 71 -127 154s90 146 180 146
c86 0 140 -71 126 -154s-89 -146 -179 -146zM806 -12c-86 0 -142 71 -127 154s90 146 180 146c86 0 140 -71 126 -154s-89 -146 -179 -146zM461 48c53 0 96 40 105 90s-20 90 -73 90s-97 -40 -105 -90s20 -90 73 -90zM816 48c53 0 96 40 105 90s-20 90 -73 90
s-97 -40 -105 -90s20 -90 73 -90z" />
    <glyph glyph-name="arrowup" unicode="&#x2191;" horiz-adv-x="720" 
d="M686 400l-15 -88l-220 269l-102 -581h-66l100 571l-313 -266l17 95l352 300z" />
    <glyph glyph-name="uni2197" unicode="&#x2197;" horiz-adv-x="639" 
d="M214 587h424l-75 -424l-76 -64l65 373l-474 -402l-41 49l477 405h-375z" />
    <glyph glyph-name="arrowright" unicode="&#x2192;" horiz-adv-x="820" 
d="M531 650l247 -300l-348 -300h-95l311 268h-574l11 64h582l-221 268h87z" />
    <glyph glyph-name="uni2198" unicode="&#x2198;" horiz-adv-x="638" 
d="M573 576l51 -63l-74 -424h-424l-52 63h380l-339 412l51 43l340 -412z" />
    <glyph glyph-name="arrowdown" unicode="&#x2193;" horiz-adv-x="720" 
d="M371 127l314 267l-17 -94l-352 -300l-247 300l15 86l220 -267l102 581h66z" />
    <glyph glyph-name="uni2199" unicode="&#x2199;" horiz-adv-x="639" 
d="M633 558l-478 -406h375l-74 -63h-424l74 424l75 63l-66 -374l477 405z" />
    <glyph glyph-name="arrowleft" unicode="&#x2190;" horiz-adv-x="820" 
d="M783 382l-11 -64h-580l221 -268h-88l-247 300l353 300l92 -1l-314 -267h574z" />
    <glyph glyph-name="uni2196" unicode="&#x2196;" horiz-adv-x="638" 
d="M595 524h-380l339 -412l-51 -43l-339 412l-67 -381l-52 63l75 424h424z" />
    <glyph glyph-name="arrowboth" unicode="&#x2194;" horiz-adv-x="1040" 
d="M793 600l205 -250l-293 -250h-95l256 218h-675l179 -218h-87l-205 250l293 250h95l-256 -218h675l-179 218h87z" />
    <glyph glyph-name="arrowupdn" unicode="&#x2195;" horiz-adv-x="620" 
d="M599 474l-178 217l-118 -673l254 216l-17 -95l-293 -249l-206 249l15 86l179 -217l119 675l-256 -216l17 94l294 249l205 -249z" />
    <glyph glyph-name="lozenge" unicode="&#x25ca;" horiz-adv-x="540" 
d="M192 0l-124 350l247 350h68l125 -350l-248 -350h-68zM235 71l203 287l-97 271l-203 -287z" />
    <glyph glyph-name="at" unicode="@" horiz-adv-x="795" 
d="M469 612c213 0 317 -183 288 -348c-27 -153 -108 -206 -180 -206c-49 0 -91 25 -96 84c-32 -32 -75 -52 -121 -52c-89 0 -150 74 -134 164s93 156 190 156c42 0 76 -20 97 -52l8 45h62l-38 -216c-8 -48 -4 -96 48 -96c53 0 111 48 134 179c31 179 -83 314 -263 314
c-187 0 -358 -138 -392 -330c-34 -193 90 -338 292 -338c69 0 128 10 179 29l-5 -30c-50 -17 -108 -27 -179 -27c-216 0 -354 162 -317 372c35 200 219 352 427 352zM374 150c55 0 109 39 120 100s-29 100 -84 100c-56 0 -111 -39 -122 -100s30 -100 86 -100z" />
    <glyph glyph-name="ampersand" unicode="&#x26;" horiz-adv-x="663" 
d="M594 272c-17 -47 -43 -100 -80 -147l83 -107l-61 -30l-67 87c-56 -51 -128 -87 -219 -87c-138 0 -222 84 -199 211c15 81 68 148 174 194c-23 38 -38 81 -28 141c18 108 108 178 221 178c99 0 170 -56 197 -139l-61 -33c-18 65 -71 104 -138 104
c-68 0 -136 -39 -149 -116c-9 -54 13 -99 42 -137l165 -214c28 38 50 83 66 131zM255 56c68 0 126 26 174 70l-164 213c-94 -35 -133 -88 -144 -146c-15 -85 39 -137 134 -137z" />
    <glyph glyph-name="paragraph" unicode="&#xb6;" horiz-adv-x="580" 
d="M619 700l-11 -62h-60l-147 -838h-64l147 838h-112l-147 -838h-64l88 500c-112 1 -183 95 -164 204c20 111 123 196 234 196h300z" />
    <glyph glyph-name="section" unicode="&#xa7;" horiz-adv-x="515" 
d="M350 436c76 -36 142 -86 126 -181c-9 -50 -43 -91 -89 -119c24 -29 37 -64 29 -109c-15 -82 -87 -139 -198 -139c-103 0 -168 52 -198 133l60 32c19 -71 71 -101 145 -101c63 0 116 25 126 81c11 65 -67 101 -144 134c-78 34 -142 84 -126 178c9 52 45 93 95 122
c-22 27 -33 62 -25 106c14 82 88 139 189 139c82 0 145 -45 172 -120l-58 -31c-23 61 -67 87 -121 87c-53 0 -107 -25 -117 -81c-11 -63 60 -96 134 -131zM410 261c10 58 -34 91 -98 118c-32 14 -66 29 -94 49c-43 -23 -66 -56 -71 -89c-9 -57 32 -90 95 -115
c34 -14 70 -30 101 -50c40 24 62 55 67 87z" />
    <glyph glyph-name="copyright" unicode="&#xa9;" horiz-adv-x="804" 
d="M356 -12c-197 0 -333 168 -297 368c35 200 222 356 425 356c197 0 332 -168 297 -368c-36 -200 -222 -356 -425 -356zM361 16c186 0 357 149 390 334c32 185 -89 334 -272 334c-186 0 -358 -149 -390 -334c-33 -185 89 -334 272 -334zM389 158c-105 0 -179 91 -160 198
s112 186 224 186c68 0 125 -39 152 -94l-55 -28c-24 41 -65 60 -108 60c-80 0 -136 -63 -148 -130s26 -130 102 -130c45 0 95 21 124 65l51 -34c-41 -56 -108 -93 -182 -93z" />
    <glyph glyph-name="registered" unicode="&#xae;" horiz-adv-x="804" 
d="M484 712c197 0 332 -168 297 -368c-36 -200 -222 -356 -425 -356c-197 0 -333 168 -297 368c35 200 222 356 425 356zM751 350c32 185 -89 334 -272 334c-186 0 -358 -149 -390 -334c-33 -185 89 -334 272 -334c186 0 357 149 390 334zM460 535c89 0 126 -61 115 -123
c-9 -52 -38 -89 -88 -105l54 -142h-65l-48 132h-10h-56l-23 -132h-62l65 370h118zM513 416c7 36 -11 59 -59 59h-61l-20 -118h60c48 0 74 24 80 59z" />
    <glyph glyph-name="trademark" unicode="&#x2122;" horiz-adv-x="466" 
d="M268 663h-56l-29 -163h-40l29 163h-59l7 37h155zM505 700l-35 -200h-40l23 134l-80 -100h-4l-42 98l-23 -132h-40l35 200h40l41 -102l80 102h45z" />
    <glyph glyph-name="degree" unicode="&#xb0;" horiz-adv-x="386" 
d="M239 510c-86 0 -140 71 -126 154c15 83 89 146 179 146c86 0 141 -71 126 -154c-14 -83 -81 -146 -179 -146zM250 570c53 0 96 40 104 90c9 50 -20 90 -73 90s-95 -40 -104 -90c-8 -50 16 -90 73 -90z" />
    <glyph glyph-name="bar" unicode="|" horiz-adv-x="226" 
d="M1 -200l162 920h66l-162 -920h-66z" />
    <glyph glyph-name="brokenbar" unicode="&#xa6;" horiz-adv-x="226" 
d="M98 350l65 370h66l-65 -370h-66zM1 -200l65 370h66l-65 -370h-66z" />
    <glyph glyph-name="dagger" unicode="&#x2020;" horiz-adv-x="480" 
d="M470 535l-11 -64h-147l-83 -471h-66l83 471h-147l11 64h147l29 165h66l-29 -165h147z" />
    <glyph glyph-name="daggerdbl" unicode="&#x2021;" horiz-adv-x="480" 
d="M459 471h-147l-43 -242h147l-11 -64h-147l-29 -165h-66l29 165h-147l11 64h147l43 242h-147l11 64h147l29 165h66l-29 -165h147z" />
    <glyph glyph-name="estimated" unicode="&#x212e;" horiz-adv-x="820" 
d="M491 710c217 0 342 -161 307 -360c-2 -10 -8 -15 -18 -15h-560c-10 0 -16 -5 -18 -15l-33 -192c-2 -8 -1 -13 3 -19c44 -57 113 -89 218 -89c99 0 183 36 250 97c6 6 9 9 19 9h35c13 0 17 -9 6 -19c-80 -72 -185 -117 -316 -117c-237 0 -360 171 -325 370
s207 350 432 350zM688 574c1 8 0 13 -4 19c-44 57 -113 87 -198 87s-165 -32 -229 -89c-6 -6 -9 -11 -10 -19l-34 -192c-2 -10 2 -15 12 -15h410c10 0 16 5 18 15z" />
    <glyph glyph-name="uni2116" unicode="&#x2116;" horiz-adv-x="1017" 
d="M852 412c-86 0 -140 71 -126 154c15 83 89 146 179 146c86 0 141 -71 126 -154c-14 -83 -81 -146 -179 -146zM36 0l123 700h54l297 -569l99 569h70l-123 -700h-54l-296 569l-100 -569h-70zM863 472c53 0 96 40 104 90c9 50 -20 90 -73 90s-95 -40 -104 -90
c-8 -50 16 -90 73 -90zM687 278l11 64h282l-11 -64h-282z" />
    <glyph glyph-name="asciicircum" unicode="^" horiz-adv-x="500" 
d="M362 700l124 -300h-72l-93 227l-173 -227h-82l228 300h68z" />
    <glyph glyph-name="uni0308" unicode="&#x308;" horiz-adv-x="0" 
d="M-197 575c-25 0 -42 20 -37 45c4 25 28 45 53 45s41 -20 37 -45c-5 -25 -28 -45 -53 -45zM-7 575c-25 0 -42 20 -37 45c4 25 28 45 53 45s41 -20 37 -45c-5 -25 -28 -45 -53 -45z" />
    <glyph glyph-name="uni0307" unicode="&#x307;" horiz-adv-x="0" 
d="M-19 570c-31 0 -51 24 -45 55c5 31 33 55 64 55s51 -24 46 -55c-6 -31 -34 -55 -65 -55z" />
    <glyph glyph-name="gravecomb" unicode="&#x300;" horiz-adv-x="0" 
d="M37 570l-58 130h-80l74 -130h64z" />
    <glyph glyph-name="acutecomb" unicode="&#x301;" horiz-adv-x="0" 
d="M-123 570h66l116 130h-82z" />
    <glyph glyph-name="uni030B" unicode="&#x30b;" horiz-adv-x="0" 
d="M-260 570h70l96 130h-76zM-117 570h70l106 130h-76z" />
    <glyph glyph-name="uni0302" unicode="&#x302;" horiz-adv-x="0" 
d="M36 570h-72l-55 87l-85 -87h-78l128 130h78z" />
    <glyph glyph-name="uni030C" unicode="&#x30c;" horiz-adv-x="0" 
d="M-20 700h79l-128 -130h-78l-84 130h71l55 -86z" />
    <glyph glyph-name="uni0306" unicode="&#x306;" horiz-adv-x="0" 
d="M-104 562c-79 0 -133 47 -118 130h64c-10 -54 14 -72 63 -72s80 23 89 72h64c-15 -83 -71 -130 -162 -130z" />
    <glyph glyph-name="uni030A" unicode="&#x30a;" horiz-adv-x="0" 
d="M-71 550c-67 0 -100 48 -91 103c9 57 60 97 121 97c68 0 99 -50 91 -103c-9 -57 -59 -97 -121 -97zM-65 601c32 0 56 21 61 49c5 30 -13 49 -43 49c-29 0 -54 -18 -60 -49c-5 -28 10 -49 42 -49z" />
    <glyph glyph-name="tildecomb" unicode="&#x303;" horiz-adv-x="0" 
d="M-242 580c20 125 97 139 157 87c46 -40 71 -56 85 23h58c-20 -125 -96 -139 -156 -87c-46 40 -72 56 -86 -23h-58z" />
    <glyph glyph-name="uni0304" unicode="&#x304;" horiz-adv-x="0" 
d="M-222 580l10 58h260l-10 -58h-260z" />
    <glyph glyph-name="uni0312" unicode="&#x312;" horiz-adv-x="0" 
d="M59 960l-60 -170h66l40 170h-46z" />
    <glyph glyph-name="uni0326" unicode="&#x326;" horiz-adv-x="0" 
d="M-136 -240l60 170h-66l-40 -170h46z" />
    <glyph glyph-name="uni0327" unicode="&#x327;" horiz-adv-x="0" 
d="M-165 -45c53 -10 85 -45 78 -86c-9 -50 -50 -97 -220 -85l10 54c96 -8 147 7 152 36c5 28 -30 42 -86 41l15 85h59z" />
    <glyph glyph-name="uni0328" unicode="&#x328;" horiz-adv-x="0" 
d="M-159 -212c-57 0 -77 44 -70 86s40 84 96 126h69c-53 -42 -93 -87 -98 -120c-3 -20 8 -35 29 -35c15 0 28 3 43 9l-10 -56c-16 -7 -34 -10 -59 -10z" />
    <glyph glyph-name="acute" unicode="&#xb4;" horiz-adv-x="199" 
d="M76 570h66l116 130h-82z" />
    <glyph glyph-name="breve" unicode="&#x2d8;" horiz-adv-x="320" 
d="M216 562c-79 0 -133 47 -118 130h64c-10 -54 14 -72 63 -72s80 23 89 72h64c-15 -83 -71 -130 -162 -130z" />
    <glyph glyph-name="caron" unicode="&#x2c7;" horiz-adv-x="330" 
d="M310 700h79l-128 -130h-78l-84 130h71l55 -86z" />
    <glyph glyph-name="cedilla" unicode="&#xb8;" horiz-adv-x="245" 
d="M80 -45c53 -10 85 -45 78 -86c-9 -50 -50 -97 -220 -85l10 54c96 -8 147 7 152 36c5 28 -30 42 -86 41l15 85h59z" />
    <glyph glyph-name="circumflex" unicode="&#x2c6;" horiz-adv-x="330" 
d="M366 570h-72l-55 87l-85 -87h-78l128 130h78z" />
    <glyph glyph-name="dieresis" unicode="&#xa8;" horiz-adv-x="320" 
d="M123 575c-25 0 -42 20 -37 45c4 25 28 45 53 45s41 -20 37 -45c-5 -25 -28 -45 -53 -45zM313 575c-25 0 -42 20 -37 45c4 25 28 45 53 45s41 -20 37 -45c-5 -25 -28 -45 -53 -45z" />
    <glyph glyph-name="dotaccent" unicode="&#x2d9;" horiz-adv-x="130" 
d="M126 570c-31 0 -51 24 -45 55c5 31 33 55 64 55s51 -24 46 -55c-6 -31 -34 -55 -65 -55z" />
    <glyph glyph-name="grave" unicode="`" horiz-adv-x="201" 
d="M237 570l-58 130h-80l74 -130h64z" />
    <glyph glyph-name="hungarumlaut" unicode="&#x2dd;" horiz-adv-x="336" 
d="M76 570h70l96 130h-76zM219 570h70l106 130h-76z" />
    <glyph glyph-name="macron" unicode="&#xaf;" horiz-adv-x="300" 
d="M78 580l10 58h260l-10 -58h-260z" />
    <glyph glyph-name="ogonek" unicode="&#x2db;" horiz-adv-x="183" 
d="M24 -212c-57 0 -77 44 -70 86s40 84 96 126h69c-53 -42 -93 -87 -98 -120c-3 -20 8 -35 29 -35c15 0 28 3 43 9l-10 -56c-16 -7 -34 -10 -59 -10z" />
    <glyph glyph-name="ring" unicode="&#x2da;" horiz-adv-x="253" 
d="M182 550c-67 0 -100 48 -91 103c9 57 60 97 121 97c68 0 99 -50 91 -103c-9 -57 -59 -97 -121 -97zM188 601c32 0 56 21 61 49c5 30 -13 49 -43 49c-29 0 -54 -18 -60 -49c-5 -28 10 -49 42 -49z" />
    <glyph glyph-name="tilde" unicode="&#x2dc;" horiz-adv-x="320" 
d="M78 580c20 125 97 139 157 87c46 -40 71 -56 85 23h58c-20 -125 -96 -139 -156 -87c-46 40 -72 56 -86 -23h-58z" />
    <glyph glyph-name="brevecy" horiz-adv-x="300" 
d="M78 580l10 58h260l-10 -58h-260z" />
    </font>
</defs>
</svg>
