<?xml version="1.0" standalone="no"?>
<!DOCTYPE svg PUBLIC "-//W3C//DTD SVG 1.1//EN" "http://www.w3.org/Graphics/SVG/1.1/DTD/svg11.dtd" >
<svg xmlns="http://www.w3.org/2000/svg">
<metadata>Generated by IcoMoon</metadata>
<defs>
<font id="fau" horiz-adv-x="1024">
<font-face units-per-em="1024" ascent="960" descent="-64" />
<missing-glyph horiz-adv-x="1024" />
<glyph unicode="&#x20;" horiz-adv-x="512" d="" />
<glyph unicode="&#xe900;" glyph-name="book-download" d="M848.457 769.829v-596.114c0-10.971-7.314-18.286-18.286-18.286h-171.886c-10.971 0-18.286 7.314-18.286 18.286s7.314 18.286 18.286 18.286h153.6v559.543h-537.6c-25.6 0-47.543 10.971-65.829 25.6v-519.314c0-36.571 29.257-65.829 65.829-65.829h128c10.971 0 18.286-7.314 18.286-18.286s-7.314-18.286-18.286-18.286h-128c-58.514 0-102.4 47.543-102.4 102.4v596.114c0 58.514 47.543 102.4 102.4 102.4h555.886c10.971 0 18.286-7.314 18.286-18.286s-7.314-18.286-18.286-18.286h-555.886c-36.571 0-65.829-29.257-65.829-65.829s29.257-65.829 65.829-65.829h555.886c10.971-3.657 18.286-10.971 18.286-18.286zM625.371 78.629l-76.8-76.8v446.171c0 10.971-7.314 18.286-18.286 18.286s-18.286-7.314-18.286-18.286v-446.171l-76.8 76.8c-7.314 7.314-18.286 7.314-25.6 0s-7.314-18.286 0-25.6l106.057-106.057s3.657-3.657 7.314-3.657h14.628s3.657 3.657 7.314 3.657l106.057 106.057c7.314 7.314 7.314 18.286 0 25.6s-18.286 3.657-25.6 0zM277.943 872.229c-10.971 0-18.286-7.314-18.286-18.286s7.314-18.286 18.286-18.286h512c10.971 0 18.286 7.314 18.286 18.286s-7.314 18.286-18.286 18.286h-512z" />
<glyph unicode="&#xe901;" glyph-name="calendar" d="M1002.060 872.229h-153.6v65.829c0 10.971-7.314 18.286-18.286 18.286h-128c-10.971 0-18.286-7.314-18.286-18.286v-65.829h-347.429v65.829c0 10.971-7.314 18.286-18.286 18.286h-128c-10.971 0-18.286-7.314-18.286-18.286v-65.829h-153.6c-10.971 0-18.286-7.314-18.286-18.286v-896c0-10.971 7.314-18.286 18.286-18.286h980.114c10.971 0 18.286 7.314 18.286 18.286v896c3.657 10.971-3.657 18.286-14.629 18.286h0.002zM724.114 919.771h91.429v-135.314h-91.429v135.314zM212.114 919.771h91.429v-135.314h-91.429v135.314zM175.543 835.657v-65.829c0-10.971 7.314-18.286 18.286-18.286h128c10.971 0 18.286 7.314 18.286 18.286v65.829h347.429v-65.829c0-10.971 7.314-18.286 18.286-18.286h128c10.971 0 18.286 7.314 18.286 18.286v65.829h135.314v-175.543h-943.543v175.543h131.657zM40.229-23.771v647.314h943.543v-647.314zM917.943 451.657c10.971 0 18.286 7.314 18.286 18.286s-7.314 18.286-18.286 18.286h-193.829v65.829c0 10.971-7.314 18.286-18.286 18.286s-18.286-7.314-18.286-18.286v-65.829h-175.543v65.829c0 10.971-7.314 18.286-18.286 18.286s-18.286-7.314-18.286-18.286v-65.829h-175.543v65.829c0 10.971-7.314 18.286-18.286 18.286s-18.286-7.314-18.286-18.286v-65.829h-153.6c-10.971 0-18.286-7.314-18.286-18.286s7.314-18.286 18.286-18.286h153.6v-135.314h-153.6c-10.971 0-18.286-7.314-18.286-18.286s7.314-18.286 18.286-18.286h153.6v-135.314h-153.6c-10.971 0-18.286-7.314-18.286-18.286s7.314-18.286 18.286-18.286h153.6v-65.829c0-10.971 7.314-18.286 18.286-18.286s18.286 7.314 18.286 18.286v65.829h175.543v-65.829c0-10.971 7.314-18.286 18.286-18.286s18.286 7.314 18.286 18.286v65.829h175.543v-65.829c0-10.971 7.314-18.286 18.286-18.286s18.286 7.314 18.286 18.286v65.829h193.829c10.971 0 18.286 7.314 18.286 18.286s-7.314 18.286-18.286 18.286h-193.829v135.314h193.829c10.971 0 18.286 7.314 18.286 18.286s-7.314 18.286-18.286 18.286h-193.829v135.314zM296.229 451.657h175.543v-135.314h-175.543v135.314zM296.229 148.114v135.314h175.543v-135.314h-175.543zM687.543 148.114h-175.543v135.314h175.543v-135.314zM687.543 316.343h-175.543v135.314h175.543v-135.314z" />
<glyph unicode="&#xe902;" glyph-name="eco-globe" d="M1016.69 184.686c-47.543 47.543-91.429 62.171-146.286 47.543l-160.914-54.857c-3.657 29.257-25.6 54.857-69.486 54.857h-120.686c-29.257 29.257-102.4 84.114-201.143 84.114h-109.714v25.6c0 10.971-7.314 18.286-18.286 18.286h-171.886c-10.971 0-18.286-7.314-18.286-18.286v-340.114c0-10.971 7.314-18.286 18.286-18.286h171.886c10.971 0 18.286 7.314 18.286 18.286v40.229c43.886-14.629 84.114-29.257 117.029-40.229 106.057-36.571 164.571-58.514 215.771-58.514 65.829 0 120.686 29.257 245.029 95.086 58.514 29.257 128 69.486 223.086 117.029 3.657 3.657 7.314 7.314 10.971 14.629 0 3.657 0 10.971-3.657 14.629v-0.002zM175.543 16.457h-135.314v303.543h135.314v-303.543zM768 67.657c-212.114-113.371-212.114-113.371-431.543-36.571-36.571 10.971-80.457 29.257-128 43.886v204.8h109.714c87.771 0 153.6-54.857 179.2-80.457 3.657-3.657 7.314-3.657 14.629-3.657h128c21.943 0 32.914-10.971 32.914-25.6 0-10.971-10.971-25.6-32.914-25.6h-234.057c-10.971 0-18.286-7.314-18.286-18.286s7.314-18.286 18.286-18.286h234.057c25.6 0 43.886 10.971 58.514 25.6l182.857 62.171c29.257 7.314 54.857 7.314 91.429-21.943-87.771-40.229-149.943-76.8-204.8-106.057zM299.886 426.057c7.314 3.657 10.971 14.629 7.314 25.6-21.943 43.886-32.914 95.086-32.914 146.286 0 179.2 146.286 321.829 321.829 321.829h21.943c-36.571-14.629-73.143-40.229-69.486-73.143 3.657-21.943 10.971-36.571 25.6-47.543 14.629-7.314 32.914-7.314 51.2-3.657v-51.2c-7.314 0-14.629-3.657-21.943-3.657-21.943-3.657-51.2-10.971-65.829-3.657-3.657 3.657-3.657 10.971-10.971 14.629-14.629 14.629-43.886 14.629-84.114 7.314-87.771-18.286-87.771-131.657-87.771-135.314 0-25.6 14.629-76.8 62.171-76.8h21.943c18.286 0 36.571 3.657 40.229-3.657 3.657-3.657 7.314-14.629 7.314-21.943 0-3.657 3.657-10.971 3.657-14.629 10.971-10.971 21.943-25.6 25.6-32.914 0-3.657-3.657-7.314-7.314-14.629s-10.971-18.286-10.971-29.257c0-18.286 29.257-91.429 62.171-91.429 62.171 0 102.4 29.257 106.057 80.457 10.971 3.657 25.6 14.629 40.229 29.257 7.314 7.314 14.629 18.286 10.971 25.6 0 14.629-10.971 21.943-18.286 29.257v0c3.657 3.657 7.314 7.314 10.971 14.629 29.257 29.257 76.8 80.457 40.229 117.029-7.314 7.314-14.629 7.314-21.943 3.657s-14.629-3.657-21.943-3.657c-7.314 21.943-14.629 40.229-18.286 47.543 14.629 7.314 43.886 18.286 73.143 10.971h10.971c40.229 21.943 62.171 58.514 73.143 87.771 40.229-54.857 62.171-120.686 62.171-190.171 0-113.371-62.171-219.429-157.257-277.943-7.314-3.657-10.971-14.629-7.314-25.6 3.657-7.314 10.971-7.314 14.629-7.314s7.314 0 10.971 3.657c109.714 65.829 175.543 182.857 175.543 310.857 0 91.429-36.571 175.543-91.429 237.714 0 3.657-3.657 3.657-3.657 3.657-43.886 47.543-98.743 80.457-160.914 98.743v0c-32.914 10.971-65.829 14.629-102.4 14.629-197.486 0-358.4-160.914-358.4-358.4 0-58.514 14.629-109.714 36.571-160.914 18.286-3.657 29.257-7.314 36.571-3.657zM830.171 821.029c-3.657-18.286-21.943-65.829-58.514-87.771-54.857 10.971-106.057-18.286-117.029-32.914-7.314-10.971-3.657-18.286-3.657-21.943 3.657-3.657 7.314-7.314 14.629-10.971 3.657-7.314 10.971-25.6 18.286-47.543 0-3.657 3.657-7.314 3.657-7.314 14.629-14.629 32.914-14.629 47.543-10.971-3.657-14.629-25.6-40.229-40.229-58.514-18.286-18.286-25.6-25.6-25.6-40.229s10.971-21.943 18.286-29.257l3.657-3.657c-18.286-18.286-36.571-25.6-36.571-25.6-7.314-3.657-10.971-10.971-10.971-18.286 0-14.629 0-54.857-65.829-54.857-10.971 7.314-29.257 43.886-29.257 54.857 0 3.657 3.657 7.314 3.657 14.629 3.657 7.314 10.971 18.286 10.971 29.257 0 18.286-18.286 36.571-29.257 51.2 0 18.286-7.314 32.914-18.286 43.886-18.286 18.286-43.886 14.629-69.486 14.629h-21.943c-25.6 0-25.6 40.229-25.6 40.229s0 87.771 58.514 102.4c14.629 3.657 25.6 3.657 32.914 3.657 14.629 0 18.286-3.657 18.286 0 0-3.657 3.657-10.971 3.657-10.971 29.257-29.257 69.486-18.286 102.4-10.971 10.971 3.657 21.943 3.657 29.257 3.657s18.286 7.314 18.286 14.629c7.314 58.514 3.657 95.086-10.971 106.057-7.314 7.314-18.286 7.314-29.257 0-10.971-3.657-18.286-7.314-25.6-3.657s-7.314 10.971-7.314 18.286 51.2 40.229 109.714 54.857c47.543-10.971 95.086-40.229 131.657-76.8z" />
<glyph unicode="&#xe903;" glyph-name="file-new" d="M892.343 689.371c0 3.657-3.657 3.657-3.657 7.314l-256 256s-3.657 3.657-7.314 3.657h-475.428c-10.971 0-18.286-7.314-18.286-18.286v-980.114c0-10.971 7.314-18.286 18.286-18.286h724.114c10.971 0 18.286 7.314 18.286 18.286v731.428zM636.343 894.171l193.829-193.829h-193.829zM168.229-23.771v943.543h431.543v-237.714c0-10.971 7.314-18.286 18.286-18.286h237.714v-687.543zM299.886 638.171c0 10.971 7.314 18.286 18.286 18.286h190.171c10.971 0 18.286-7.314 18.286-18.286s-7.314-18.286-18.286-18.286h-190.171c-7.314 3.657-18.286 10.971-18.286 18.286zM724.114 513.829c0-10.971-7.314-18.286-18.286-18.286h-384c-10.971 0-18.286 7.314-18.286 18.286s7.314 18.286 18.286 18.286h384c7.314-3.657 18.286-10.971 18.286-18.286zM724.114 382.171c0-10.971-7.314-18.286-18.286-18.286h-384c-10.971 0-18.286 7.314-18.286 18.286s7.314 18.286 18.286 18.286h384c7.314 3.657 18.286-7.314 18.286-18.286zM724.114 257.829c0-10.971-7.314-18.286-18.286-18.286h-384c-10.971 0-18.286 7.314-18.286 18.286s7.314 18.286 18.286 18.286h384c7.314-3.657 18.286-10.971 18.286-18.286zM724.114 126.171c0-10.971-7.314-18.286-18.286-18.286h-384c-10.971 0-18.286 7.314-18.286 18.286s7.314 18.286 18.286 18.286h384c7.314 3.657 18.286-7.314 18.286-18.286z" />
<glyph unicode="&#xe904;" glyph-name="files-outline" d="M938.667 819.2c0 4.267-4.267 4.267-4.267 8.533l-128 128s-4.267 4.267-8.533 4.267h-221.866c-12.8 0-21.333-8.533-21.333-21.333v-426.667c0-12.8 8.533-21.333 21.333-21.333h341.333c12.8 0 21.333 8.533 21.333 21.333v307.2zM810.667 887.467l55.467-55.467h-55.467v55.467zM597.333 533.333v384h170.667v-106.667c0-12.8 8.533-21.333 21.333-21.333h106.667v-256h-298.667zM465.067 827.733l-128 128s-4.267 4.267-8.533 4.267h-221.866c-12.8 0-21.333-8.533-21.333-21.333v-426.667c0-12.8 8.533-21.333 21.333-21.333h341.333c12.8 0 21.333 8.533 21.333 21.333v307.2c-4.267 4.267-4.267 4.267-4.267 8.533zM341.333 887.467l55.467-55.467h-55.467v55.467zM128 533.333v384h170.667v-106.667c0-12.8 8.533-21.333 21.333-21.333h106.667v-256h-298.667zM934.4 273.067l-128 128s-4.267 4.267-8.533 4.267h-221.866c-12.8 0-21.333-8.533-21.333-21.333v-426.667c0-12.8 8.533-21.333 21.333-21.333h341.333c12.8 0 21.333 8.533 21.333 21.333v307.2c-4.267 4.267-4.267 4.267-4.267 8.533zM810.667 332.8l55.467-55.467h-55.467v55.467zM597.333-21.333v384h170.667v-106.667c0-12.8 8.533-21.333 21.333-21.333h106.667v-256h-298.667zM465.067 273.067l-128 128s-4.267 4.267-8.533 4.267h-221.866c-12.8 0-21.333-8.533-21.333-21.333v-426.667c0-12.8 8.533-21.333 21.333-21.333h341.333c12.8 0 21.333 8.533 21.333 21.333v307.2c-4.267 4.267-4.267 4.267-4.267 8.533zM341.333 332.8l55.467-55.467h-55.467v55.467zM128-21.333v384h170.667v-106.667c0-12.8 8.533-21.333 21.333-21.333h106.667v-256h-298.667z" />
<glyph unicode="&#xe905;" glyph-name="newspaper" d="M618.057 791.771h-468.114c-10.971 0-18.286 7.314-18.286 18.286s7.314 18.286 18.286 18.286h468.114c10.971 0 18.286-7.314 18.286-18.286s-7.314-18.286-18.286-18.286zM380.343 426.057v256c0 10.971-7.314 18.286-18.286 18.286h-212.114c-10.971 0-18.286-7.314-18.286-18.286v-256c0-10.971 7.314-18.286 18.286-18.286h212.114c10.971 0 18.286 7.314 18.286 18.286zM168.229 663.771h175.543v-219.429h-175.543zM636.343 597.943c0 10.971-7.314 18.286-18.286 18.286h-128c-10.971 0-18.286-7.314-18.286-18.286s7.314-18.286 18.286-18.286h128c10.971 0 18.286 7.314 18.286 18.286zM636.343 513.829c0 10.971-7.314 18.286-18.286 18.286h-171.886c-10.971 0-18.286-7.314-18.286-18.286s7.314-18.286 18.286-18.286h171.886c10.971-3.657 18.286 7.314 18.286 18.286zM636.343 426.057c0 10.971-7.314 18.286-18.286 18.286h-171.886c-10.971 0-18.286-7.314-18.286-18.286s7.314-18.286 18.286-18.286h171.886c10.971 0 18.286 7.314 18.286 18.286zM636.343 341.943c0 10.971-7.314 18.286-18.286 18.286h-468.114c-10.971 0-18.286-7.314-18.286-18.286s7.314-18.286 18.286-18.286h468.114c10.971 0 18.286 7.314 18.286 18.286zM636.343 257.829c0 10.971-7.314 18.286-18.286 18.286h-468.114c-10.971 0-18.286-7.314-18.286-18.286s7.314-18.286 18.286-18.286h468.114c10.971-3.657 18.286 7.314 18.286 18.286zM636.343 170.057c0 10.971-7.314 18.286-18.286 18.286h-468.114c-10.971 0-18.286-7.314-18.286-18.286s7.314-18.286 18.286-18.286h468.114c10.971 0 18.286 7.314 18.286 18.286zM936.229 85.943v640c0 10.971-7.314 18.286-18.286 18.286h-65.829v131.657c0 10.971-7.314 18.286-18.286 18.286h-84.114c-10.971 0-18.286-7.314-18.286-18.286v-84.114c0-10.971 7.314-18.286 18.286-18.286s18.286 7.314 18.286 18.286v65.829h47.543v-771.657c0-32.914 25.6-62.171 62.171-62.171s58.514 29.257 58.514 62.171zM899.657 707.657v-621.714c0-14.629-10.971-25.6-25.6-25.6s-25.6 10.971-25.6 25.6v621.714h51.2zM1020.34 85.943v724.114c0 10.971-7.314 18.286-18.286 18.286h-171.886c-10.971 0-18.286-7.314-18.286-18.286s7.314-18.286 18.286-18.286h153.6v-705.829c0-62.171-47.543-109.714-109.714-109.714s-109.714 47.543-109.714 109.714v852.114c0 10.971-7.314 18.286-18.286 18.286h-724.114c-10.971 0-18.286-7.314-18.286-18.286v-852.114c0-80.457 65.829-146.286 146.286-146.286h724.114c80.457 0 146.286 65.829 146.286 146.286zM727.771 919.771v-833.829c0-43.886 18.286-84.114 51.2-109.714h-629.029c-62.171 0-109.714 47.543-109.714 109.714v833.829h687.543z" />
<glyph unicode="&#xe906;" glyph-name="medal" d="M512 616.229c-186.514 0-336.457-149.943-336.457-340.114s149.943-336.457 336.457-336.457 336.457 149.943 336.457 336.457c0 186.514-149.943 340.114-336.457 340.114zM512-23.771c-164.571 0-299.886 135.314-299.886 299.886s135.314 303.543 299.886 303.543 299.886-135.314 299.886-303.543c3.657-164.571-131.657-299.886-299.886-299.886zM705.829 360.229h-117.029l-58.514 117.029c-7.314 10.971-25.6 10.971-32.914 0l-58.514-117.029h-117.029c-7.314 0-14.629-3.657-18.286-10.971s0-14.629 7.314-21.943l98.743-76.8-40.229-138.971c-3.657-7.314 0-14.629 7.314-18.286 3.657-3.657 7.314-3.657 10.971-3.657s7.314 0 10.971 3.657l117.029 73.143 117.029-73.143c7.314-3.657 14.629-3.657 21.943 0s7.314 10.971 7.314 18.286l-40.229 138.971 98.743 76.8c7.314 3.657 7.314 14.629 7.314 21.943-7.314 3.657-14.629 10.971-21.943 10.971h0.002zM585.143 268.8c-7.314-3.657-7.314-10.971-7.314-18.286l29.257-102.4-87.771 54.857c-7.314 3.657-14.629 3.657-18.286 0l-87.771-54.857 29.257 102.4c3.657 7.314 0 14.629-7.314 18.286l-65.829 51.2h76.8c7.314 0 14.629 3.657 14.629 10.971l47.543 95.086 47.543-95.086c3.657-7.314 10.971-10.971 14.629-10.971h76.8l-62.173-51.2zM998.4 930.743l-171.886-354.743c-3.657-7.314-10.971-10.971-18.286-10.971h-7.314c-7.314 3.657-14.629 14.629-7.314 25.6l157.257 329.143h-65.829l-135.314-285.257c0-3.657-3.657-3.657-7.314-7.314h-3.657s-3.657-3.657-7.314-3.657v0 0h-7.314c-7.314 3.657-14.629 14.629-7.314 25.6l128 270.629h-65.829l-117.029-245.029c-3.657-7.314-14.629-14.629-25.6-7.314-7.314 3.657-14.629 14.629-7.314 25.6l120.686 256c3.657 7.314 10.971 10.971 18.286 10.971h212.114c7.314 0 10.971-3.657 14.629-7.314 7.314-10.971 7.314-14.629 3.657-21.943zM197.486 576l-171.886 354.743c-3.657 7.314-3.657 10.971 0 18.286 3.657 3.657 10.971 7.314 14.629 7.314h212.114c7.314 0 14.629-3.657 18.286-10.971l120.686-256c3.657-7.314 0-18.286-7.314-25.6-10.971-3.657-18.286 0-25.6 7.314l-117.029 245.029h-65.829l128-270.629c3.657-7.314 0-18.286-7.314-25.6h-7.314c-3.657 0-3.657 0-7.314 3.657h-3.657s-3.657 3.657-7.314 7.314l-135.314 285.257h-65.829l157.257-329.143c3.657-7.314 0-18.286-7.314-25.6h-7.314c-7.314 3.657-10.971 7.314-14.629 14.629z" />
<glyph unicode="&#xe907;" glyph-name="id-card" d="M1002.060 828.343h-980.114c-10.971 0-18.286-7.314-18.286-18.286v-683.886c0-10.971 7.314-18.286 18.286-18.286h171.886c10.971 0 18.286 7.314 18.286 18.286v32.914c0 32.914 25.6 54.857 54.857 54.857s54.857-25.6 54.857-54.857v-32.914c0-10.971 7.314-18.286 18.286-18.286h340.114c10.971 0 18.286 7.314 18.286 18.286v32.914c0 32.914 25.6 54.857 54.857 54.857 32.914 0 54.857-25.6 54.857-54.857v-32.914c0-10.971 7.314-18.286 18.286-18.286h171.886c10.971 0 18.286 7.314 18.286 18.286v683.886c3.657 10.971-3.657 18.286-14.629 18.286zM983.771 148.114h-135.314v14.629c0 51.2-40.229 91.429-91.429 91.429s-91.429-40.229-91.429-91.429v-14.629h-303.543v14.629c0 51.2-40.229 91.429-91.429 91.429s-91.429-40.229-91.429-91.429v-14.629h-135.314v647.314h943.543v-647.314zM149.943 367.543h299.886c10.971 0 18.286 7.314 18.286 18.286 0 54.857-29.257 113.371-98.743 135.314 21.943 18.286 36.571 47.543 36.571 76.8 0 58.514-47.543 102.4-102.4 102.4-58.514 0-102.4-47.543-102.4-102.4 0-29.257 14.629-58.514 36.571-76.8-73.143-21.943-98.743-84.114-98.743-135.314-7.314-10.971 0-18.286 10.971-18.286zM299.886 663.771c36.571 0 65.829-29.257 65.829-65.829s-29.257-65.829-65.829-65.829c-36.571 0-65.829 29.257-65.829 65.829-3.657 36.571 29.257 65.829 65.829 65.829zM299.886 491.886c84.114 0 120.686-43.886 128-91.429h-259.657c7.314 47.543 43.886 91.429 131.657 91.429zM896 367.543h-340.114v36.571h340.114v-36.571zM896 451.657h-340.114v36.571h340.114v-36.571zM896 535.771h-340.114v36.571h340.114v-36.571zM724.114 623.543h-171.886v36.571h171.886v-36.571z" />
<glyph unicode="&#xe908;" glyph-name="logo-owl" d="M926.964 603.876h4.063l1.3 8.94 3.576-8.94h1.625l3.738 8.94 1.138-8.94h4.063l-2.438 15.604h-3.901l-3.413-8.29-3.088 8.29h-4.063zM915.586 619.479v-3.413h3.413v-12.19h4.063v12.19h3.413v3.413h-10.889zM915.586 619.479h10.89v-3.413h-3.413v-12.19h-4.063v12.19h-3.413zM931.027 603.876h-4.063l2.601 15.604h4.063l3.088-8.29 3.413 8.29h3.901l2.438-15.604h-4.063l-1.138 8.94-3.738-8.94h-1.625l-3.576 8.94zM901.283 608.589c16.417 22.268 18.855 39.822 16.417 48.112-23.568-18.855-45.836-21.943-45.836-21.943 27.469 28.444 22.918 78.344 17.392 86.959-4.226-5.689-34.296-34.946-108.414-62.74l-3.251-1.138c-73.63 20.48-160.264 32.345-252.912 32.345-91.185 0-176.518-11.54-249.498-31.37l-0.65 0.325c-74.281 27.794-104.188 57.214-108.414 62.74-5.526-8.615-10.077-58.514 17.392-86.959 0 0-22.268 2.926-45.836 21.943-2.276-7.964-0.163-24.543 14.791-45.674-71.517-38.684-114.428-88.747-114.428-143.523 0-117.029 197.161-212.927 447.797-222.029 16.254-18.042 32.020-32.183 42.585-41.123 10.403 8.777 26.982 23.081 44.048 41.448 246.573 10.89 439.345 105.976 439.345 221.704-0.163 53.313-41.61 102.4-110.527 140.922zM731.916 606.801c86.471 25.844 140.759 75.743 140.759 75.743s0.813-73.468-144.823-123.043c-99.149-33.646-163.027-79.807-186.27-109.714-2.276 82.57 147.261 144.173 190.334 157.013zM716.637 466.042c0-13.653-14.466-24.706-32.345-24.706-12.678 0-23.568 5.526-28.932 13.491 18.204 9.427 36.246 18.692 52.988 27.469 5.201-4.226 8.29-9.915 8.29-16.254zM182.532 682.545c0 0 54.288-49.9 140.759-75.743 43.073-12.841 192.61-74.443 190.334-156.851-23.243 29.907-87.121 76.069-186.27 109.714-145.473 49.575-144.823 122.88-144.823 122.88zM359.375 408.665c30.395 0 57.214 11.865 72.818 29.745 8.777-4.389 17.392-8.615 25.681-12.841-22.918-20.968-57.377-34.296-95.898-34.296-68.917 0-124.83 42.585-124.83 95.248 0 16.579 5.526 32.183 15.441 45.836 1.95-0.975 4.063-2.113 6.014-3.088 0 0 11.053-6.014 29.095-15.604-10.077-10.89-15.929-24.056-15.929-38.359 0.325-36.897 39.335-66.641 87.609-66.641zM338.57 466.042c0 6.339 3.088 12.028 8.127 16.417 16.742-8.777 34.783-18.204 52.988-27.469-5.364-7.964-16.254-13.491-28.932-13.491-17.717-0.163-32.183 10.89-32.183 24.543zM125.481 467.667c0 38.847 23.406 74.931 63.553 105.163 3.413-2.763 6.827-5.364 10.728-8.127-16.254-21.293-25.519-46.161-25.519-72.493 0-10.403 1.463-20.48 4.063-30.232l-28.77 13.003c-10.24-84.846 141.247-155.55 257.463-130.682l-17.067-32.67 43.236 14.791c6.989-18.042 16.904-35.109 27.957-50.55-190.334 14.791-335.644 95.086-335.644 191.797zM528.742 238.649c-26.494 29.42-52.175 68.267-52.175 105.163 0 30.395 15.279 54.126 31.858 70.867-9.915-15.766-16.742-34.458-16.742-55.589 0-29.257 15.279-63.228 37.384-95.736l2.438 172.13s51.85-43.236 51.85-91.672c0.163-36.897-26.982-75.581-54.613-105.163zM623.015 438.41c15.604-18.042 42.423-29.745 72.818-29.745 48.274 0 87.446 29.907 87.446 66.641 0 14.303-5.851 27.469-15.929 38.359 18.042 9.59 29.095 15.604 29.095 15.604 2.113 0.975 4.063 2.113 6.014 3.088 9.752-13.653 15.441-29.257 15.441-45.836 0-52.5-55.914-95.248-124.83-95.248-38.522 0-72.98 13.328-95.898 34.296 8.452 4.226 17.067 8.452 25.844 12.841zM597.983 276.683c10.89 14.791 20.643 30.883 27.794 48.112l38.034-13.166-16.742 32.508c116.216-24.706 267.54 45.999 257.3 130.844l-28.77-13.003c2.763 9.752 4.063 19.83 4.063 30.232 0 26.169-9.102 50.55-24.869 71.68 3.088 2.276 6.014 4.389 8.777 6.664 38.359-29.907 60.627-65.178 60.627-102.888-0.325-95.086-140.759-174.243-326.217-190.984z" />
<glyph unicode="&#xe909;" glyph-name="pin" d="M1016.69 652.8l-299.886 299.886c-7.314 7.314-18.286 7.314-25.6 0l-84.114-84.114c-7.314-7.314-7.314-18.286 0-25.6l29.257-29.257-193.829-193.829h-164.571c-3.657 0-10.971-3.657-14.629-3.657l-65.829-65.829c-7.314-7.314-7.314-18.286 0-25.6l179.2-179.2-369.371-369.371c-7.314-7.314-7.314-18.286 0-25.6 3.657-3.657 7.314-3.657 14.629-3.657s10.971 0 14.629 3.657l369.371 369.371 179.2-179.2c3.657-3.657 7.314-3.657 14.629-3.657s10.971 3.657 14.629 3.657l65.829 65.829c3.657 3.657 3.657 7.314 3.657 14.629v153.6l193.829 193.829 29.257-29.257c3.657-3.657 7.314-3.657 14.629-3.657s10.971 3.657 14.629 3.657l84.114 84.114c3.657 3.657 3.657 7.314 3.657 14.629s-3.657 10.971-7.314 14.629zM917.943 579.657l-29.257 29.257c-3.657 3.657-7.314 3.657-14.629 3.657s-10.971-3.657-14.629-3.657l-212.114-212.114c-3.657-3.657-3.657-7.314-3.657-14.629v-164.571l-43.886-43.886-358.4 358.4 43.886 43.886h164.571c3.657 0 10.971 3.657 14.629 3.657l212.114 212.114c7.314 7.314 7.314 18.286 0 25.6l-29.257 29.257 58.514 58.514 274.286-274.286-62.171-51.199z" />
<glyph unicode="&#xe90a;" glyph-name="thumbs" d="M768 23.771h-277.943c-73.143 0-113.371 14.629-153.6 32.914-54.857 21.943-120.686 51.2-318.171 51.2-10.971 0-18.286 7.314-18.286 18.286v384c0 10.971 7.314 18.286 18.286 18.286h128c142.629 0 299.886 131.657 299.886 321.829 0 36.571 29.257 65.829 73.143 65.829 25.6 0 47.543-10.971 65.829-29.257 18.286-21.943 29.257-51.2 29.257-87.771 0-69.486-25.6-179.2-36.571-226.743h318.171c43.886 0 80.457-36.571 80.457-80.457 0-36.571-25.6-69.486-58.514-80.457 10.971-14.629 14.629-29.257 14.629-47.543 0-36.571-25.6-69.486-58.514-80.457 10.971-14.629 14.629-29.257 14.629-47.543 0-36.571-25.6-69.486-58.514-80.457 10.971-14.629 14.629-29.257 14.629-47.543 3.657-47.543-32.914-84.114-76.8-84.114zM40.229 144.457c190.171 0 259.657-32.914 314.514-54.857 40.229-18.286 69.486-29.257 138.971-29.257h277.943c25.6 0 43.886 21.943 43.886 43.886s-21.943 43.886-43.886 43.886c-10.971 0-18.286 7.314-18.286 18.286s7.314 18.286 18.286 18.286h43.886c25.6 0 43.886 21.943 43.886 43.886s-21.943 43.886-43.886 43.886c-10.971 0-18.286 7.314-18.286 18.286s7.314 18.286 18.286 18.286h43.886c25.6 0 43.886 21.943 43.886 43.886s-21.943 43.886-43.886 43.886c-10.971 0-18.286 7.314-18.286 18.286s7.314 18.286 18.286 18.286h43.886c25.6 0 43.886 21.943 43.886 43.886s-21.943 43.886-43.886 43.886h-340.114c-7.314 0-10.971 3.657-14.629 7.314s-3.657 10.971-3.657 14.629c0 0 40.229 160.914 40.229 241.371 0 29.257-7.314 51.2-18.286 65.829-10.971 10.971-21.943 18.286-36.571 18.286-18.286 0-36.571-10.971-36.571-29.257 0-212.114-179.2-358.4-336.457-358.4h-109.714v-336.457z" />
<glyph unicode="&#xe90b;" glyph-name="search" d="M815.543 192l-149.943 149.943c32.914 43.886 54.857 98.743 54.857 157.257 0 142.629-113.371 256-256 256s-256-113.371-256-256 113.371-256 256-256c54.857 0 106.057 18.286 149.943 47.543l149.943-149.943zM281.6 499.2c0 102.4 80.457 182.857 182.857 182.857s182.857-80.457 182.857-182.857-80.457-182.857-182.857-182.857-182.857 84.114-182.857 182.857z" />
<glyph unicode="&#xe90c;" glyph-name="arrow-down" d="M512 290.743l-266.971 266.971 51.2 51.2 215.771-215.771 215.771 215.771 51.2-51.2z" />
<glyph unicode="&#xe90d;" glyph-name="arrow-left" d="M354.743 448l266.971 266.971 51.2-51.2-215.771-215.771 215.771-215.771-51.2-51.2z" />
<glyph unicode="&#xe90e;" glyph-name="arrow-right" d="M669.257 448l-266.971-266.971-51.2 51.2 215.771 215.771-215.771 215.771 51.2 51.2z" />
<glyph unicode="&#xe90f;" glyph-name="arrow-up" d="M512 605.257l266.971-266.971-51.2-51.2-215.771 215.771-215.771-215.771-51.2 51.2z" />
<glyph unicode="&#xe910;" glyph-name="burger" d="M219.429 671.086h585.143v-98.743h-585.143zM219.429 499.2h585.143v-98.743h-585.143zM219.429 323.657h585.143v-98.743h-585.143z" />
<glyph unicode="&#xe911;" glyph-name="burger-close" d="M685.084 207.556l-413.755 413.755 69.821 69.821 413.755-413.755zM755.030 618.498l-413.755-413.755-69.821 69.821 413.755 413.755z" />
<glyph unicode="&#xe912;" glyph-name="group-chat2" d="M277.333 533.333h34.133l123.733-123.733c4.267-4.267 8.533-4.267 17.067-4.267h8.533c8.533 4.267 12.8 12.8 12.8 21.333v106.667h277.333c34.133 0 64 29.867 64 64v298.667c0 34.133-29.867 64-64 64h-469.333c-34.133 0-64-29.867-64-64v-298.667c-4.267-34.133 25.6-64 59.733-64zM256 896c0 12.8 8.533 21.333 21.333 21.333h469.333c12.8 0 21.333-8.533 21.333-21.333v-298.667c0-12.8-8.533-21.333-21.333-21.333h-298.667c-12.8 0-21.333-8.533-21.333-21.333v-76.8l-89.6 89.6c-4.267 4.267-8.533 4.267-17.067 4.267h-42.667c-12.8 0-21.333 8.533-21.333 21.333v302.933zM908.8 260.267c29.867 21.333 51.2 59.733 51.2 102.4 0 72.533-55.467 128-128 128s-128-55.467-128-128c0-42.667 21.333-76.8 51.2-102.4-64-29.867-110.933-89.6-115.2-162.133-17.067 12.8-34.133 25.6-51.2 34.133 29.867 21.333 51.2 59.733 51.2 102.4 0 72.533-55.467 128-128 128s-128-55.467-128-128c0-42.667 21.333-76.8 51.2-102.4-21.333-8.533-38.4-21.333-51.2-34.133-4.267 72.533-51.2 136.533-115.2 162.133 29.867 21.333 51.2 59.733 51.2 102.4 0 72.533-55.467 128-128 128s-128-55.467-128-128c0-42.667 21.333-76.8 51.2-102.4-68.267-29.867-115.2-98.133-115.2-174.933 0-12.8 8.533-21.333 21.333-21.333h332.8c-21.333-29.867-34.133-68.267-34.133-106.667 0-12.8 8.533-21.333 21.333-21.333h341.333c12.8 0 21.333 8.533 21.333 21.333 0 38.4-12.8 76.8-34.133 106.667h332.8c12.8 0 21.333 8.533 21.333 21.333 0 76.8-46.933 145.067-115.2 174.933zM746.667 362.667c0 46.933 38.4 85.333 85.333 85.333s85.333-38.4 85.333-85.333-38.4-85.333-85.333-85.333-85.333 38.4-85.333 85.333zM426.667 234.667c0 46.933 38.4 85.333 85.333 85.333s85.333-38.4 85.333-85.333-38.4-85.333-85.333-85.333-85.333 38.4-85.333 85.333zM106.667 362.667c0 46.933 38.4 85.333 85.333 85.333s85.333-38.4 85.333-85.333-38.4-85.333-85.333-85.333-85.333 38.4-85.333 85.333zM42.667 106.667c8.533 72.533 72.533 128 149.333 128s136.533-55.467 149.333-128h-298.666zM362.667-21.333c8.533 72.533 72.533 128 149.333 128s136.533-55.467 149.333-128h-298.666zM682.667 106.667c8.533 72.533 72.533 128 149.333 128s136.533-55.467 149.333-128h-298.666zM341.333 853.333c0 12.8 8.533 21.333 21.333 21.333h298.667c12.8 0 21.333-8.533 21.333-21.333s-8.533-21.333-21.333-21.333h-298.667c-12.8 0-21.333 8.533-21.333 21.333zM341.333 768c0 12.8 8.533 21.333 21.333 21.333h298.667c12.8 0 21.333-8.533 21.333-21.333s-8.533-21.333-21.333-21.333h-298.667c-12.8 0-21.333 8.533-21.333 21.333zM341.333 682.667c0 12.8 8.533 21.333 21.333 21.333h298.667c12.8 0 21.333-8.533 21.333-21.333s-8.533-21.333-21.333-21.333h-298.667c-12.8 0-21.333 8.533-21.333 21.333z" />
<glyph unicode="&#xe913;" glyph-name="network-people" d="M588.8 430.933c29.867 21.333 51.2 59.733 51.2 102.4 0 72.533-55.467 128-128 128s-128-55.467-128-128c0-42.667 21.333-76.8 51.2-102.4-68.267-29.867-115.2-98.133-115.2-174.933 0-12.8 8.533-21.333 21.333-21.333h341.333c12.8 0 21.333 8.533 21.333 21.333 0 76.8-46.933 145.067-115.2 174.933h0.001zM426.667 533.333c0 46.933 38.4 85.333 85.333 85.333s85.333-38.4 85.333-85.333-38.4-85.333-85.333-85.333-85.333 38.4-85.333 85.333zM362.667 277.333c8.533 72.533 72.533 128 149.333 128s136.533-55.467 149.333-128h-298.666zM725.333 640c4.267 0 12.8 0 17.067 4.267l119.467 119.467c17.067-12.8 38.4-17.067 59.733-17.067 59.733 0 106.667 46.933 106.667 106.667s-46.933 106.667-106.667 106.667-106.667-46.933-106.667-106.667c0-21.333 8.533-42.667 17.067-59.733l-119.467-119.467c-8.533-8.533-8.533-21.333 0-29.867 4.267-4.267 8.533-4.267 12.8-4.267zM917.333 917.333c34.133 0 64-29.867 64-64s-29.867-64-64-64-64 29.867-64 64 29.867 64 64 64zM917.333 149.333c-21.333 0-42.667-8.533-59.733-17.067l-76.8 76.8c-8.533 8.533-21.333 8.533-29.867 0s-8.533-21.333 0-29.867l76.8-76.8c-12.8-17.067-17.067-38.4-17.067-59.733 0-59.733 46.933-106.667 106.667-106.667s106.667 46.933 106.667 106.667c0 59.734-46.933 106.667-106.667 106.667zM917.333-21.333c-34.133 0-64 29.867-64 64s29.867 64 64 64 64-29.867 64-64-29.867-64-64-64zM106.667 746.667c21.333 0 42.667 8.533 59.733 17.067l119.467-119.467c4.267-4.267 8.533-4.267 17.067-4.267 4.267 0 12.8 0 17.067 4.267 8.533 8.533 8.533 21.333 0 29.867l-119.467 119.467c12.8 17.067 17.067 38.4 17.067 59.733 0 59.733-46.933 106.667-106.667 106.667s-106.667-46.933-106.667-106.667 42.667-106.667 102.4-106.667zM106.667 917.333c34.133 0 64-29.867 64-64s-29.867-64-64-64-64 29.867-64 64 29.867 64 64 64zM243.2 209.067l-76.8-76.8c-17.067 12.8-38.4 17.067-59.733 17.067-59.733 0-106.667-46.933-106.667-106.667s46.933-106.667 106.667-106.667c59.734 0 106.667 46.933 106.667 106.667 0 21.333-8.533 42.667-17.067 59.733l76.8 76.8c8.533 8.533 8.533 21.333 0 29.867s-21.333 8.533-29.867 0zM106.667-21.333c-34.133 0-64 29.867-64 64s29.867 64 64 64c34.133 0 64-29.867 64-64s-29.867-64-64-64zM917.333 362.667c59.733 0 106.667 46.933 106.667 106.667s-46.933 106.667-106.667 106.667c-51.2 0-93.867-38.4-102.4-85.333h-110.933c-12.8 0-21.333-8.533-21.333-21.333s8.533-21.333 21.333-21.333h110.933c8.533-46.933 51.2-85.333 102.4-85.333v-0.002zM917.333 533.333c34.133 0 64-29.867 64-64s-29.867-64-64-64-64 29.867-64 64 29.867 64 64 64zM106.667 362.667c51.2 0 93.867 38.4 102.4 85.333h110.933c12.8 0 21.333 8.533 21.333 21.333s-8.533 21.333-21.333 21.333h-110.933c-8.533 46.933-51.2 85.333-102.4 85.333-59.733 0-106.667-46.933-106.667-106.667s46.933-106.667 106.667-106.667v0.002zM106.667 533.333c34.133 0 64-29.867 64-64s-29.867-64-64-64-64 29.867-64 64 29.867 64 64 64z" />
<glyph unicode="&#xe914;" glyph-name="school-international-book" d="M896 533.333h-29.867c4.267 21.333 8.533 42.667 8.533 64 0 200.533-162.133 358.4-358.4 362.667v0h-4.267c-200.533 0-362.667-162.133-362.667-362.667 0-21.333 4.267-42.667 8.533-64h-29.867s-21.333-8.533-21.333-21.333v-405.333c0-12.8 8.533-21.333 21.333-21.333 243.2 0 362.667-81.067 362.667-128 0-12.8 8.533-21.333 21.333-21.333s21.333 8.533 21.333 21.333c0 46.933 119.467 128 362.667 128 12.8 0 21.333 8.533 21.333 21.333v405.333c0 12.8-8.533 21.333-21.333 21.333zM823.467 529.067c-55.467-4.267-102.4-12.8-149.333-25.6 8.533 25.6-4.267 55.467-17.067 81.067 0 4.267-4.267 8.533-4.267 12.8l4.267 4.267c21.333 25.6 64 68.267 55.467 119.467-4.267 21.333-12.8 38.4-29.867 51.2 17.067 8.533 42.667 17.067 68.267 25.6 46.933-55.467 72.533-128 72.533-204.8 8.533-17.067 4.267-38.4 0-64v-0.001zM512 418.133c-8.533 12.8-21.333 21.333-38.4 34.133 0 8.533 4.267 17.067 4.267 25.6 12.8 51.2 25.6 110.933-4.267 149.333-17.067 25.6-51.2 34.133-98.133 34.133-21.333 0-29.867 34.133-29.867 34.133 0 64 42.667 89.6 59.733 93.867 25.6 8.533 42.667 8.533 42.667 4.267s4.267-12.8 4.267-17.067c8.533-8.533 21.333-12.8 34.133-12.8 38.4 4.267 76.8 51.2 85.333 64 4.267 8.533 4.267 17.067 0 21.333l-29.867 55.467c64-8.533 123.733-38.4 174.933-81.067-89.6-29.867-93.867-38.4-93.867-51.2 0-8.533 4.267-17.067 12.8-21.333 21.333-12.8 34.133-25.6 34.133-42.667 4.267-29.867-29.867-64-46.933-85.333-12.8-12.8-17.067-21.333-17.067-29.867s4.267-17.067 8.533-34.133c4.267-12.8 17.067-42.667 12.8-51.2-12.8-12.8-21.333-25.6-29.867-38.4-34.133-4.267-64-25.6-85.333-51.2zM192 597.333c0 174.933 140.8 315.733 311.467 320l34.133-68.267c-17.067-17.067-34.133-34.133-42.667-34.133-8.533 17.067-25.6 29.867-51.2 29.867-29.867 0-59.733-12.8-85.333-34.133-21.333-17.067-46.933-55.467-46.933-110.933 4.267-25.6 21.333-76.8 72.533-76.8 29.867 0 55.467-8.533 64-21.333 17.067-21.333 4.267-72.533-4.267-115.2 0-4.267 0-8.533-4.267-12.8-55.467 29.867-136.533 51.2-234.667 55.467-8.533 25.6-12.8 46.933-12.8 68.267zM149.333 128v362.667c226.133-4.267 341.333-85.333 341.333-128v-328.533c-59.733 51.2-179.2 89.6-341.333 93.867zM874.667 128c-162.133-4.267-281.6-42.667-341.333-93.867v328.533c0 42.667 115.2 123.733 341.333 128v-362.667zM448 324.267c-4.267-8.533-12.8-12.8-21.333-12.8h-8.533c-51.2 17.067-115.2 34.133-187.733 42.667-12.8 0-21.333 12.8-17.067 25.6 0 12.8 12.8 21.333 25.6 17.067 76.8-8.533 145.067-25.6 196.267-46.933 8.533-4.267 17.067-17.067 12.8-25.6zM448 196.267c-4.267-8.533-12.8-12.8-21.333-12.8h-8.533c-51.2 17.067-115.2 34.133-187.733 42.667-12.8 0-21.333 12.8-17.067 25.6 0 12.8 12.8 21.333 25.6 17.067 76.8-8.533 145.067-25.6 196.267-46.933 8.533-4.267 17.067-17.067 12.8-25.6zM576 324.267c-4.267 12.8 0 21.333 12.8 25.6 51.2 21.333 119.467 34.133 196.267 46.933 12.8 0 21.333-8.533 25.6-17.067 0-12.8-8.533-21.333-17.067-25.6-72.533-8.533-136.533-25.6-187.733-42.667h-8.533c-8.533 0-17.067 4.267-21.333 12.8zM810.667 251.733c0-12.8-8.533-21.333-17.067-25.6-72.533-8.533-136.533-25.6-187.733-42.667h-8.533c-8.533 0-17.067 4.267-21.333 12.8-4.267 12.8 0 21.333 12.8 25.6 51.2 21.333 119.467 34.133 196.267 46.933 12.8 0 25.6-8.533 25.6-17.067z" />
<glyph unicode="&#xe915;" glyph-name="eco-mind" d="M917.333 537.6c-12.8 21.333-29.867 51.2-29.867 64 0 226.133-209.067 358.4-409.6 358.4-243.2 0-430.933-187.733-430.933-430.933 0-157.867 55.467-268.8 166.4-341.333v-234.667c0-12.8 8.533-21.333 21.333-21.333h426.667c12.8 0 21.333 8.533 21.333 21.333v128c76.8 0 123.733 8.533 157.867 42.667s42.667 140.8 42.667 192h42.667c46.933 0 46.933 38.4 51.2 59.733 4.267 51.2-29.867 110.933-59.733 162.133h-0.001zM930.133 362.667h-72.533c-4.267 0-12.8 0-17.067-4.267s-8.533-8.533-8.533-17.067c0-64-8.533-162.133-29.867-183.467s-59.733-29.867-149.333-29.867c-4.267 0-12.8-4.267-17.067-4.267-4.267-4.267-4.267-8.533-4.267-17.067v-128h-384v226.133c0 8.533-4.267 12.8-8.533 17.067-106.667 64-157.867 162.133-157.867 307.2 0 217.6 170.667 388.267 388.267 388.267 179.2 0 366.933-119.467 366.933-315.733 0-17.067 12.8-42.667 38.4-81.067 25.6-42.667 55.467-102.4 55.467-136.533 4.267-8.533 4.267-17.067 0-21.333v0.001zM622.933 793.6c-4.267 0-12.8 0-17.067-4.267-38.4-29.867-76.8-42.667-119.467-55.467-46.933-12.8-93.867-25.6-128-68.267v0c-34.133-42.667-51.2-81.067-42.667-119.467 8.533-29.867 29.867-55.467 64-72.533-59.733-102.4-76.8-187.733-76.8-192-4.267-12.8 4.267-21.333 17.067-25.6h4.267c8.533 0 17.067 8.533 21.333 17.067 0 0 17.067 76.8 68.267 166.4 21.333-29.867 42.667-51.2 72.533-51.2h12.8c38.4 0 76.8 25.6 115.2 68.267 55.467 64 76.8 234.667 29.867 328.533-8.533 4.267-12.8 8.533-21.333 8.533v0.001zM576 482.133c-29.867-38.4-64-55.467-85.333-51.2s-38.4 21.333-51.2 55.467c29.867 46.933 72.533 102.4 123.733 149.333 8.533 8.533 8.533 21.333 0 29.867s-21.333 8.533-29.867 0c-55.467-51.2-98.133-102.4-128-153.6-25.6 12.8-38.4 29.867-42.667 46.933-8.533 29.867 12.8 59.733 34.133 81.067 25.6 29.867 64 42.667 106.667 55.467 34.133 8.533 76.8 21.333 110.933 46.933 21.333-85.333 4.267-213.333-38.4-260.267z" />
<glyph unicode="&#xe916;" glyph-name="fish" d="M968.533 904.533c-25.6 25.6-115.2 38.4-204.8 25.6-85.333-12.8-204.8-46.933-307.2-145.067v0 0c-247.467-4.267-290.133-204.8-290.133-204.8 0-8.533 0-12.8 4.267-21.333l110.933-110.933c-8.533-38.4-12.8-68.267-12.8-85.333l-230.4-115.2c-8.533-4.267-12.8-12.8-12.8-21.333s4.267-17.067 12.8-17.067l166.4-76.8 68.267-153.6c4.267-8.533 12.8-12.8 17.067-12.8v0c8.533 0 17.067 4.267 17.067 12.8l115.2 230.4c21.333 0 72.533 4.267 132.267 21.333l110.933-110.933c4.267-4.267 8.533-4.267 17.067-4.267v0c4.267 0 12.8 4.267 17.067 4.267 179.2 179.2 200.533 311.467 204.8 341.333 123.733 174.933 106.667 401.067 64 443.733zM486.4 750.933c174.933 174.933 430.933 140.8 452.267 119.467s55.467-277.333-119.467-452.267c-153.6-153.6-354.133-170.667-401.067-174.933l-106.667 106.667c0 46.933 21.333 251.733 174.933 401.067zM204.8 576c12.8 34.133 59.733 140.8 204.8 157.867-64-81.067-102.4-170.667-123.733-243.2zM290.133 34.133l-51.2 119.467c0 4.267-4.267 8.533-8.533 12.8l-132.267 64 187.733 93.867 98.133-98.133-93.867-192zM678.4 157.867l-81.067 81.067c72.533 25.6 157.867 68.267 234.667 140.8-17.067-55.467-64-128-153.6-221.867zM708.267 674.133c34.133 0 64 29.867 64 64s-29.867 64-64 64-64-29.867-64-64 29.867-64 64-64zM708.267 759.467c12.8 0 21.333-8.533 21.333-21.333s-8.533-21.333-21.333-21.333-21.333 8.533-21.333 21.333 8.533 21.333 21.333 21.333z" />
<glyph unicode="&#xe917;" glyph-name="science-brain" d="M1024 597.333c0 76.8-55.467 136.533-128 149.333-8.533 72.533-72.533 128-149.333 128-29.867 0-59.733-8.533-85.333-29.867-25.6 42.667-72.533 72.533-128 72.533-34.133 0-68.267-12.8-93.867-34.133-25.6 21.333-59.733 34.133-93.867 34.133-72.533 0-132.267-51.2-145.067-119.467-21.333 0-46.933-4.267-68.267-17.067-64-34.133-123.733-119.467-123.733-226.133s76.8-192 145.067-221.867c25.6-12.8 51.2-17.067 72.533-12.8 12.8-46.933 51.2-76.8 106.667-85.333 21.333-46.933 68.267-110.933 187.733-110.933 12.8 0 29.867 4.267 42.667 8.533v-136.533c0-12.8 8.533-21.333 21.333-21.333h128c12.8 0 21.333 8.533 21.333 21.333v179.2c42.667 12.8 81.067 46.933 98.133 89.6 34.133-12.8 68.267-12.8 102.4 0 42.667 17.067 81.067 51.2 93.867 98.133 12.8 51.2 4.267 102.4-29.867 136.533 12.8 29.867 25.6 64 25.6 98.133zM942.933 516.267c-4.267-4.267-4.267-8.533-4.267-12.8-17.067-4.267-46.933-12.8-81.067-12.8 12.8 29.867 34.133 98.133-8.533 157.867-8.533 8.533-21.333 12.8-29.867 4.267s-12.8-21.333-4.267-29.867c34.133-51.2 0-128 0-128v-4.267c-38.4 4.267-81.067 21.333-115.2 51.2-8.533 8.533-21.333 8.533-29.867 0s-8.533-21.333 0-29.867c55.467-55.467 119.467-68.267 179.2-68.267 51.2 0 98.133 12.8 115.2 17.067 21.333-25.6 25.6-59.733 17.067-93.867-8.533-29.867-34.133-59.733-64-68.267-38.4-12.8-72.533-4.267-93.867 8.533-4.267 4.267-12.8 4.267-21.333 0s-12.8-8.533-12.8-17.067c-8.533-42.667-42.667-76.8-85.333-85.333-8.533 0-17.067-8.533-17.067-21.333v-174.933h-85.333v183.467c0 68.267 55.467 128 128 128 12.8 0 21.333 8.533 21.333 21.333s-8.533 21.333-21.333 21.333c-93.867 0-170.667-76.8-170.667-170.667v-12.8c-12.8-4.267-29.867-8.533-42.667-8.533-76.8 0-115.2 29.867-136.533 64h115.2c12.8 0 21.333 8.533 21.333 21.333s-8.533 21.333-21.333 21.333h-85.333c0 46.933 4.267 162.133 93.867 192 12.8 4.267 17.067 17.067 12.8 25.6-4.267 12.8-17.067 17.067-25.6 12.8-115.2-38.4-123.733-179.2-123.733-234.667-29.867 0-98.133 8.533-102.4 76.8 0 8.533-4.267 17.067-12.8 17.067-8.533 4.267-17.067 0-21.333-4.267-8.533-8.533-34.133-8.533-59.733 4.267-59.733 25.6-119.467 98.133-119.467 183.467 0 21.333 4.267 42.667 8.533 64 34.133 0 174.933 8.533 204.8-72.533 4.267-8.533 12.8-12.8 21.333-12.8h8.533c12.8 4.267 17.067 17.067 12.8 25.6-38.4 93.867-166.4 102.4-226.133 102.4 21.333 38.4 46.933 64 76.8 81.067 21.333 12.8 42.667 17.067 55.467 8.533 8.533-4.267 12.8-4.267 21.333 0s12.8 8.533 12.8 17.067c0 59.733 46.933 102.4 106.667 102.4 29.867 0 59.733-12.8 81.067-38.4l4.267-4.267v-85.333c0-25.6-17.067-42.667-42.667-42.667s-42.667 17.067-42.667 42.667c0 12.8-8.533 21.333-21.333 21.333s-21.333-8.533-21.333-21.333c0-46.933 38.4-85.333 85.333-85.333 25.6 0 46.933 12.8 64 29.867 17.067-17.067 38.4-29.867 64-29.867 46.933 0 85.333 38.4 85.333 85.333 0 12.8-8.533 21.333-21.333 21.333s-21.333-8.533-21.333-21.333c0-25.6-17.067-42.667-42.667-42.667s-42.667 17.067-42.667 42.667v106.667c17.067 12.8 42.667 21.333 64 21.333 42.667 0 85.333-29.867 98.133-68.267 4.267-8.533 8.533-12.8 17.067-12.8s12.8 0 21.333 8.533c21.333 21.333 46.933 34.133 76.8 34.133 59.733 0 106.667-46.933 106.667-106.667 0-12.8 8.533-21.333 21.333-21.333 59.733 0 106.667-46.933 106.667-106.667-12.8-25.6-25.6-55.467-51.2-76.8z" />
<glyph unicode="&#xe918;" glyph-name="trophy" d="M640 746.667h-72.533l-38.4 72.533c-8.533 12.8-29.867 12.8-38.4 0l-38.4-72.533h-72.533c-8.533 0-17.067-4.267-21.333-17.067s0-17.067 8.533-25.6l64-42.667-29.867-81.067c-4.267-8.533 0-17.067 8.533-25.6 8.533-4.267 17.067-4.267 25.6 0l72.533 55.467 72.533-55.467c4.267-4.267 8.533-4.267 12.8-4.267s8.533 0 12.8 4.267 12.8 12.8 8.533 21.333l-21.333 81.067 59.733 42.667c8.533 4.267 8.533 17.067 8.533 25.6s-12.8 21.333-21.333 21.333zM558.933 631.467l-34.133 25.6c-4.267 4.267-8.533 4.267-12.8 4.267s-8.533 0-12.8-4.267l-29.867-21.333 8.533 29.867c4.267 8.533 0 17.067-8.533 25.6l-21.333 12.8h17.067c8.533 0 17.067 4.267 17.067 12.8l25.6 46.933 25.6-46.933c4.267-8.533 12.8-12.8 17.067-12.8h21.333l-17.067-12.8c-8.533-4.267-8.533-12.8-8.533-21.333l12.8-38.4zM1024 840.533v12.8c0 12.8-8.533 21.333-21.333 21.333h-85.333v64c0 12.8-8.533 21.333-21.333 21.333h-768c-12.8 0-21.333-8.533-21.333-21.333v-64h-85.333c-12.8 0-21.333-8.533-21.333-21.333v-12.8c0-59.733-4.267-213.333 81.067-298.667 34.133-34.133 76.8-51.2 128-55.467 46.933-64 98.133-98.133 145.067-123.733 59.733-34.133 98.133-59.733 98.133-132.267-4.267-140.8-68.267-170.667-170.667-170.667-12.8 0-21.333-8.533-21.333-21.333v-85.333c0-12.8 8.533-21.333 21.333-21.333h469.333c12.8 0 21.333 8.533 21.333 21.333v85.333c0 12.8-8.533 21.333-21.333 21.333-123.733 0-170.667 51.2-170.667 170.667 0 76.8 38.4 98.133 98.133 132.267 46.933 25.6 98.133 59.733 145.067 123.733 51.2 4.267 93.867 21.333 128 55.467 76.8 85.333 72.533 243.2 72.533 298.667zM110.933 576c-64 68.267-68.267 196.267-68.267 256h68.267c8.533-136.533 34.133-226.133 68.267-294.4-25.6 4.267-51.2 17.067-68.267 38.4zM648.533 405.333c-59.733-38.4-119.467-72.533-119.467-170.667 0-136.533 59.733-204.8 192-213.333v-42.667h-426.667v42.667c128 4.267 187.733 72.533 192 213.333 0 98.133-55.467 132.267-115.2 170.667-42.667 25.6-93.867 55.467-132.267 115.2 0 0 0 4.267-4.267 4.267-46.933 72.533-85.333 187.733-85.333 392.533h725.333v-68.267c-21.333-320-132.267-388.267-226.133-443.733h0.001zM844.8 537.6c34.133 64 59.733 157.867 68.267 294.4h68.267c0-59.733 0-187.733-68.267-256-17.067-21.333-42.667-34.133-68.267-38.4z" />
<glyph unicode="&#xe919;" glyph-name="circle-people" d="M490.667 938.667c0 12.8 8.533 21.333 21.333 21.333v0 0c115.2 0 221.867-38.4 311.467-106.667 8.533-8.533 12.8-21.333 4.267-29.867-4.267-4.267-8.533-8.533-17.067-8.533-4.267 0-8.533 0-12.8 4.267-81.067 64-179.2 98.133-285.867 98.133-12.8 0-21.333 8.533-21.333 21.333zM913.067 768c-8.533 8.533-21.333 8.533-29.867 4.267-8.533-8.533-8.533-21.333-4.267-29.867 64-81.067 98.133-179.2 102.4-281.6 0-12.8 8.533-21.333 21.333-21.333v0c12.8 0 21.333 8.533 21.333 21.333-4.267 110.933-42.667 217.6-110.933 307.2h0.001zM311.467 25.6c-93.867 42.667-170.667 119.467-213.333 209.067-4.267 8.533-17.067 12.8-29.867 8.533-8.533-4.267-12.8-17.067-8.533-29.867 51.2-98.133 132.267-179.2 234.667-230.4h8.533c8.533 0 17.067 4.267 21.333 12.8 0 12.8-4.267 25.6-12.8 29.867zM716.8 25.6c-93.867-42.667-196.267-59.733-298.667-38.4-12.8 4.267-21.333-4.267-25.6-17.067s4.267-21.333 17.067-25.6c34.133-8.533 68.267-8.533 102.4-8.533 76.8 0 153.6 17.067 221.867 51.2 8.533 4.267 17.067 17.067 8.533 29.867-4.267 8.533-17.067 12.8-25.6 8.533zM994.133 358.4c-12.8 4.267-21.333-4.267-25.6-17.067-21.333-98.133-76.8-192-157.867-256-8.533-8.533-8.533-21.333-4.267-29.867 4.267-4.267 8.533-8.533 17.067-8.533 4.267 0 8.533 0 12.8 4.267 85.333 72.533 145.067 170.667 170.667 281.6 8.533 12.8 0 25.6-12.8 25.6zM128 729.6c4.267 0 12.8 4.267 17.067 8.533 64 81.067 153.6 136.533 251.733 162.133 12.8 4.267 17.067 12.8 17.067 25.6-4.267 12.8-12.8 17.067-25.6 17.067-106.667-25.6-204.8-89.6-277.333-179.2-8.533-8.533-4.267-21.333 4.267-29.867 4.267 0 8.533-4.267 12.8-4.267zM55.467 341.333c-8.533 34.133-12.8 68.267-12.8 106.667 0 68.267 12.8 132.267 42.667 192 4.267 12.8 0 21.333-8.533 29.867-12.8 4.267-21.333 0-29.867-8.533-29.867-68.267-46.933-136.533-46.933-209.067 0-38.4 4.267-76.8 12.8-115.2 4.267-8.533 12.8-17.067 21.333-17.067h4.267c12.8 0 17.067 8.533 17.067 21.333zM426.667 789.333c93.867 0 170.667-76.8 170.667-170.667 0-64-34.133-115.2-85.333-145.067 25.6-12.8 51.2-25.6 72.533-42.667 17.067 21.333 38.4 34.133 64 46.933-29.867 21.333-51.2 59.733-51.2 102.4 0 72.533 55.467 128 128 128s128-55.467 128-128c0-42.667-21.333-76.8-51.2-102.4 68.267-29.867 115.2-98.133 115.2-174.933 0-12.8-8.533-21.333-21.333-21.333h-221.867c4.267-21.333 8.533-42.667 8.533-64 0-12.8-8.533-21.333-21.333-21.333h-469.333c-12.8 0-21.333 8.533-21.333 21.333 0 115.2 72.533 217.6 170.667 260.267-51.2 29.867-85.333 85.333-85.333 145.067 0 89.6 76.8 166.4 170.667 166.4h-0.002zM725.333 490.667c46.933 0 85.333 38.4 85.333 85.333s-38.4 85.333-85.333 85.333-85.333-38.4-85.333-85.333 38.4-85.333 85.333-85.333zM614.4 396.8c17.067-21.333 34.133-46.933 46.933-76.8h213.333c-8.533 72.533-72.533 128-149.333 128-42.667 0-81.067-21.333-110.933-51.2zM426.667 448c-106.667 0-200.533-98.133-213.333-213.333h426.667c-12.8 115.2-106.667 213.333-213.333 213.333h-0.001zM298.667 618.667c0-72.533 55.467-128 128-128s128 55.467 128 128-55.467 128-128 128-128-55.467-128-128z" />
<glyph unicode="&#xe91a;" glyph-name="pause" d="M448-64h-213.333c-12.8 0-21.333 8.533-21.333 21.333v981.333c0 12.8 8.533 21.333 21.333 21.333h213.333c12.8 0 21.333-8.533 21.333-21.333v-981.333c0-12.8-8.533-21.333-21.333-21.333zM256-21.333h170.667v938.667h-170.667v-938.667zM789.333-64h-213.333c-12.8 0-21.333 8.533-21.333 21.333v981.333c0 12.8 8.533 21.333 21.333 21.333h213.333c12.8 0 21.333-8.533 21.333-21.333v-981.333c0-12.8-8.533-21.333-21.333-21.333zM597.333-21.333h170.667v938.667h-170.667v-938.667z" />
<glyph unicode="&#xe91b;" glyph-name="ball-football" d="M938.667 814.933c-4.267 29.867-25.6 55.467-55.467 55.467-119.467 12.8-418.133-25.6-601.6-204.8-179.2-179.2-217.6-490.667-209.067-601.6 4.267-29.867 25.6-55.467 55.467-55.467h42.667c136.533 0 396.8 46.933 558.933 209.067 183.467 179.2 217.6 482.133 209.067 597.333zM836.267 832h38.4s17.067-8.533 17.067-17.067c4.267-46.933 0-132.267-21.333-226.133l-226.133 226.133c76.8 8.533 140.8 17.067 192 17.067h-0.001zM132.267 51.2c-8.533 0-17.067 8.533-17.067 17.067-4.267 38.4 0 102.4 12.8 174.933l183.467-183.467c-76.8-12.8-140.8-12.8-179.2-8.533zM699.733 243.2c-93.867-93.867-226.133-145.067-341.333-174.933l-226.133 226.133c25.6 115.2 81.067 247.467 174.933 341.333 81.067 81.067 187.733 132.267 290.133 157.867l260.267-260.267c-25.6-98.133-76.8-209.067-157.867-290.133zM640 576l-29.867-29.867 29.867-29.867c8.533-8.533 8.533-21.333 0-29.867-4.267-4.267-8.533-4.267-17.067-4.267s-12.8 0-17.067 4.267l-29.867 29.867-59.733-59.733 29.867-29.867c8.533-8.533 8.533-21.333 0-29.867-4.267-4.267-8.533-4.267-17.067-4.267s-12.8 0-17.067 4.267l-29.867 29.867-59.733-59.733 29.867-29.867c8.533-8.533 8.533-21.333 0-29.867-4.267-4.267-8.533-4.267-17.067-4.267s-12.8 0-17.067 4.267l-29.867 29.867-29.867-29.867c-4.267-4.267-8.533-4.267-17.067-4.267s-12.8 0-17.067 4.267c-8.533 8.533-8.533 21.333 0 29.867l29.867 29.867-29.867 29.867c-8.533 8.533-8.533 21.333 0 29.867s21.333 8.533 29.867 0l29.867-29.867 59.733 59.733-29.867 29.867c-8.533 8.533-8.533 21.333 0 29.867s21.333 8.533 29.867 0l29.867-29.867 59.733 59.733-29.867 29.867c-8.533 8.533-8.533 21.333 0 29.867s21.333 8.533 29.867 0l29.867-29.867 29.867 29.867c8.533 8.533 21.333 8.533 29.867 0s25.6-21.333 17.067-29.867h0.001z" />
<glyph unicode="&#xe91c;" glyph-name="beach" d="M209.067 413.867c0-4.267 4.267-8.533 12.8-12.8h17.066l98.133 38.4c4.267 0 8.533 4.267 12.8 12.8l17.067 34.133 34.133-17.067c4.267-4.267 12.8-4.267 17.067 0l179.2 72.533 123.733-307.2c-93.867-4.267-179.2-38.4-238.933-89.6-8.533-8.533-8.533-21.333 0-29.867 4.267-4.267 8.533-8.533 17.067-8.533 4.267 0 8.533 0 12.8 4.267 55.467 51.2 145.067 81.067 238.933 81.067v0h256c12.8 0 21.333 8.533 21.333 21.333s-8.533 21.333-21.333 21.333h-243.2l-128 324.267 179.2 72.533c4.267 0 8.533 4.267 12.8 12.8l17.067 34.133 34.133-17.067c4.267-4.267 12.8-4.267 17.067 0l98.133 38.4c12.8 4.267 17.067 17.067 12.8 25.6l-17.067 38.4c-29.867 81.067-98.133 132.267-196.267 145.067-81.067 12.8-179.2 0-281.6-38.4l-8.533 21.333c-4.267 12.8-17.067 17.067-25.6 12.8-12.8-4.267-17.067-17.067-12.8-25.6l8.533-21.333c-221.867-93.867-332.8-256-273.067-405.333l8.533-38.4zM503.467 827.733v0 0c76.8 29.867 153.6 46.933 221.867 46.933 21.333 0 38.4 0 55.467-4.267 55.467-8.533 132.267-38.4 162.133-119.467l8.533-21.333-72.533-29.867-46.933 21.333c-12.8 4.267-21.333 0-29.867-12.8l-21.333-46.933-379.733-149.333-46.933 21.333c-4.267 4.267-12.8 4.267-17.067 0s-8.533-4.267-12.8-12.8l-21.333-46.933-72.533-29.867-8.533 21.333c-51.2 153.6 102.4 294.4 281.6 362.667zM1024-42.667c0-12.8-8.533-21.333-21.333-21.333-34.133 0-64 17.067-85.333 42.667-21.333-25.6-51.2-42.667-85.333-42.667s-64 17.067-85.333 42.667c-21.333-25.6-51.2-42.667-85.333-42.667s-64 17.067-85.333 42.667c-21.333-25.6-51.2-42.667-85.333-42.667s-64 17.067-85.333 42.667c-21.333-25.6-51.2-42.667-85.333-42.667s-64 17.067-85.333 42.667c-21.333-25.6-51.2-42.667-85.333-42.667s-68.267 17.067-85.333 46.933c-8.533-8.533-17.067-21.333-29.867-25.6-8.533-8.533-21.333-4.267-29.867 4.267s-4.267 21.333 4.267 29.867c17.067 12.8 34.133 29.867 34.133 51.2 0 12.8 8.533 21.333 21.333 21.333s21.333-8.533 21.333-21.333c0-34.133 34.133-64 64-64s64 29.867 64 64c0 12.8 8.533 21.333 21.333 21.333s21.333-8.533 21.333-21.333c0-34.133 34.133-64 64-64s64 29.867 64 64c0 12.8 8.533 21.333 21.333 21.333s21.333-8.533 21.333-21.333c0-34.133 34.133-64 64-64s64 29.867 64 64c0 12.8 8.533 21.333 21.333 21.333s21.333-8.533 21.333-21.333c0-34.133 34.133-64 64-64s64 29.867 64 64c0 12.8 8.533 21.333 21.333 21.333s21.333-8.533 21.333-21.333c0-34.133 34.133-64 64-64s64 29.867 64 64c0 12.8 8.533 21.333 21.333 21.333s21.333-8.533 21.333-21.333c0-34.133 34.133-64 64-64 12.8 0 21.333-8.533 21.333-21.333z" />
<glyph unicode="&#xe91d;" glyph-name="sun-ocean" d="M1024 260.267v170.667c0 8.533-4.267 12.8-8.533 17.067s-12.8 4.267-17.067 4.267c-89.6-17.067-149.333 72.533-149.333 76.8-8.533 12.8-29.867 12.8-38.4 0 0-4.267-29.867-51.2-89.6-68.267 29.867 42.667 46.933 89.6 46.933 145.067 0 128-106.667 234.667-234.667 234.667s-234.667-106.667-234.667-234.667c0-55.467 21.333-106.667 55.467-149.333-76.8 8.533-123.733 76.8-123.733 76.8-8.533 12.8-25.6 12.8-34.133 0 0 0-76.8-98.133-170.667-76.8-4.267 0-12.8 0-17.067-4.267s-8.533-8.533-8.533-17.067v-469.334c0-4.267 4.267-12.8 4.267-17.067 4.267-4.267 8.533-4.267 17.067-4.267h981.333c12.8 0 21.333 8.533 21.333 21.333v294.4zM981.333 234.667v-128c-81.067-4.267-132.267 72.533-132.267 76.8-8.533 12.8-29.867 12.8-38.4 0 0 0-46.933-76.8-136.533-76.8-85.333 0-136.533 76.8-136.533 76.8-8.533 12.8-29.867 12.8-38.4 0 0 0-46.933-76.8-136.533-76.8-85.333 0-136.533 76.8-136.533 76.8-8.533 12.8-25.6 12.8-34.133 0 0 0-68.267-85.333-153.6-81.067v128c76.8-4.267 136.533 46.933 166.4 76.8 25.6-29.867 76.8-76.8 153.6-76.8 81.067 0 128 42.667 153.6 72.533 25.6-29.867 76.8-72.533 153.6-72.533s128 42.667 153.6 72.533c34.133-25.6 89.6-72.533 162.133-68.267zM533.333 789.333c106.667 0 192-85.333 192-192 0-59.733-25.6-110.933-72.533-149.333-72.533 8.533-115.2 76.8-115.2 76.8-8.533 12.8-29.867 12.8-38.4 0 0-4.267-34.133-51.2-93.867-72.533-42.667 38.4-64 89.6-64 145.067 0 106.667 89.6 192 192 192zM42.667 401.067c76.8-4.267 136.533 46.933 166.4 76.8 25.6-29.867 76.8-76.8 153.6-76.8 81.067 0 128 42.667 153.6 72.533 25.6-29.867 76.8-72.533 153.6-72.533s128 42.667 153.6 72.533c25.6-29.867 76.8-76.8 153.6-72.533v-128c-81.067-4.267-132.267 72.533-132.267 76.8-8.533 12.8-29.867 12.8-38.4 0 0 0-46.933-76.8-136.533-76.8-85.333 0-136.533 76.8-136.533 76.8-8.533 12.8-29.867 12.8-38.4 0 0 0-46.933-76.8-136.533-76.8-85.333 0-136.533 76.8-136.533 76.8-8.533 12.8-25.6 12.8-34.133 0 0 0-68.267-85.333-153.6-81.067l8.533 132.267h-0.001zM981.333-21.333h-938.667v81.067c76.8-4.267 136.533 46.933 166.4 76.8 25.6-29.867 76.8-76.8 153.6-76.8 81.067 0 128 42.667 153.6 72.533 25.6-29.867 76.8-72.533 153.6-72.533s128 42.667 153.6 72.533c25.6-29.867 76.8-76.8 153.6-72.533zM814.933 661.333h59.733c12.8 0 21.333-8.533 21.333-21.333s-8.533-21.333-21.333-21.333h-59.733c-12.8 0-21.333 8.533-21.333 21.333s8.533 21.333 21.333 21.333zM725.333 789.333c-8.533 8.533-8.533 21.333 0 29.867l42.667 42.667c8.533 8.533 21.333 8.533 29.867 0s8.533-21.333 0-29.867l-42.667-42.667c-4.267-4.267-8.533-4.267-17.067-4.267s-8.533 0-12.8 4.267zM512 878.933v59.733c0 12.8 8.533 21.333 21.333 21.333s21.333-8.533 21.333-21.333v-59.733c0-12.8-8.533-21.333-21.333-21.333s-21.333 8.533-21.333 21.333zM264.533 836.267c-8.533 8.533-8.533 21.333 0 29.867s21.333 8.533 29.867 0l42.667-42.667c8.533-8.533 8.533-21.333 0-29.867-4.267-4.267-8.533-4.267-17.067-4.267s-12.8 0-17.067 4.267zM170.667 640c0 12.8 8.533 21.333 21.333 21.333h59.733c12.8 0 21.333-8.533 21.333-21.333s-8.533-21.333-21.333-21.333h-59.733c-12.8 0-21.333 8.533-21.333 21.333z" />
<glyph unicode="&#xe91e;" glyph-name="television2" d="M960 448h-320c12.8 0 21.333 8.533 21.333 21.333s-8.533 21.333-21.333 21.333h-128v42.667h277.333c12.8 0 21.333 8.533 21.333 21.333v384c0 12.8-8.533 21.333-21.333 21.333h-597.333c-12.8 0-21.333-8.533-21.333-21.333v-384c0-12.8 8.533-21.333 21.333-21.333h277.333v-42.667h-128c-12.8 0-21.333-8.533-21.333-21.333s8.533-21.333 21.333-21.333h-320c-12.8 0-21.333-8.533-21.333-21.333v-469.333c0-12.8 8.533-21.333 21.333-21.333h149.333c8.533 0 17.067 4.267 17.067 12.8l81.067 157.867h443.733l81.067-157.867c4.267-8.533 12.8-12.8 17.067-12.8h149.333c12.8 0 21.333 8.533 21.333 21.333v469.333c0 12.8-8.533 21.333-21.333 21.333zM213.333 917.333h554.667v-341.333h-554.667zM938.667-21.333h-115.2l-81.067 157.867c-4.267 8.533-12.8 12.8-17.067 12.8h-469.333c-8.533 0-17.067-4.267-17.067-12.8l-81.067-157.867h-115.2v426.667h896v-426.667zM106.667 192h341.333c12.8 0 21.333 8.533 21.333 21.333v128c0 12.8-8.533 21.333-21.333 21.333h-341.333c-12.8 0-21.333-8.533-21.333-21.333v-128c0-12.8 8.533-21.333 21.333-21.333zM128 320h298.667v-85.333h-298.667v85.333zM533.333 192h341.333c12.8 0 21.333 8.533 21.333 21.333v128c0 12.8-8.533 21.333-21.333 21.333h-341.333c-12.8 0-21.333-8.533-21.333-21.333v-128c0-12.8 8.533-21.333 21.333-21.333zM554.667 320h298.667v-85.333h-298.667z" />
<glyph unicode="&#xe91f;" glyph-name="check-list" d="M810.667 810.667c0 81.067-68.267 149.333-149.333 149.333h-512c-81.067 0-149.333-68.267-149.333-149.333v-554.667c0-12.8 8.533-21.333 21.333-21.333h106.667v-277.333c0-12.8 8.533-21.333 21.333-21.333h512c12.8 0 21.333 8.533 21.333 21.333v708.267c72.533 8.533 128 68.267 128 145.067v-0.001zM42.667 277.333v533.333c0 59.733 46.933 106.667 106.667 106.667s106.667-46.933 106.667-106.667c0-8.533 0-12.8-4.267-21.333h-102.4c-12.8 0-21.333-8.533-21.333-21.333v-490.667h-85.334zM170.667 708.267v38.4h64c-17.067-21.333-38.4-34.133-64-38.4zM640-21.333h-469.333v682.667h469.333v-682.667zM661.333 704h-409.6c29.867 25.6 46.933 64 46.933 106.667s-17.067 81.067-46.933 106.667h409.6c59.733 0 106.667-46.933 106.667-106.667s-46.933-106.667-106.667-106.667zM384 512c0 12.8 8.533 21.333 21.333 21.333h170.667c12.8 0 21.333-8.533 21.333-21.333s-8.533-21.333-21.333-21.333h-170.667c-12.8 0-21.333 8.533-21.333 21.333zM384 341.333c0 12.8 8.533 21.333 21.333 21.333h170.667c12.8 0 21.333-8.533 21.333-21.333s-8.533-21.333-21.333-21.333h-170.667c-12.8 0-21.333 8.533-21.333 21.333zM384 170.667c0 12.8 8.533 21.333 21.333 21.333h170.667c12.8 0 21.333-8.533 21.333-21.333s-8.533-21.333-21.333-21.333h-170.667c-12.8 0-21.333 8.533-21.333 21.333zM217.6 516.267c-8.533 8.533-8.533 21.333 0 29.867s21.333 8.533 29.867 0l4.267-4.267 68.267 68.267c8.533 8.533 21.333 8.533 29.867 0s8.533-21.333 0-29.867l-85.333-85.333c-4.267-4.267-8.533-4.267-17.067-4.267s-12.8 0-17.067 4.267l-12.801 21.333zM217.6 345.6c-8.533 8.533-8.533 21.333 0 29.867s21.333 8.533 29.867 0l4.267-4.267 68.267 68.267c8.533 8.533 21.333 8.533 29.867 0s8.533-21.333 0-29.867l-85.333-85.333c-4.267-4.267-8.533-4.267-17.067-4.267s-12.8 0-17.067 4.267l-12.801 21.333zM938.667 725.333c-29.867 0-59.733-17.067-72.533-42.667h-12.8c-46.933 0-85.333-38.4-85.333-85.333v-320c0-12.8 8.533-21.333 21.333-21.333s21.333 8.533 21.333 21.333v320c0 25.6 17.067 42.667 42.667 42.667v-618.667c0-46.933 38.4-85.333 85.333-85.333s85.333 38.4 85.333 85.333v618.667c0 46.933-38.4 85.333-85.333 85.333zM896 320h85.333v-256h-85.333v256zM938.667 682.667c25.6 0 42.667-17.067 42.667-42.667v-277.333h-85.333v277.333c0 25.6 17.067 42.667 42.667 42.667h-0.001zM938.667-21.333c-25.6 0-42.667 17.067-42.667 42.667h85.333c0-25.6-17.067-42.667-42.667-42.667h0.001z" />
<glyph unicode="&#xe920;" glyph-name="computer-line-graph" d="M938.667 874.667h-853.333c-46.933 0-85.333-38.4-85.333-89.6v-631.467c0-51.2 38.4-89.6 85.333-89.6h384v-42.667h-256c-12.8 0-21.333-8.533-21.333-21.333s8.533-21.333 21.333-21.333h597.333c12.8 0 21.333 8.533 21.333 21.333s-8.533 21.333-21.333 21.333h-298.667v42.667h426.667c46.933 0 85.333 38.4 85.333 89.6v631.467c0 51.2-38.4 89.6-85.333 89.6zM85.333 832h853.333c25.6 0 42.667-21.333 42.667-46.933v-507.733h-938.667v98.133l221.867 221.867 153.6-153.6c8.533-8.533 21.333-8.533 29.867 0l162.133 162.133c8.533 8.533 8.533 21.333 0 29.867s-21.333 8.533-29.867 0l-145.067-145.067-153.6 153.6c-8.533 8.533-21.333 8.533-29.867 0l-209.067-209.067v349.867c0 25.6 17.067 46.933 42.667 46.933h0.001zM938.667 106.667h-853.333c-25.6 0-42.667 21.333-42.667 46.933v81.067h938.667v-81.067c0-25.6-17.067-46.933-42.667-46.933zM554.667 170.667c0-25.6-17.067-42.667-42.667-42.667s-42.667 17.067-42.667 42.667 17.067 42.667 42.667 42.667 42.667-17.067 42.667-42.667zM832 533.333c0 25.6-17.067 42.667-42.667 42.667-46.933 0-85.333 38.4-85.333 85.333 0 38.4 25.6 72.533 64 81.067v25.6c0 12.8 8.533 21.333 21.333 21.333s21.333-8.533 21.333-21.333v-25.6c38.4-8.533 64-42.667 64-81.067 0-12.8-8.533-21.333-21.333-21.333s-21.333 8.533-21.333 21.333c0 25.6-17.067 42.667-42.667 42.667s-42.667-17.067-42.667-42.667 17.067-42.667 42.667-42.667c46.933 0 85.333-38.4 85.333-85.333 0-38.4-25.6-72.533-64-81.067v-25.6c0-12.8-8.533-21.333-21.333-21.333s-21.333 8.533-21.333 21.333v25.6c-38.4 8.533-64 42.667-64 81.067 0 12.8 8.533 21.333 21.333 21.333s21.333-8.533 21.333-21.333c0-25.6 17.067-42.667 42.667-42.667s42.667 17.067 42.667 42.667z" />
<glyph unicode="&#xe921;" glyph-name="pencil-write" d="M832 490.667c-12.8 0-21.333-8.533-21.333-21.333v-490.667h-768v853.333h576c12.8 0 21.333 8.533 21.333 21.333s-8.533 21.333-21.333 21.333h-597.333c-12.8 0-21.333-8.533-21.333-21.333v-896c0-12.8 8.533-21.333 21.333-21.333h810.667c12.8 0 21.333 8.533 21.333 21.333v512c0 12.8-8.533 21.333-21.333 21.333zM1019.73 832l-119.467 119.467c-4.267 4.267-8.533 4.267-17.067 4.267s-12.8-4.267-17.067-4.267l-452.267-452.267s-4.267-4.267-4.267-8.533v0 0l-89.6-209.067c-4.267-8.533 0-17.067 4.267-25.6 4.267-4.267 8.533-4.267 17.067-4.267h8.533l209.067 89.6c4.267 0 4.267 4.267 8.533 4.267l452.267 452.267c4.267 12.8 4.267 25.6 0 34.133h0.001zM546.133 392.533l-89.6 89.6 345.6 345.6 89.6-89.6zM435.2 443.733l76.8-76.8-132.267-55.467zM925.867 768l-89.6 89.6 46.933 46.933 89.6-89.6z" />
<glyph unicode="&#xe922;" glyph-name="rank-army-star-badge" d="M874.667 960h-725.333c-12.8 0-21.333-8.533-21.333-21.333v-981.333c0-8.533 4.267-17.067 12.8-17.067 8.533-4.267 17.067-4.267 21.333 0l349.867 226.133 349.867-226.133c4.267-4.267 8.533-4.267 12.8-4.267s8.533 0 8.533 4.267c8.533 4.267 12.8 12.8 12.8 17.067v981.333c0 12.8-8.533 21.333-21.333 21.333h-0.001zM853.333-4.267l-328.533 213.333c-4.267 4.267-8.533 4.267-12.8 4.267s-8.533 0-12.8-4.267l-328.533-213.333v921.6h682.667v-921.6zM379.733 482.133l-38.4-157.867c-4.267-8.533 0-17.067 8.533-21.333s17.067-4.267 25.6 0l136.533 98.133 136.533-98.133c4.267-4.267 8.533-4.267 12.8-4.267s8.533 0 12.8 4.267 12.8 12.8 8.533 21.333l-38.4 157.867 119.467 98.133c8.533 4.267 8.533 17.067 4.267 25.6s-12.8 12.8-21.333 12.8h-157.867l-59.733 157.867c-4.267 17.067-34.133 17.067-38.4 0l-59.733-157.867h-157.867c-8.533 0-17.067-4.267-21.333-12.8s0-17.067 4.267-25.6zM448 576c8.533 0 17.067 4.267 21.333 12.8l42.667 119.467 42.667-119.467c4.267-8.533 12.8-12.8 21.333-12.8h110.933l-81.067-68.267c-4.267-4.267-8.533-12.8-8.533-21.333l29.867-115.2-102.4 72.533c-4.267 4.267-8.533 4.267-12.8 4.267s-8.533 0-12.8-4.267l-102.4-72.533 29.867 115.2c0 8.533 0 17.067-8.533 21.333l-81.067 68.267h110.933z" />
<glyph unicode="&#xe923;" glyph-name="hierarchy-business" d="M900.267 115.2c21.333 21.333 34.133 46.933 34.133 81.067 0 59.733-46.933 106.667-106.667 106.667s-106.667-46.933-106.667-106.667c0-29.867 12.8-59.733 34.133-81.067-38.4-17.067-72.533-51.2-89.6-89.6-17.067 38.4-46.933 72.533-89.6 89.6 21.333 21.333 34.133 46.933 34.133 81.067 0 59.733-46.933 106.667-106.667 106.667s-106.667-46.933-106.667-106.667c0-29.867 12.8-59.733 34.133-81.067-42.667-17.067-72.533-51.2-89.6-98.133-17.067 42.667-46.933 76.8-89.6 98.133 21.333 21.333 34.133 46.933 34.133 81.067 0 59.733-46.933 106.667-106.667 106.667s-106.667-46.933-106.667-106.667c0-29.867 12.8-59.733 34.133-81.067-59.733-25.6-102.4-85.333-102.4-157.867 0-12.8 8.533-21.333 21.333-21.333h302.933c4.267 0 8.533 0 8.533 4.267 4.267 0 4.267-4.267 8.533-4.267h622.932c12.8 0 21.333 8.533 21.333 21.333 12.8 68.267-29.867 128-89.6 157.867zM768 192c0 34.133 29.867 64 64 64s64-29.867 64-64-29.867-64-64-64-64 29.867-64 64zM448 192c0 34.133 29.867 64 64 64s64-29.867 64-64-29.867-64-64-64-64 29.867-64 64zM128 192c0 34.133 29.867 64 64 64s64-29.867 64-64-29.867-64-64-64-64 29.867-64 64zM64-21.333c8.533 59.733 64 106.667 128 106.667s119.467-46.933 128-106.667h-256zM384-21.333c8.533 59.733 64 106.667 128 106.667s119.467-46.933 128-106.667h-256zM704-21.333c8.533 59.733 64 106.667 128 106.667s119.467-46.933 128-106.667h-256zM192 362.667c12.8 0 21.333 8.533 21.333 21.333v21.333h277.333v-21.333c0-12.8 8.533-21.333 21.333-21.333s21.333 8.533 21.333 21.333v21.333h277.333v-21.333c0-12.8 8.533-21.333 21.333-21.333s21.333 8.533 21.333 21.333v42.667c0 12.8-8.533 21.333-21.333 21.333h-298.667v42.667h166.4c12.8 0 21.333 8.533 21.333 21.333 0 85.333-55.467 162.133-128 196.267 34.133 25.6 59.733 68.267 59.733 115.2 0 76.8-64 140.8-140.8 140.8s-140.8-64-140.8-140.8c0-46.933 21.333-89.6 59.733-115.2-76.8-29.867-128-106.667-128-196.267 0-12.8 8.533-21.333 21.333-21.333h166.4v-42.667h-298.667c-12.8 0-21.333-8.533-21.333-21.333v-42.667c0-12.8 8.533-21.333 21.333-21.333zM413.867 819.2c0 55.467 42.667 98.133 98.133 98.133s98.133-42.667 98.133-98.133c0-55.467-42.667-98.133-98.133-98.133v0 0c-55.467 0-98.133 46.933-98.133 98.133zM512 678.4v0 0c85.333 0 157.867-64 166.4-145.067h-332.8c8.533 81.067 81.067 145.067 166.4 145.067z" />
<glyph unicode="&#xe924;" glyph-name="report-problem-triangle" d="M490.667 593.067v-328.533c0-12.8 8.533-21.333 21.333-21.333s21.333 8.533 21.333 21.333v328.533c0 12.8-8.533 21.333-21.333 21.333s-21.333-12.8-21.333-21.333zM998.4-12.8l-469.333 938.667c-8.533 12.8-29.867 12.8-38.4 0l-469.333-938.667c-4.267-8.533-4.267-12.8 0-21.333s12.8-8.533 17.067-8.533h938.667c8.533 0 12.8 4.267 17.067 8.533 8.533 8.533 8.533 17.067 4.267 21.333zM76.8 0l435.2 870.4 435.2-870.4h-870.4zM554.667 128c0-23.564-19.103-42.667-42.667-42.667s-42.667 19.103-42.667 42.667 19.103 42.667 42.667 42.667c23.564 0 42.667-19.103 42.667-42.667z" />
<glyph unicode="&#xe925;" glyph-name="calendar-add" d="M746.667 490.667c-153.6 0-277.333-123.733-277.333-277.333s123.733-277.333 277.333-277.333 277.333 123.733 277.333 277.333-123.733 277.333-277.333 277.333zM746.667-21.333c-128 0-234.667 106.667-234.667 234.667s106.667 234.667 234.667 234.667 234.667-106.667 234.667-234.667-106.667-234.667-234.667-234.667zM853.333 234.667h-85.333v85.333c0 12.8-8.533 21.333-21.333 21.333s-21.333-8.533-21.333-21.333v-85.333h-85.333c-12.8 0-21.333-8.533-21.333-21.333s8.533-21.333 21.333-21.333h85.333v-85.333c0-12.8 8.533-21.333 21.333-21.333s21.333 8.533 21.333 21.333v85.333h85.333c12.8 0 21.333 8.533 21.333 21.333s-8.533 21.333-21.333 21.333zM405.333 192h-362.667v426.667h810.667v-85.333c0-12.8 8.533-21.333 21.333-21.333s21.333 8.533 21.333 21.333v320c0 12.8-8.533 21.333-21.333 21.333h-149.333v64c0 12.8-8.533 21.333-21.333 21.333h-128c-12.8 0-21.333-8.533-21.333-21.333v-64h-213.333v64c0 12.8-8.533 21.333-21.333 21.333h-128c-12.8 0-21.333-8.533-21.333-21.333v-64h-149.333c-12.8 0-21.333-8.533-21.333-21.333v-682.667c0-12.8 8.533-21.333 21.333-21.333h384c12.8 0 21.333 8.533 21.333 21.333s-8.533 21.333-21.333 21.333zM597.333 917.333h85.333v-128h-85.333v128zM213.333 917.333h85.333v-128h-85.333v128zM170.667 832v-64c0-12.8 8.533-21.333 21.333-21.333h128c12.8 0 21.333 8.533 21.333 21.333v64h213.333v-64c0-12.8 8.533-21.333 21.333-21.333h128c12.8 0 21.333 8.533 21.333 21.333v64h128v-170.667h-810.667v170.667h128.002z" />
<glyph unicode="&#xe926;" glyph-name="user-chat" d="M234.667 362.667h-213.333c-12.8 0-21.333-8.533-21.333-21.333v-106.667c0-46.933 12.8-72.533 42.667-81.067v-196.267c0-12.8 8.533-21.333 21.333-21.333h128c12.8 0 21.333 8.533 21.333 21.333v196.267c29.867 8.533 42.667 34.133 42.667 81.067v106.667c0 12.8-8.533 21.333-21.333 21.333zM213.333 234.667c0-42.667-12.8-42.667-21.333-42.667-12.8 0-21.333-8.533-21.333-21.333v-192h-85.333v192c0 12.8-8.533 21.333-21.333 21.333-8.533 0-21.333 0-21.333 42.667v85.333h170.667v-85.333h-0.002zM128 405.333c46.933 0 85.333 38.4 85.333 85.333s-38.4 85.333-85.333 85.333-85.333-38.4-85.333-85.333 38.4-85.333 85.333-85.333zM128 533.333c25.6 0 42.667-17.067 42.667-42.667s-17.067-42.667-42.667-42.667-42.667 17.067-42.667 42.667 17.067 42.667 42.667 42.667zM1002.67 960h-640c-12.8 0-21.333-8.533-21.333-21.333v-426.667c0-12.8 8.533-21.333 21.333-21.333h106.667v-128c0-8.533 4.267-17.067 12.8-21.333h8.533s12.8 4.267 17.067 4.267l145.067 145.067h354.133c12.8 0 21.333 8.533 21.333 21.333v426.667c-4.267 12.8-12.8 21.333-25.6 21.333zM981.333 533.333h-341.333c-4.267 0-12.8-4.267-17.067-4.267l-110.933-110.933v98.133c0 12.8-8.533 21.333-21.333 21.333h-106.667v384h597.333v-388.266zM490.667 704h384c12.8 0 21.333 8.533 21.333 21.333s-8.533 21.333-21.333 21.333h-384c-12.8 0-21.333-8.533-21.333-21.333s8.533-21.333 21.333-21.333zM490.667 618.667h298.667c12.8 0 21.333 8.533 21.333 21.333s-8.533 21.333-21.333 21.333h-298.667c-12.8 0-21.333-8.533-21.333-21.333s8.533-21.333 21.333-21.333zM490.667 789.333h384c12.8 0 21.333 8.533 21.333 21.333s-8.533 21.333-21.333 21.333h-384c-12.8 0-21.333-8.533-21.333-21.333s8.533-21.333 21.333-21.333z" />
<glyph unicode="&#xe927;" glyph-name="calendar-graduation" d="M1002.67 874.667h-149.333v64c0 12.8-8.533 21.333-21.333 21.333h-128c-12.8 0-21.333-8.533-21.333-21.333v-64h-341.333v64c0 12.8-8.533 21.333-21.333 21.333h-128c-12.8 0-21.333-8.533-21.333-21.333v-64h-149.333c-12.8 0-21.333-8.533-21.333-21.333v-896c0-12.8 8.533-21.333 21.333-21.333h981.333c12.8 0 21.333 8.533 21.333 21.333v896c0 12.8-8.533 21.333-21.333 21.333h-0.002zM725.333 917.333h85.333v-128h-85.333v128zM213.333 917.333h85.333v-128h-85.333v128zM170.667 832v-64c0-12.8 8.533-21.333 21.333-21.333h128c12.8 0 21.333 8.533 21.333 21.333v64h341.333v-64c0-12.8 8.533-21.333 21.333-21.333h128c12.8 0 21.333 8.533 21.333 21.333v64h128v-170.667h-938.667v170.667h128.002zM42.667-21.333v640h938.667v-640zM840.533 426.667l-298.667 128c-4.267 4.267-12.8 4.267-17.067 0l-298.667-128c-4.267 0-4.267-4.267-8.533-8.533v-4.267s-4.267-8.533-4.267-8.533v-145.067l-42.667-123.733c-4.267-8.533 0-12.8 4.267-21.333 4.267-4.267 8.533-8.533 17.067-8.533h85.333c8.533 0 12.8 4.267 17.067 8.533s4.267 12.8 4.267 21.333l-42.667 123.733v115.2l85.333-38.4v-145.067c0-8.533 4.267-17.067 12.8-17.067l170.667-85.333c4.267 0 4.267-4.267 8.533-4.267s8.533 0 8.533 4.267l170.667 85.333c8.533 4.267 12.8 12.8 12.8 17.067v145.067l115.2 51.2c8.533 4.267 12.8 12.8 12.8 21.333s-4.267 12.8-12.8 17.067zM221.867 149.333l12.8 38.4 12.8-38.4h-25.6zM682.667 204.8l-149.333-76.8-149.333 76.8v115.2l140.8-59.733h17.066l140.8 59.733zM533.333 298.667l-243.2 106.667 243.2 106.667 243.2-106.667z" />
<glyph unicode="&#xe928;" glyph-name="infomation-circle" d="M512 938.667c-268.8 0-490.667-221.867-490.667-490.667s221.867-490.667 490.667-490.667c268.8 0 490.667 221.867 490.667 490.667s-221.867 490.667-490.667 490.667zM512 0c-247.467 0-448 200.533-448 448s200.533 448 448 448 448-200.533 448-448-200.533-448-448-448zM640 170.667h-106.667v362.667c0 12.8-8.533 21.333-21.333 21.333h-85.333c-12.8 0-21.333-8.533-21.333-21.333s8.533-21.333 21.333-21.333h64v-341.333h-106.667c-12.8 0-21.333-8.533-21.333-21.333s8.533-21.333 21.333-21.333h256c12.8 0 21.333 8.533 21.333 21.333s-8.533 21.333-21.333 21.333v-0.001zM533.333 704c0-23.564-19.103-42.667-42.667-42.667s-42.667 19.103-42.667 42.667c0 23.564 19.103 42.667 42.667 42.667s42.667-19.103 42.667-42.667z" />
<glyph unicode="&#xe929;" glyph-name="download-notebook" d="M362.667 576c12.8 0 21.333 8.533 21.333 21.333s-8.533 21.333-21.333 21.333h-192c-12.8 0-21.333-8.533-21.333-21.333v-426.667c0-12.8 8.533-21.333 21.333-21.333h682.667c12.8 0 21.333 8.533 21.333 21.333v426.667c0 12.8-8.533 21.333-21.333 21.333h-192c-12.8 0-21.333-8.533-21.333-21.333s8.533-21.333 21.333-21.333h170.667v-384h-640v384h170.666zM981.333 106.667h-21.333v512c0 46.933-38.4 85.333-85.333 85.333h-213.333c-12.8 0-21.333-8.533-21.333-21.333s8.533-21.333 21.333-21.333h213.333c25.6 0 42.667-17.067 42.667-42.667v-512h-320c-12.8 0-21.333-8.533-21.333-21.333v-21.333h-128v21.333c0 12.8-8.533 21.333-21.333 21.333h-320v512c0 25.6 17.067 42.667 42.667 42.667h213.333c12.8 0 21.333 8.533 21.333 21.333s-8.533 21.333-21.333 21.333h-213.333c-46.933 0-85.333-38.4-85.333-85.333v-512h-21.333c-12.8 0-21.333-8.533-21.333-21.333v-85.333c0-34.133 29.867-64 64-64h853.333c34.133 0 64 29.867 64 64v85.333c0 12.8-8.533 21.333-21.333 21.333zM960 0c0-12.8-8.533-21.333-21.333-21.333h-853.333c-12.8 0-21.333 8.533-21.333 21.333v64h341.333v-21.333c0-12.8 8.533-21.333 21.333-21.333h170.667c12.8 0 21.333 8.533 21.333 21.333v21.333h341.333v-64zM358.4 507.733c-8.533 8.533-21.333 8.533-29.867 0s-8.533-21.333 0-29.867l170.667-170.667s4.267-4.267 8.533-4.267h17.066s4.267 4.267 8.533 4.267l170.667 170.667c8.533 8.533 8.533 21.333 0 29.867s-21.333 8.533-29.867 0l-132.267-132.267v567.467c0 12.8-8.533 21.333-21.333 21.333s-21.333-8.533-21.333-21.333v-567.467l-140.799 132.267z" />
<glyph unicode="&#xe92a;" glyph-name="cursor-tap" d="M772.267 320l-174.933 59.733v238.933c0 46.933-38.4 85.333-85.333 85.333s-85.333-38.4-85.333-85.333v-401.067c-64 85.333-102.4 102.4-149.333 102.4-21.333 0-38.4-8.533-46.933-25.6-17.067-25.6-8.533-68.267 8.533-89.6l170.667-256c4.267-4.267 8.533-8.533 17.067-8.533h341.333c8.533 0 17.067 8.533 21.333 17.067l42.667 234.667c12.8 46.933-4.267 110.933-59.733 128zM789.333 196.267l-38.4-217.6h-311.467l-162.133 247.467c-8.533 12.8-12.8 38.4-8.533 46.933 0 4.267 4.267 4.267 8.533 4.267 29.867 0 68.267-12.8 153.6-140.8 4.267-8.533 12.8-12.8 25.6-8.533 8.533 4.267 17.067 12.8 17.067 21.333v469.333c0 21.333 21.333 42.667 42.667 42.667 25.6 0 42.667-17.067 42.667-42.667v-256c0-8.533 4.267-17.067 12.8-21.333l187.733-64c29.867-8.533 38.4-46.933 29.867-81.067zM832 661.333h-128c-12.8 0-21.333-8.533-21.333-21.333s8.533-21.333 21.333-21.333h128c12.8 0 21.333 8.533 21.333 21.333s-8.533 21.333-21.333 21.333zM661.333 746.667c4.267 0 12.8 0 17.067 4.267l85.333 85.333c8.533 8.533 8.533 21.333 0 29.867s-21.333 8.533-29.867 0l-85.333-85.333c-8.533-8.533-8.533-21.333 0-29.867 0-4.267 8.533-4.267 12.8-4.267zM533.333 789.333c12.8 0 21.333 8.533 21.333 21.333v128c0 12.8-8.533 21.333-21.333 21.333s-21.333-8.533-21.333-21.333v-128c0-12.8 8.533-21.333 21.333-21.333zM345.6 750.933c4.267-4.267 8.533-4.267 17.067-4.267s12.8 0 17.067 4.267c8.533 8.533 8.533 21.333 0 29.867l-85.333 85.333c-8.533 8.533-21.333 8.533-29.867 0s-8.533-21.333 0-29.867l81.066-85.333zM341.333 640c0 12.8-8.533 21.333-21.333 21.333h-128c-12.8 0-21.333-8.533-21.333-21.333s8.533-21.333 21.333-21.333h128c12.8 0 21.333 8.533 21.333 21.333z" />
<glyph unicode="&#xe92b;" glyph-name="apple" d="M682.667 704c-85.333 0-119.467-17.067-145.067-34.133-4.267 0-4.267 0-4.267-4.267v59.733c0 59.733-46.933 106.667-106.667 106.667h-85.333c-12.8 0-21.333-8.533-21.333-21.333s8.533-21.333 21.333-21.333h85.333c34.133 0 64-29.867 64-64v-55.467s-4.267 0-4.267 4.267c-25.6 12.8-59.733 29.867-145.067 29.867-145.067 0-256-140.8-256-320 0-170.667 128-448 277.333-448 76.8 0 98.133 12.8 119.467 34.133 8.533 8.533 12.8 8.533 29.867 8.533s21.333-4.267 29.867-8.533c21.333-17.067 42.667-34.133 119.467-34.133 149.333 0 277.333 277.333 277.333 448 0 179.2-110.933 320-256 320zM661.333-21.333c-68.267 0-81.067 12.8-89.6 21.333-12.8 12.8-25.6 21.333-59.733 21.333s-46.933-8.533-59.733-21.333c-12.8-8.533-25.6-21.333-89.6-21.333-110.933 0-234.667 243.2-234.667 405.333 0 153.6 93.867 277.333 213.333 277.333 76.8 0 102.4-12.8 123.733-25.6 12.8-8.533 25.6-17.067 46.933-17.067s34.133 8.533 46.933 17.067c21.333 12.8 46.933 25.6 123.733 25.6 119.467 0 213.333-123.733 213.333-277.333 0-162.133-123.733-405.333-234.667-405.333zM597.333 725.333c119.467 0 213.333 93.867 213.333 213.333 0 12.8-8.533 21.333-21.333 21.333-119.467 0-213.333-93.867-213.333-213.333 0-12.8 8.533-21.333 21.333-21.333zM768 917.333c-8.533-76.8-72.533-136.533-145.067-145.067 8.533 72.533 68.267 132.267 145.067 145.067z" />
<glyph unicode="&#xe92c;" glyph-name="badge-star" d="M512 192v0c-4.267 0-12.8 4.267-17.067 8.533l-46.933 55.467-64-34.133c-4.267-4.267-12.8-4.267-17.067 0l-12.8 12.8-21.333 68.267-76.8-4.267c-4.267 0-12.8 0-17.067 4.267s-4.267 12.8-4.267 17.067l8.533 72.533-72.533 25.6c-4.267 0-12.8 4.267-12.8 12.8-4.267 4.267 0 12.8 0 17.067l34.133 64-55.467 46.933c-4.267 4.267-8.533 12.8-8.533 17.067s4.267 12.8 8.533 17.067l55.467 46.933-34.133 64c-4.267 4.267-4.267 12.8 0 17.067s8.533 12.8 12.8 12.8l68.267 21.333-4.267 76.8c0 4.267 0 12.8 4.267 17.067s12.8 4.267 17.067 4.267l72.533-8.533 25.6 72.533c0 4.267 4.267 12.8 12.8 12.8 4.267 4.267 12.8 4.267 17.067 0l64-34.133 46.933 55.467c8.533 8.533 25.6 8.533 34.133 0l46.933-55.467 64 34.133c4.267 4.267 12.8 4.267 17.067 0l12.8-12.8 21.333-68.267 76.8 4.267c8.533 0 12.8 0 17.067-4.267s8.533-12.8 4.267-17.067l-8.533-72.533 72.533-25.6c4.267 0 12.8-4.267 12.8-12.8 4.267-4.267 0-12.8 0-17.067l-34.133-64 55.467-46.933c4.267-4.267 8.533-12.8 8.533-17.067s-4.267-12.8-8.533-17.067l-55.467-46.933 34.133-64c4.267-4.267 4.267-12.8 0-17.067s-8.533-8.533-12.8-12.8l-68.267-21.333 8.533-72.533c0-4.267 0-12.8-4.267-17.067s-8.533-8.533-17.067-4.267l-72.533 8.533-29.867-76.8c0-4.267-4.267-12.8-12.8-12.8-4.267-4.267-12.8 0-17.067 0l-64 34.133-46.933-55.467c-4.267-4.267-12.8-8.533-17.067-8.533zM452.267 302.933c4.267 0 12.8-4.267 17.067-8.533l42.667-51.2 42.667 51.2c8.533 8.533 17.067 8.533 25.6 4.267l59.733-29.867 21.333 64c4.267 8.533 12.8 17.067 21.333 12.8l64-4.267-4.267 64c0 8.533 4.267 21.333 12.8 21.333l64 21.333-29.867 59.733c-4.267 8.533-4.267 21.333 4.267 25.6l51.2 42.667-51.2 42.667c-8.533 8.533-8.533 17.067-4.267 25.6l25.6 59.733-64 21.333c-8.533 4.267-17.067 12.8-12.8 21.333l4.267 64-64-4.267c-8.533 0-21.333 4.267-21.333 12.8l-17.067 59.733-59.733-29.867c-8.533-4.267-21.333-4.267-25.6 4.267l-42.667 51.2-42.667-51.2c-8.533-8.533-17.067-8.533-25.6-4.267l-59.733 29.867-17.067-59.733c-4.267-12.8-12.8-17.067-21.333-17.067l-68.267 8.533 4.267-64c0-8.533-4.267-21.333-12.8-21.333l-59.733-21.333 29.867-59.733c4.267-8.533 0-21.333-4.267-25.6l-51.2-42.667 51.2-42.667c8.533-8.533 8.533-17.067 4.267-25.6l-29.867-59.733 64-21.333c8.533-4.267 17.067-12.8 12.8-21.333l-4.267-64 64 4.267c8.533 0 21.333-4.267 21.333-12.8l17.067-59.733 59.733 29.867h8.533zM640 405.333c-4.267 0-8.533 0-12.8 4.267l-115.2 72.533-115.2-72.533c-8.533-4.267-17.067-4.267-25.6 0s-8.533 12.8-8.533 21.333l38.4 136.533-98.133 98.133c-4.267 8.533-4.267 17.067-4.267 25.6 4.267 8.533 12.8 12.8 21.333 12.8h115.2l59.733 98.133c8.533 12.8 29.867 12.8 38.4 0l55.467-98.133h115.2c8.533 0 17.067-4.267 21.333-12.8s0-17.067-4.267-21.333l-98.133-98.133 38.4-136.533c4.267-8.533 0-17.067-8.533-21.333-4.267-8.533-8.533-8.533-12.8-8.533zM512 529.067c4.267 0 8.533 0 12.8-4.267l81.067-51.2-25.6 93.867c0 8.533 0 17.067 4.267 21.333l68.267 72.533h-76.8c-8.533 0-12.8 4.267-17.067 8.533l-46.933 76.8-46.933-76.8c-4.267-4.267-8.533-8.533-17.067-8.533h-76.8l68.267-68.267c4.267-4.267 8.533-12.8 4.267-21.333l-25.6-93.867 81.067 51.2h12.8zM776.533-64c-8.533 0-12.8 4.267-17.067 8.533l-115.2 192 38.4 21.333 89.6-153.6 42.667 115.2c4.267 8.533 12.8 17.067 25.6 12.8l119.467-21.333-119.467 209.067 38.4 21.333 145.067-247.467c4.267-8.533 4.267-17.067 0-21.333-4.267-8.533-12.8-8.533-21.333-8.533l-145.067 25.6-51.2-140.8c-12.8-8.533-21.333-12.8-29.867-12.8v0zM247.467-64v0c-8.533 0-17.067 4.267-21.333 12.8l-51.2 140.8-145.067-25.6c-8.533 0-17.067 0-21.333 8.533s-4.267 17.067 0 21.333l145.067 247.467 38.4-21.333-119.467-209.067 119.467 21.333c8.533 0 21.333-4.267 25.6-12.8l42.667-115.2 89.6 153.6 38.4-21.333-115.2-192c-8.533-4.267-17.067-8.533-25.6-8.533z" />
<glyph unicode="&#xe92d;" glyph-name="certificate" d="M1002.67 960h-981.333c-12.8 0-21.333-8.533-21.333-21.333v-682.667c0-12.8 8.533-21.333 21.333-21.333h490.667c12.8 0 21.333 8.533 21.333 21.333s-8.533 21.333-21.333 21.333h-469.333v640h938.667v-341.333c0-12.8 8.533-21.333 21.333-21.333s21.333 8.533 21.333 21.333v362.667c0 12.8-8.533 21.333-21.333 21.333zM789.333 448c-46.933 0-85.333-38.4-85.333-85.333s38.4-85.333 85.333-85.333 85.333 38.4 85.333 85.333-38.4 85.333-85.333 85.333zM789.333 320c-25.6 0-42.667 17.067-42.667 42.667s17.067 42.667 42.667 42.667 42.667-17.067 42.667-42.667-17.067-42.667-42.667-42.667zM972.8 469.333c-21.333 34.133-55.467 51.2-93.867 51.2v0c-17.067 34.133-51.2 55.467-89.6 55.467s-72.533-21.333-93.867-55.467c-38.4 0-72.533-21.333-93.867-51.2s-17.067-72.533 0-106.667c-17.067-34.133-21.333-72.533 0-106.667 8.533-17.067 21.333-25.6 34.133-38.4v-260.267c0-8.533 4.267-17.067 12.8-21.333s17.067-4.267 21.333 4.267l115.2 93.867 115.2-93.867c4.267-4.267 8.533-4.267 12.8-4.267h8.533c8.533 4.267 12.8 12.8 12.8 21.333v260.267c12.8 8.533 25.6 21.333 34.133 38.4 21.333 34.133 17.067 72.533 0 106.667 25.6 34.133 25.6 72.533 4.267 106.667zM896 4.267l-93.867 76.8c-8.533 8.533-21.333 8.533-25.6 0l-93.867-76.8v200.533h12.8c17.067-34.133 55.467-55.467 93.867-55.467s72.533 21.333 93.867 55.467h12.8zM930.133 349.867c17.067-21.333 17.067-46.933 4.267-72.533-12.8-21.333-38.4-34.133-64-29.867-8.533 0-21.333-4.267-21.333-12.8-8.533-25.6-34.133-42.667-59.733-42.667s-51.2 17.067-59.733 42.667c-4.267 8.533-12.8 12.8-21.333 12.8h-4.267c-25.6-4.267-51.2 8.533-64 29.867s-12.8 51.2 4.267 72.533c4.267 8.533 4.267 17.067 0 25.6-17.067 21.333-17.067 46.933-4.267 72.533 12.8 21.333 38.4 34.133 64 29.867 8.533 0 21.333 4.267 21.333 12.8 8.533 25.6 34.133 42.667 59.733 42.667s51.2-17.067 59.733-42.667c4.267-8.533 12.8-12.8 21.333-12.8 25.6 4.267 51.2-8.533 64-29.867s12.8-51.2-4.267-72.533c0-8.533 0-17.067 4.267-25.6zM917.333 597.333c12.8 0 21.333 8.533 21.333 21.333v106.667c0 12.8-8.533 21.333-21.333 21.333-59.733 0-106.667 46.933-106.667 106.667 0 12.8-8.533 21.333-21.333 21.333h-554.667c-12.8 0-21.333-8.533-21.333-21.333 0-59.733-46.933-106.667-106.667-106.667-12.8 0-21.333-8.533-21.333-21.333v-256c0-12.8 8.533-21.333 21.333-21.333 59.733 0 106.667-46.933 106.667-106.667 0-12.8 8.533-21.333 21.333-21.333h277.333c12.8 0 21.333 8.533 21.333 21.333s-8.533 21.333-21.333 21.333h-256c-8.533 64-59.733 115.2-128 128v213.333c64 8.533 115.2 59.733 128 128h512c8.533-64 59.733-115.2 128-128v-85.333c0-12.8 8.533-21.333 21.333-21.333h0.001z" />
<glyph unicode="&#xe92e;" glyph-name="computer-chip" d="M1002.67 448c12.8 0 21.333 8.533 21.333 21.333s-8.533 21.333-21.333 21.333h-149.333v128h149.333c12.8 0 21.333 8.533 21.333 21.333s-8.533 21.333-21.333 21.333h-149.333v64c0 34.133-29.867 64-64 64h-64v149.333c0 12.8-8.533 21.333-21.333 21.333s-21.333-8.533-21.333-21.333v-149.333h-170.667v149.333c0 12.8-8.533 21.333-21.333 21.333s-21.333-8.533-21.333-21.333v-149.333h-128v149.333c0 12.8-8.533 21.333-21.333 21.333s-21.333-8.533-21.333-21.333v-149.333h-64c-34.133 0-64-29.867-64-64v-64h-149.333c-12.8 0-21.333-8.533-21.333-21.333s8.533-21.333 21.333-21.333h149.333v-170.667h-149.333c-12.8 0-21.333-8.533-21.333-21.333s8.533-21.333 21.333-21.333h149.333v-128h-149.333c-12.8 0-21.333-8.533-21.333-21.333s8.533-21.333 21.333-21.333h149.333v-64c0-34.133 29.867-64 64-64h64v-149.333c0-12.8 8.533-21.333 21.333-21.333s21.333 8.533 21.333 21.333v149.333h170.667v-149.333c0-12.8 8.533-21.333 21.333-21.333s21.333 8.533 21.333 21.333v149.333h128v-149.333c0-12.8 8.533-21.333 21.333-21.333s21.333 8.533 21.333 21.333v149.333h64c34.133 0 64 29.867 64 64v64h149.333c12.8 0 21.333 8.533 21.333 21.333s-8.533 21.333-21.333 21.333h-149.333v170.667h149.333zM810.667 170.667c0-12.8-8.533-21.333-21.333-21.333h-554.667c-12.8 0-21.333 8.533-21.333 21.333v554.667c0 12.8 8.533 21.333 21.333 21.333h554.667c12.8 0 21.333-8.533 21.333-21.333v-554.667zM661.333 704h-298.667c-59.733 0-106.667-46.933-106.667-106.667v-298.667c0-59.733 46.933-106.667 106.667-106.667h298.667c59.733 0 106.667 46.933 106.667 106.667v298.667c0 59.733-46.933 106.667-106.667 106.667zM725.333 298.667c0-34.133-29.867-64-64-64h-298.667c-34.133 0-64 29.867-64 64v298.667c0 34.133 29.867 64 64 64h298.667c34.133 0 64-29.867 64-64v-298.667zM384 554.667c0 12.8 8.533 21.333 21.333 21.333h170.667c12.8 0 21.333-8.533 21.333-21.333s-8.533-21.333-21.333-21.333h-170.667c-12.8 0-21.333 8.533-21.333 21.333zM512 469.333c0-12.8-8.533-21.333-21.333-21.333h-85.333c-12.8 0-21.333 8.533-21.333 21.333s8.533 21.333 21.333 21.333h85.333c12.8 0 21.333-8.533 21.333-21.333zM640 341.333c0-12.8-8.533-21.333-21.333-21.333h-85.333c-12.8 0-21.333 8.533-21.333 21.333s8.533 21.333 21.333 21.333h85.333c12.8 0 21.333-8.533 21.333-21.333z" />
<glyph unicode="&#xe92f;" glyph-name="greek-column" d="M832 960h-640c-106.667 0-192-85.333-192-192s85.333-192 192-192c38.4 0 76.8 17.067 102.4 42.667h4.267v-661.333c0-12.8 8.533-21.333 21.333-21.333s21.333 8.533 21.333 21.333v661.333h85.333v-661.333c0-12.8 8.533-21.333 21.333-21.333s21.333 8.533 21.333 21.333v661.333h85.333v-661.333c0-12.8 8.533-21.333 21.333-21.333s21.333 8.533 21.333 21.333v661.333h85.333v-661.333c0-12.8 8.533-21.333 21.333-21.333s21.333 8.533 21.333 21.333v661.333h4.267c25.6-25.6 64-42.667 102.4-42.667 106.667 0 192 85.333 192 192s-85.333 192-192 192h0.003zM686.933 704c4.267-17.067 8.533-29.867 12.8-42.667h-375.467c4.267 12.8 8.533 25.6 12.8 42.667h349.867zM832 618.667c-59.733 0-106.667 46.933-106.667 106.667 0 34.133 29.867 64 64 64 12.8 0 21.333-8.533 21.333-21.333s8.533-21.333 21.333-21.333 21.333 8.533 21.333 21.333c0 34.133-29.867 64-64 64-51.2 0-93.867-38.4-102.4-85.333h-349.867c-8.533 46.933-51.2 85.333-102.4 85.333-34.133 0-64-29.867-64-64 0-12.8 8.533-21.333 21.333-21.333s21.333 8.533 21.333 21.333 8.533 21.333 21.333 21.333c34.133 0 64-29.867 64-64 0-59.733-46.933-106.667-106.667-106.667-81.067 0-149.333 68.267-149.333 149.333s68.267 149.333 149.333 149.333h640c81.067 0 149.333-68.267 149.333-149.333s-68.267-149.333-149.333-149.333h0.003z" />
<glyph unicode="&#xe930;" glyph-name="hand-bag" d="M917.333 746.667h-192v21.333c0 81.067-68.267 149.333-149.333 149.333h-128c-81.067 0-149.333-68.267-149.333-149.333v-21.333h-192c-59.733 0-106.667-46.933-106.667-106.667v-341.333c0-12.8 8.533-21.333 21.333-21.333h21.333v-234.667c0-12.8 8.533-21.333 21.333-21.333h896c12.8 0 21.333 8.533 21.333 21.333v234.667h21.333c12.8 0 21.333 8.533 21.333 21.333v341.333c0 59.733-46.933 106.667-106.667 106.667h0.002zM341.333 768c0 59.733 46.933 106.667 106.667 106.667h128c59.733 0 106.667-46.933 106.667-106.667v-21.333h-341.333v21.333h-0.001zM85.333 64v213.333h298.667v-21.333c0-12.8 8.533-21.333 21.333-21.333h213.333c12.8 0 21.333 8.533 21.333 21.333v21.333h298.667v-213.333zM597.333 277.333h-170.667v85.333h170.667v-85.333zM981.333 320h-341.333v64c0 12.8-8.533 21.333-21.333 21.333h-213.333c-12.8 0-21.333-8.533-21.333-21.333v-64h-341.333v320c0 34.133 29.867 64 64 64h810.667c34.133 0 64-29.867 64-64v-320h-0.002z" />
<glyph unicode="&#xe931;" glyph-name="medical-cross-snake" horiz-adv-x="1040" d="M463 151l-23 173v40s-13 181-17 258h4c-30-5-62-8-94-9-154 0-296 69-330 146-2 3-3 6-3 10s1 8 3 11c5 4 10 8 17 9h2c42 7 81 24 114 47 81 43 188 98 274 38v1c9 48 52 85 103 85s94-37 103-86c86 64 193 5 274-38l-2 1c35-22 74-38 118-48 7 0 13-4 17-9 4-4 4-12 17-21-30-77-176-146-330-146h-1c-36 1-72 4-102 9-4-77-17-257-17-257l-25-250s-10-115-13-136c0-2 1-3 1-5 0-20-16-36-36-38-22 0-41 17-43 39-3 42-7 133-7 133s-4 20-4 43zM59 751c51-62 201-118 360-86-4 69-9 120-9 154-64 73-146 39-253-21l2 1c-30-20-62-36-100-48zM513-29v2c4 47 10 135 13 178h-26c3-44 9-133 13-180zM526 151c4 62 13 161 17 210h-56c4-51 9-150 13-210h26zM543 361v2c20 296 34 471 34 486v1c-1 35-29 63-64 64h-1c-33 0-59-27-59-60v-5c0-17 13-188 34-488h56zM607 661l-2 2c160-30 315 26 366 84l-4 1c-34 13-66 29-94 46-107 60-189 94-253 21-4-30-9-85-13-154zM624 208c92-9 67-47 23-62s-191-50-191-72c0-12 7-23 17-30v-18s-150 56-21 93c0 0 164 51 137 58h1c-8 2-17 3-26 4 0 9 3 31 3 31 19-1 38-4 57-4zM553 28c17-9 37-17 58-21h2c-7-1-16-2-25-2-13 0-25 2-37 5h1v17zM551 426c0 0 136-19 136-64s-55-54-85-62-164-33-164-59c0-9 10-15 27-18v-31c-54 6-110 16-113 52-3 61 214 93 214 93s80 23-15 39v50zM605 544c-12 1-26 2-40 2-27 0-55-2-81-5h4c-153-34-47-101-47-101v-54c-107 20-115 90-115 90-3 129 184 128 184 128 221 15 188-62 95-60zM635 584c-4-1-8-4-8-9s4-9 9-9 9 4 9 9-4 9-9 9h-1z" />
<glyph unicode="&#xe932;" glyph-name="paint-color-tube" d="M955.733 580.267l-362.667 362.667c-8.533 8.533-21.333 8.533-29.867 0l-93.867-89.6c-8.533-8.533-8.533-21.333 0-29.867l17.067-17.067-315.733-345.6c-4.267-4.267-4.267-8.533-4.267-12.8l-29.867-174.933-85.333-85.333c-8.533-8.533-8.533-21.333 0-29.867l119.467-119.467c4.267-4.267 8.533-4.267 17.067-4.267 4.267 0 12.8 4.267 17.067 4.267l85.333 85.333 174.933 29.867c4.267 0 8.533 4.267 12.8 4.267l345.6 320 17.067-17.067c4.267-4.267 8.533-4.267 17.067-4.267s12.8 4.267 17.067 4.267l89.6 89.6c0 8.533 0 21.333-8.533 29.867zM230.4 460.8l59.733 64 247.467-247.467-64-59.733zM204.8 426.667l234.667-234.667-153.6-25.6-106.667 106.667zM183.467 85.333l-89.6 89.6 59.733 59.733 89.6-89.6zM567.467 302.933l-251.733 256 200.533 221.867 268.8-268.8zM849.067 507.733l-332.8 332.8 59.733 59.733 332.8-332.8zM678.4-4.267c-8.533 4.267-183.467 89.6-443.733 0-64-21.333-106.667-21.333-128-4.267-21.333 21.333-12.8 64-12.8 64 4.267 12.8-4.267 21.333-17.067 25.6s-21.333-4.267-25.6-17.067c0-4.267-12.8-68.267 25.6-102.4 17.067-17.067 42.667-25.6 72.533-25.6 25.6 0 59.733 4.267 98.133 17.067 243.2 81.067 409.6 0 409.6 0 8.533-4.267 21.333 0 29.867 8.533 8.533 12.8 4.267 25.6-8.533 34.133v0.001z" />
<glyph unicode="&#xe933;" glyph-name="science-chemistry-equipment" d="M512 558.933v277.333c25.6 8.533 42.667 34.133 42.667 59.733 0 34.133-29.867 64-64 64h-170.667c-34.133 0-64-29.867-64-64 0-29.867 17.067-51.2 42.667-59.733v-277.333c-128-42.667-213.333-166.4-213.333-302.933 0-174.933 145.067-320 320-320s320 145.067 320 320c0 136.533-85.333 256-213.333 302.933h-0.001zM320 917.333h170.667c12.8 0 21.333-8.533 21.333-21.333s-8.533-21.333-21.333-21.333h-170.667c-12.8 0-21.333 8.533-21.333 21.333s8.533 21.333 21.333 21.333zM324.267 520.533c12.8 4.267 17.067 12.8 17.067 21.333v290.133h128v-290.133c0-8.533 4.267-17.067 17.067-21.333 115.2-34.133 196.267-145.067 196.267-264.533 0-21.333-4.267-42.667-8.533-64h-537.6c-4.267 21.333-8.533 42.667-8.533 64 0 123.733 81.067 230.4 196.267 264.533h-0.002zM405.333-21.333c-115.2 0-213.333 72.533-256 170.667h512c-42.667-98.133-140.8-170.667-256-170.667zM917.333 832h-256c-12.8 0-21.333-8.533-21.333-21.333v-277.333c0-12.8 8.533-21.333 21.333-21.333s21.333 8.533 21.333 21.333v256h213.333v-170.667h-106.667c-12.8 0-21.333-8.533-21.333-21.333s8.533-21.333 21.333-21.333h106.667v-85.333h-42.667c-12.8 0-21.333-8.533-21.333-21.333s8.533-21.333 21.333-21.333h42.667v-85.333h-106.667c-12.8 0-21.333-8.533-21.333-21.333s8.533-21.333 21.333-21.333h106.667v-85.333h-42.667c-12.8 0-21.333-8.533-21.333-21.333s8.533-21.333 21.333-21.333h42.667v-106.667c0-59.733-46.933-106.667-106.667-106.667-38.4 0-72.533 21.333-93.867 51.2-4.267 8.533-17.067 12.8-29.867 8.533-8.533-4.267-12.8-17.067-8.533-29.867 25.6-46.933 76.8-72.533 128-72.533 81.067 0 149.333 68.267 149.333 149.333v725.333c4.267 12.8-4.267 21.333-17.067 21.333z" />
<glyph unicode="&#xe934;" glyph-name="stethoscope" d="M981.333 512c0 59.733-46.933 106.667-106.667 106.667s-106.667-46.933-106.667-106.667c0-51.2 38.4-93.867 85.333-102.4v-281.6c0-34.133-29.867-64-64-64s-64 29.867-64 64v128c0 72.533-55.467 128-128 128s-128-55.467-128-128v-213.333c0-34.133-29.867-64-64-64s-64 29.867-64 64v298.667c119.467 12.8 213.333 110.933 213.333 234.667v213.333c0 51.2-38.4 93.867-85.333 102.4v46.933c0 12.8-8.533 21.333-21.333 21.333-34.133 0-85.333-21.333-85.333-85.333s51.2-85.333 85.333-85.333c12.8 0 21.333 8.533 21.333 21.333v38.4c25.6-8.533 42.667-34.133 42.667-59.733v-213.333c0-106.667-85.333-192-192-192s-192 85.333-192 192v213.333c0 29.867 17.067 51.2 42.667 59.733v-38.4c0-12.8 8.533-21.333 21.333-21.333 34.133 0 85.333 21.333 85.333 85.333s-51.2 85.333-85.333 85.333c-12.8 0-21.333-8.533-21.333-21.333v-46.933c-46.933-8.533-85.333-51.2-85.333-102.4v-213.333c0-123.733 93.867-221.867 213.333-234.667v-298.667c0-59.733 46.933-106.667 106.667-106.667s106.667 46.933 106.667 106.667v213.333c0 46.933 38.4 85.333 85.333 85.333s85.333-38.4 85.333-85.333v-128c0-59.733 46.933-106.667 106.667-106.667s106.667 46.933 106.667 106.667v281.6c46.933 8.533 85.333 51.2 85.333 102.4zM426.667 836.267c-12.8 4.267-21.333 17.067-21.333 38.4s8.533 34.133 21.333 38.4zM213.333 913.067c12.8-4.267 21.333-17.067 21.333-38.4s-8.533-34.133-21.333-38.4v76.8zM874.667 448c-34.133 0-64 29.867-64 64s29.867 64 64 64 64-29.867 64-64-29.867-64-64-64z" />
<glyph unicode="&#xe935;" glyph-name="pen-paint-brush" d="M618.667 396.8l341.333 341.333c4.267-8.533 8.533-21.333 8.533-29.867 0-17.067-8.533-38.4-17.067-46.933l-213.333-213.333c-8.533-8.533-8.533-21.333 0-29.867 4.267-4.267 8.533-4.267 17.067-4.267s12.8 0 17.067 4.267l213.333 213.333c21.333 21.333 29.867 46.933 29.867 81.067 0 21.333-4.267 42.667-17.067 64l29.867 29.867c8.533 8.533 8.533 21.333 0 29.867l-128 128c-12.8-8.533-21.333-4.267-25.6-4.267s-12.8-4.267-17.067-4.267l-418.134-418.134-42.667 34.133c8.533 25.6 12.8 55.467 8.533 85.333-4.267 42.667-29.867 85.333-64 110.933-21.333 17.067-46.933 25.6-76.8 34.133-64 21.333-119.467 38.4-115.2 136.533 0 8.533-4.267 17.067-12.8 21.333-8.533 0-17.067 0-21.333-4.267-85.333-85.333-115.2-196.267-81.067-307.2 29.867-98.133 106.667-174.933 187.733-192 8.533 0 17.067-4.267 25.6-4.267 21.333 0 42.667 4.267 64 17.067l34.133-34.133-251.733-251.733c-8.533-8.533-8.533-21.333 0-29.867l17.067-17.067-59.733-59.733c-8.533-8.533-8.533-21.333 0-29.867l17.067-17.067-59.733-59.733c-8.533-8.533-8.533-21.333 0-29.867 0-4.267 8.533-4.267 12.8-4.267s12.8 0 17.067 4.267l59.733 59.733 17.067-17.067s8.533-4.267 12.8-4.267c4.267 0 12.8 4.267 17.067 4.267l59.733 59.733 17.067-17.067s8.533-4.267 12.8-4.267 12.8 4.267 17.067 4.267l260.267 260.267 371.2-345.6c4.267-4.267 8.533-4.267 12.8-4.267h25.6c29.867 0 55.467 0 76.8 21.333 17.067 17.067 25.6 51.2 25.6 106.667 0 8.533-4.267 12.8-8.533 17.067l-396.8 315.733zM874.667 908.8l98.133-98.133-204.8-204.8-98.133 98.133zM226.133 499.2c-64 12.8-128 76.8-153.6 162.133-21.333 81.067-8.533 157.867 38.4 226.133 17.067-85.333 89.6-106.667 140.8-123.733 25.6-8.533 46.933-17.067 64-29.867 25.6-21.333 46.933-51.2 51.2-85.333 4.267-25.6 0-51.2-12.8-76.8v0c-4.267-4.267-8.533-12.8-12.8-17.067v0 0c-4.267-8.533-12.8-12.8-17.067-21.333l-4.267-4.267s-12.8-12.8-21.333-17.067v0c-21.333-8.533-42.667-17.067-72.533-12.8zM345.6 494.933v0l29.867 29.867s0 4.267 4.267 4.267l34.133-25.6-38.4-38.4-29.867 29.866zM128 29.867l-34.133 34.133 42.667 42.667 34.133-29.867zM234.667 72.533l-98.133 98.133 503.467 503.467 98.133-98.133-243.2-243.2zM968.533-12.8c-8.533-8.533-29.867-8.533-59.733-8.533h-4.267l-366.933 337.067 46.933 46.933 392.533-311.467c4.267-34.133 0-55.467-8.533-64z" />
<glyph unicode="&#xe936;" glyph-name="computer-screen" d="M64 874.667c-35.103 0-64-28.897-64-64v-554.667c0-35.103 28.897-64 64-64h896c35.125 0 64 28.923 64 64v554.667c0 35.077-28.875 64-64 64h-896zM64 832h896c11.894 0 21.333-9.477 21.333-21.333v-554.667c0-11.856-9.439-21.333-21.333-21.333h-896c-11.83 0-21.333 9.503-21.333 21.333v554.667c0 11.83 9.503 21.333 21.333 21.333zM106.667 789.333c-11.782-0.001-21.332-9.552-21.333-21.333v0-469.333c0.001-11.782 9.552-21.332 21.333-21.333h810.667c11.782 0.001 21.332 9.552 21.333 21.333v0 469.333c-0.001 11.782-9.552 21.332-21.333 21.333v0h-810.667zM128 746.667h768v-426.667h-768v426.667zM298.667 106.667c-0.090 0.001-0.196 0.002-0.302 0.002-11.783 0-21.335-9.552-21.335-21.335s9.552-21.335 21.335-21.335c0.106 0 0.212 0.001 0.318 0.002h426.651c0.090-0.001 0.196-0.002 0.302-0.002 11.783 0 21.335 9.552 21.335 21.335s-9.552 21.335-21.335 21.335c-0.106 0-0.212-0.001-0.318-0.002h0.016zM426.667 213.333v-128h42.667v128h-42.667zM554.667 213.333v-128h42.667v128h-42.667z" />
<glyph unicode="&#xe937;" glyph-name="bubble-chat" d="M512 917.333c-280.425 0-511.962-186.437-511.917-421.667 0-112.902 56.778-213.318 143.333-288.417l-104.333-208.333c-1.433-2.79-2.273-6.088-2.273-9.582 0-11.783 9.552-21.335 21.335-21.335 3.275 0 6.377 0.738 9.15 2.056l-0.129-0.055 276.583 128.75c52.904-15.203 109.129-24.75 168.25-24.75 280.427 0 512 186.479 512 421.667 0 235.228-231.575 421.667-512 421.667zM512 874.667c261.613 0 469.333-172.030 469.333-379 0-206.924-207.723-379-469.333-379-58.395 0-114.191 8.612-165.667 24.333-1.89 0.608-4.065 0.958-6.322 0.958-3.239 0-6.309-0.722-9.059-2.013l0.131 0.055-226.417-105.417 83 165.667c1.413 2.774 2.241 6.050 2.241 9.519 0 6.715-3.102 12.705-7.951 16.616l-0.041 0.032c-86.65 69.312-139.167 164.453-139.167 269.25-0.040 206.968 207.637 379 469.25 379z" />
<glyph unicode="&#xe938;" glyph-name="bubble-chat-text" d="M512.083 922.583c-280.425 0-512-186.439-512-421.667 0-112.902 56.778-213.318 143.333-288.417l-104.333-208.25c-1.433-2.79-2.273-6.088-2.273-9.582 0-11.783 9.552-21.335 21.335-21.335 3.275 0 6.377 0.738 9.15 2.056l-0.129-0.055 276.5 128.75c52.929-15.219 109.18-24.833 168.333-24.833 280.427 0 512 186.479 512 421.667 0 235.225-231.492 421.667-511.917 421.667zM512.083 879.917c261.613 0 469.25-172.027 469.25-379 0-206.924-207.723-379-469.333-379-58.395 0-114.191 8.695-165.667 24.417-1.859 0.587-3.997 0.925-6.214 0.925-3.281 0-6.389-0.74-9.165-2.063l0.129 0.055-226.417-105.417 83 165.667c1.432 2.789 2.271 6.086 2.271 9.579 0 6.728-3.114 12.729-7.98 16.639l-0.042 0.032c-86.65 69.312-139.167 164.369-139.167 269.167 0 206.97 207.721 379 469.333 379zM320 618.667c-0.090 0.001-0.196 0.002-0.302 0.002-11.783 0-21.335-9.552-21.335-21.335s9.552-21.335 21.335-21.335c0.106 0 0.212 0.001 0.318 0.002h277.317c0.090-0.001 0.196-0.002 0.302-0.002 11.783 0 21.335 9.552 21.335 21.335s-9.552 21.335-21.335 21.335c-0.106 0-0.212-0.001-0.318-0.002h0.016zM320 490.667c-0.090 0.001-0.196 0.002-0.302 0.002-11.783 0-21.335-9.552-21.335-21.335s9.552-21.335 21.335-21.335c0.106 0 0.212 0.001 0.318 0.002h405.317c0.090-0.001 0.196-0.002 0.302-0.002 11.783 0 21.335 9.552 21.335 21.335s-9.552 21.335-21.335 21.335c-0.106 0-0.212-0.001-0.318-0.002h0.016zM320 362.667c-0.090 0.001-0.196 0.002-0.302 0.002-11.783 0-21.335-9.552-21.335-21.335s9.552-21.335 21.335-21.335c0.106 0 0.212 0.001 0.318 0.002h405.317c0.090-0.001 0.196-0.002 0.302-0.002 11.783 0 21.335 9.552 21.335 21.335s-9.552 21.335-21.335 21.335c-0.106 0-0.212-0.001-0.318-0.002h0.016z" />
<glyph unicode="&#xe939;" glyph-name="bubble-thought" d="M192 214.083c-46.876 0-85.333-38.458-85.333-85.333s38.458-85.333 85.333-85.333c46.876 0 85.333 38.458 85.333 85.333s-38.458 85.333-85.333 85.333zM192 171.417c23.817 0 42.667-18.85 42.667-42.667s-18.85-42.667-42.667-42.667c-23.817 0-42.667 18.85-42.667 42.667s18.85 42.667 42.667 42.667zM682.667 960.75c-125.468 0-222.419-68.893-283.667-168-39.563 23.987-84.537 40-133.917 40-146.388 0-265.083-121.447-265.083-270.167s118.696-270.25 265.083-270.25c0.861 0 0.995 0.060 1.75 0.085 48.399-63.513 122.001-106.75 207.083-106.75 60.188 0 114.991 21.916 159.5 56.417 20.639-3.81 41.633-6.667 63.333-6.667 98.196 0 181.197 41.315 238.333 107.417 57.136 66.1 88.917 156.423 88.917 255.248 0 198.716-144.941 362.667-341.333 362.667zM682.667 918.083c172.845 0 298.667-141.713 298.667-320 0-89.676-28.852-169.977-78.5-227.417s-119.661-92.583-206.083-92.583c-21.694 0-42.792 2.351-63.333 6.667-1.321 0.291-2.838 0.457-4.394 0.457-5.264 0-10.082-1.906-13.803-5.066l0.031 0.025c-38.508-32.427-87.606-51.833-141.333-51.833-75.718 0-142.259 38.578-182.5 97.75-3.893 5.671-10.34 9.342-17.645 9.342-0.213 0-0.425-0.003-0.636-0.009l0.031 0.001c-4.191-0.119-6.788-0.418-8.083-0.418-122.839 0.001-222.417 101.446-222.417 227.585s99.578 227.5 222.417 227.5c47.797 0 91.766-15.537 128.167-41.833 3.46-2.521 7.795-4.033 12.483-4.033 8.003 0 14.977 4.406 18.628 10.925l0.055 0.108c54.508 98.593 141.262 162.833 258.25 162.833zM298.667 576.75c-23.311 0-42.667-19.355-42.667-42.667s19.355-42.667 42.667-42.667c23.311 0 42.667 19.355 42.667 42.667s-19.355 42.667-42.667 42.667zM512 576.75c-23.311 0-42.667-19.355-42.667-42.667s19.355-42.667 42.667-42.667c23.311 0 42.667 19.355 42.667 42.667s-19.355 42.667-42.667 42.667zM725.333 576.75c-23.311 0-42.667-19.355-42.667-42.667s19.355-42.667 42.667-42.667c23.311 0 42.667 19.355 42.667 42.667s-19.355 42.667-42.667 42.667zM42.667 22.083c-23.311 0-42.667-19.355-42.667-42.667s19.355-42.667 42.667-42.667c23.311 0 42.667 19.355 42.667 42.667s-19.355 42.667-42.667 42.667z" />
<glyph unicode="&#xe93a;" glyph-name="camera" d="M149.333 789.333c-35.313 0-62.833-29.495-62.833-64l-1.167-42.083 42.667-1.167 1.167 42.667c0.001 0.087 0.002 0.189 0.002 0.292s-0.001 0.205-0.002 0.307v-0.015c0 10.039 10.851 21.333 20.167 21.333h40.25c11.496 0 23.75-12.684 23.75-21.333v-42.667h42.667v42.667c0 35.895-30.467 64-66.417 64zM512 832c-28.181 0-51.377-15.61-71.583-38.667-18.447-21.050-39.36-51.832-67.083-89.333h-266.667c-35.219 0-62.782-8.096-81.417-26s-25.25-43.156-25.25-68.833v-443.25c0-25.66 6.322-51.781 24.75-71.5s47.272-30.417 84.333-30.417h805.917c37.061 0 65.905 10.698 84.333 30.417s24.75 45.84 24.75 71.5v443.25c-0.025 25.673-6.719 51.122-25.75 69s-47.119 25.833-83.417 25.833h-69.833c-11.293 23.81-22.456 50.63-38.083 74.667-18.102 27.841-44.621 53.333-81.667 53.333zM512 789.333h213.333c17.994 0 31.229-11.326 45.917-33.917s27.519-53.954 41.667-82.25c3.571-7.065 10.77-11.826 19.082-11.833h82.918c30.092 0 45.923-6.506 54.167-14.25s12.315-19.046 12.333-37.917v-443.25c0-18.842-4.414-32.962-13.25-42.417s-23.838-16.833-53.167-16.833h-805.917c-29.328 0-44.331 7.379-53.167 16.833s-13.25 23.575-13.25 42.417v443.25c0 18.866 4.051 30.366 12.083 38.083s23.136 14.083 51.917 14.083h277.333c0.012 0 0.026 0 0.041 0 6.941 0 13.108 3.315 17.004 8.447l0.038 0.053c32.91 43.901 54.577 76.118 71.417 95.333s25.015 24.167 39.5 24.167zM618.667 661.333c-141.132 0-256-114.868-256-256s114.868-256 256-256c141.132 0 256 114.868 256 256s-114.868 256-256 256zM618.667 618.667c118.073 0 213.333-95.26 213.333-213.333s-95.26-213.333-213.333-213.333c-118.073 0-213.333 95.26-213.333 213.333s95.26 213.333 213.333 213.333zM618.667 554.667c-82.222 0-149.333-67.112-149.333-149.333s67.112-149.333 149.333-149.333c82.222 0 149.333 67.112 149.333 149.333s-67.112 149.333-149.333 149.333zM618.667 512c59.163 0 106.667-47.504 106.667-106.667s-47.504-106.667-106.667-106.667c-59.163 0-106.667 47.504-106.667 106.667s47.504 106.667 106.667 106.667zM170.667 618.667c-46.876 0-85.333-38.458-85.333-85.333s38.458-85.333 85.333-85.333c46.876 0 85.333 38.458 85.333 85.333s-38.458 85.333-85.333 85.333zM170.667 576c23.817 0 42.667-18.85 42.667-42.667s-18.85-42.667-42.667-42.667c-23.817 0-42.667 18.85-42.667 42.667s18.85 42.667 42.667 42.667z" />
</font>
</defs>
</svg>
