<?xml version="1.0" standalone="no"?>
<!DOCTYPE svg PUBLIC "-//W3C//DTD SVG 1.1//EN" "http://www.w3.org/Graphics/SVG/1.1/DTD/svg11.dtd" >
<svg xmlns="http://www.w3.org/2000/svg" xmlns:xlink="http://www.w3.org/1999/xlink" version="1.1">
<metadata>
Created by FontForge 20170910 at Fri Jul 25 10:09:12 2014
 By Jimmy Wärting
Copyright \(c\) 2014 by Yellow Design Studio. All rights reserved.
</metadata>
<defs>
<font id="LuloCleanOne" horiz-adv-x="1056" >
  <font-face 
    font-family="Lulo Clean One"
    font-weight="400"
    font-stretch="normal"
    units-per-em="1000"
    panose-1="2 1 3 4 2 2 0 0 0 3"
    ascent="800"
    descent="-200"
    x-height="780"
    cap-height="780"
    bbox="-49 -314 1415 1079"
    underline-thickness="50"
    underline-position="-100"
    stemh="47"
    stemv="47"
    unicode-range="U+0020-F8FF"
  />
<missing-glyph horiz-adv-x="346" 
 />
    <glyph glyph-name=".notdef" horiz-adv-x="346" 
 />
    <glyph glyph-name="space" unicode=" " horiz-adv-x="546" 
 />
    <glyph glyph-name="exclam" unicode="!" horiz-adv-x="458" 
d="M97 780h64l-9 -579h-46zM77 39c0 28 24 51 52 51s52 -23 52 -51c0 -29 -24 -51 -52 -51s-52 22 -52 51z" />
    <glyph glyph-name="numbersign" unicode="#" horiz-adv-x="947" 
d="M100 502v57h139l39 221h62l-39 -221h204l39 221h61l-39 -221h130v-57h-140l-39 -225h130v-56h-140l-38 -221h-61l38 221h-204l-38 -221h-62l38 221h-129v56h139l39 225h-129zM291 502l-39 -225h204l39 225h-204z" />
    <glyph glyph-name="dollar" unicode="$" horiz-adv-x="803" 
d="M62 237h58v-6c0 -65 73 -118 189 -118c112 0 172 49 172 113c0 81 -90 107 -188 137c-108 35 -225 77 -225 190c0 93 80 160 206 166v86h57v-87c119 -11 201 -78 201 -166v-7h-58v6c0 64 -69 116 -179 116c-108 0 -165 -48 -165 -112c0 -76 77 -105 179 -136
c100 -30 234 -67 234 -190c0 -95 -83 -162 -212 -169v-85h-57v86c-125 11 -212 78 -212 168v8z" />
    <glyph glyph-name="percent" unicode="%" horiz-adv-x="1196" 
d="M44 611c0 102 80 183 183 183s183 -81 183 -183c0 -101 -80 -184 -183 -184s-183 83 -183 184zM97 611c0 -71 60 -130 130 -130c71 0 129 59 129 130c0 70 -58 130 -129 130c-70 0 -130 -60 -130 -130zM586 173c0 103 80 183 183 183s184 -80 184 -183
s-81 -184 -184 -184s-183 81 -183 184zM639 173c0 -71 60 -129 130 -129c71 0 130 58 130 129c0 70 -59 130 -130 130c-70 0 -130 -60 -130 -130zM250 0h-69l562 780h69z" />
    <glyph glyph-name="ampersand" unicode="&#x26;" horiz-adv-x="970" 
d="M733 0h-81l-109 117c-83 -75 -180 -132 -284 -132c-137 0 -210 85 -210 174c0 126 121 187 223 247c-65 66 -113 124 -113 207c0 104 84 182 192 182c105 0 188 -80 188 -177c0 -105 -87 -160 -180 -217l187 -200c50 52 94 109 128 159l45 -37
c-36 -52 -81 -111 -133 -165zM259 42c84 0 169 51 244 118l-196 210c-103 -59 -198 -114 -198 -207c0 -62 54 -121 150 -121zM216 613c0 -63 42 -109 107 -175c95 61 160 103 160 180c0 68 -59 124 -132 124c-76 0 -135 -55 -135 -129z" />
    <glyph glyph-name="quotesingle" unicode="'" horiz-adv-x="433" 
d="M139 463h-46l-6 317h58z" />
    <glyph glyph-name="parenleft" unicode="(" horiz-adv-x="571" 
d="M310 975l37 -46c-121 -97 -230 -285 -230 -539c0 -253 109 -441 230 -538l-37 -46c-130 106 -252 313 -252 584c0 272 122 479 252 585z" />
    <glyph glyph-name="parenright" unicode=")" horiz-adv-x="572" 
d="M61 -194l-37 46c121 97 230 285 230 539c0 253 -109 441 -230 538l37 46c130 -106 252 -313 252 -584c0 -272 -122 -479 -252 -585z" />
    <glyph glyph-name="asterisk" unicode="*" horiz-adv-x="727" 
d="M294 780l-8 -173l161 60l18 -55l-167 -46l107 -134l-47 -34l-95 145l-94 -143l-47 34l107 135l-165 45l19 55l160 -60l-7 171h58z" />
    <glyph glyph-name="plus" unicode="+" horiz-adv-x="768" 
d="M256 583h56v-190h190v-56h-190v-189h-56v189h-190v56h190v190z" />
    <glyph glyph-name="comma" unicode="," horiz-adv-x="444" 
d="M52 -163l-25 28c24 23 75 70 89 127c-23 -4 -48 18 -48 47c0 28 24 51 52 51s54 -22 54 -59c0 -78 -74 -153 -122 -194z" />
    <glyph glyph-name="hyphen" unicode="-" horiz-adv-x="643" 
d="M358 353v-56h-272v56h272z" />
    <glyph glyph-name="period" unicode="." horiz-adv-x="442" 
d="M69 39c0 28 24 51 52 51s51 -23 51 -51c0 -29 -23 -51 -51 -51s-52 22 -52 51z" />
    <glyph glyph-name="slash" unicode="/" horiz-adv-x="874" 
d="M579 928h65l-548 -1076h-65z" />
    <glyph glyph-name="zero" unicode="0" horiz-adv-x="928" 
d="M67 390c0 219 104 405 296 405c193 0 298 -186 298 -405s-105 -405 -298 -405c-192 0 -296 186 -296 405zM126 390c0 -194 89 -347 237 -347c149 0 239 153 239 347s-90 347 -239 347c-148 0 -237 -153 -237 -347z" />
    <glyph glyph-name="one" unicode="1" horiz-adv-x="544" 
d="M41 659v62l171 59h41v-780h-59v711z" />
    <glyph glyph-name="two" unicode="2" horiz-adv-x="842" 
d="M576 59v-59h-516v45l309 300c77 75 141 134 141 220c0 107 -82 172 -183 172c-102 0 -199 -57 -199 -191v-13h-58v13c0 174 133 249 257 249c129 0 242 -87 242 -230c0 -112 -84 -189 -161 -264l-250 -242h418z" />
    <glyph glyph-name="three" unicode="3" horiz-adv-x="830" 
d="M60 59l31 49c78 -48 146 -65 209 -65c120 0 205 72 205 164c0 103 -106 173 -279 173v52c179 0 254 91 254 167c0 85 -77 140 -172 140c-94 0 -169 -55 -169 -128v-2h-57v8c0 95 99 178 226 178c121 0 230 -72 230 -191c0 -74 -51 -156 -162 -196
c117 -33 189 -106 189 -204c0 -126 -117 -219 -264 -219c-74 0 -157 22 -241 74z" />
    <glyph glyph-name="four" unicode="4" horiz-adv-x="878" 
d="M524 0h-58v165h-428v44l319 571h67l-313 -558h355v215h58v-215h113v-57h-113v-165z" />
    <glyph glyph-name="five" unicode="5" horiz-adv-x="862" 
d="M554 780v-59h-343l-50 -307c26 23 94 69 190 69c156 0 257 -111 257 -243c0 -144 -120 -255 -278 -255c-125 0 -228 70 -282 164l51 29c47 -80 128 -135 230 -135c127 0 220 86 220 198c0 99 -75 188 -204 188c-65 0 -133 -23 -201 -92l-51 23l72 420h389z" />
    <glyph glyph-name="six" unicode="6" horiz-adv-x="853" 
d="M348 780h72l-184 -280c31 13 65 20 101 20c147 0 266 -115 266 -265c0 -149 -122 -270 -273 -270c-149 0 -270 121 -270 269c0 49 14 106 40 145zM159 383c-27 -37 -41 -78 -41 -127c0 -119 94 -213 212 -213c120 0 215 94 215 212c0 120 -95 215 -215 215
c-71 0 -132 -34 -171 -87z" />
    <glyph glyph-name="seven" unicode="7" horiz-adv-x="797" 
d="M47 721v59h526v-47l-362 -733h-67l360 721h-457z" />
    <glyph glyph-name="eight" unicode="8" horiz-adv-x="880" 
d="M64 211c0 98 67 172 161 205c-76 31 -130 93 -130 176c0 117 113 203 244 203c132 0 246 -86 246 -203c0 -83 -55 -145 -132 -176c94 -33 162 -107 162 -205c0 -131 -127 -226 -276 -226s-275 95 -275 226zM124 214c0 -99 94 -175 215 -175s216 76 216 175
c0 100 -95 176 -216 176s-215 -76 -215 -176zM154 591c0 -86 81 -152 185 -152c105 0 187 66 187 152c0 84 -82 151 -187 151c-104 0 -185 -67 -185 -151z" />
    <glyph glyph-name="nine" unicode="9" horiz-adv-x="853" 
d="M305 0h-72l184 280c-31 -13 -65 -20 -101 -20c-147 0 -266 115 -266 265c0 149 122 270 273 270c149 0 270 -121 270 -269c0 -49 -14 -106 -40 -145zM494 397c27 37 41 78 41 127c0 119 -94 213 -212 213c-120 0 -215 -94 -215 -212c0 -120 95 -215 215 -215
c71 0 132 34 171 87z" />
    <glyph glyph-name="colon" unicode=":" horiz-adv-x="480" 
d="M88 39c0 28 24 51 52 51s51 -23 51 -51c0 -29 -23 -51 -51 -51s-52 22 -52 51zM88 396c0 28 24 51 52 51s51 -23 51 -51c0 -29 -23 -51 -51 -51s-52 22 -52 51z" />
    <glyph glyph-name="semicolon" unicode=";" horiz-adv-x="541" 
d="M110 -163l-25 28c24 23 75 70 89 127c-23 -4 -48 18 -48 47c0 28 24 51 52 51s54 -22 54 -59c0 -78 -74 -153 -122 -194zM129 396c0 28 24 51 52 51s51 -23 51 -51c0 -29 -23 -51 -51 -51s-52 22 -52 51z" />
    <glyph glyph-name="less" unicode="&#x3c;" horiz-adv-x="801" 
d="M54 341v50l451 221v-64l-378 -182l378 -182v-64z" />
    <glyph glyph-name="equal" unicode="=" horiz-adv-x="818" 
d="M91 466v56h435v-56h-435zM91 210v56h435v-56h-435z" />
    <glyph glyph-name="greater" unicode="&#x3e;" horiz-adv-x="801" 
d="M547 391v-50l-451 -221v64l378 182l-378 182v64z" />
    <glyph glyph-name="question" unicode="?" horiz-adv-x="732" 
d="M260 263h-53v36c0 80 59 121 114 159c54 38 99 73 99 144c0 81 -62 136 -150 136c-79 0 -159 -47 -159 -135v-21h-58v25c0 123 115 187 218 187c114 0 208 -73 208 -191c0 -95 -62 -144 -120 -184c-52 -37 -99 -67 -99 -126v-30zM182 39c0 28 24 51 52 51s51 -23 51 -51
c0 -29 -23 -51 -51 -51s-52 22 -52 51z" />
    <glyph glyph-name="at" unicode="@" horiz-adv-x="1194" 
d="M300 373c0 119 104 218 222 218c106 0 186 -84 186 -188c0 -47 -16 -90 -43 -126c13 -36 46 -63 91 -63c57 0 140 51 140 202c0 203 -154 364 -359 364c-229 0 -426 -189 -426 -421c0 -200 153 -362 358 -362c64 0 130 16 189 46l24 -40c-66 -34 -140 -53 -217 -53
c-231 0 -403 180 -403 406c0 260 221 474 479 474c231 0 405 -182 405 -410c0 -185 -107 -254 -189 -254c-57 0 -104 29 -127 73c-40 -33 -90 -54 -144 -54c-106 0 -186 84 -186 188zM349 377c0 -80 60 -143 141 -143c90 0 169 75 169 165c0 80 -61 143 -142 143
c-90 0 -168 -75 -168 -165z" />
    <glyph glyph-name="A" unicode="A" horiz-adv-x="1008" 
d="M372 780h64l358 -780h-65l-80 176h-490l-79 -176h-66zM404 716l-219 -484h438z" />
    <glyph glyph-name="B" unicode="B" horiz-adv-x="988" 
d="M112 0v780h352c151 0 229 -94 229 -201c0 -81 -46 -149 -118 -180c92 -28 150 -102 150 -191c0 -112 -89 -208 -227 -208h-386zM493 370h-322v-315h322c107 0 172 76 172 159c0 82 -65 156 -172 156zM461 724h-290v-304h306c95 0 156 73 156 153c0 79 -58 151 -172 151z
" />
    <glyph glyph-name="C" unicode="C" horiz-adv-x="1061" 
d="M761 215l54 -26c-70 -122 -202 -204 -352 -204c-225 0 -407 181 -407 405c0 223 182 405 407 405c149 0 280 -82 351 -203l-54 -26c-61 101 -171 170 -297 170c-191 0 -347 -156 -347 -346c0 -191 156 -346 347 -346c127 0 237 69 298 171z" />
    <glyph glyph-name="D" unicode="D" horiz-adv-x="1041" 
d="M112 0v780h305c237 0 363 -172 363 -390c0 -219 -126 -390 -363 -390h-305zM414 722h-243v-664h243c197 0 307 143 307 332s-110 332 -307 332z" />
    <glyph glyph-name="E" unicode="E" horiz-adv-x="910" 
d="M112 0v780h536v-58h-477v-311h406v-56h-406v-297h477v-58h-536z" />
    <glyph glyph-name="F" unicode="F" horiz-adv-x="885" 
d="M112 0v780h516v-58h-457v-337h396v-56h-396v-329h-59z" />
    <glyph glyph-name="G" unicode="G" horiz-adv-x="1084" 
d="M472 349v52h341v-401h-53v134c-64 -92 -175 -149 -297 -149c-225 0 -407 181 -407 405c0 223 182 405 407 405c133 0 252 -65 326 -165l-49 -34c-64 85 -165 140 -277 140c-191 0 -347 -156 -347 -346c0 -191 156 -346 347 -346c124 0 233 66 294 167v138h-285z" />
    <glyph glyph-name="H" unicode="H" horiz-adv-x="1078" 
d="M707 780h59v-780h-59v355h-536v-355h-59v780h59v-369h536v369z" />
    <glyph glyph-name="I" unicode="I" horiz-adv-x="482" 
d="M112 780h59v-780h-59v780z" />
    <glyph glyph-name="J" unicode="J" horiz-adv-x="881" 
d="M519 780h59v-520c0 -180 -123 -275 -266 -275s-268 95 -268 275v66h60v-66c0 -147 97 -217 208 -217c109 0 207 70 207 217v520z" />
    <glyph glyph-name="K" unicode="K" horiz-adv-x="978" 
d="M112 0v780h59v-476l503 476h80l-339 -322l353 -458h-75l-322 416l-200 -190v-226h-59z" />
    <glyph glyph-name="L" unicode="L" horiz-adv-x="855" 
d="M112 0v780h59v-722h451v-58h-510z" />
    <glyph glyph-name="M" unicode="M" horiz-adv-x="1215" 
d="M171 0h-59v780h56l340 -676l340 676h56v-780h-59v656l-317 -631h-41l-316 629v-654z" />
    <glyph glyph-name="N" unicode="N" horiz-adv-x="1075" 
d="M171 0h-59v780h53l540 -679v679h59v-780h-53l-540 678v-678z" />
    <glyph glyph-name="O" unicode="O" horiz-adv-x="1125" 
d="M56 390c0 223 182 405 407 405c224 0 406 -182 406 -405c0 -224 -182 -405 -406 -405c-225 0 -407 181 -407 405zM116 390c0 -191 156 -346 347 -346c190 0 346 155 346 346c0 190 -156 346 -346 346c-191 0 -347 -156 -347 -346z" />
    <glyph glyph-name="P" unicode="P" horiz-adv-x="942" 
d="M112 0v780h301c182 0 286 -124 286 -269c0 -142 -104 -268 -286 -268h-242v-243h-59zM411 724h-240v-425h240c145 0 228 102 228 212c0 115 -83 213 -228 213z" />
    <glyph glyph-name="Q" unicode="Q" horiz-adv-x="1122" 
d="M56 390c0 223 181 405 405 405c223 0 405 -182 405 -405c0 -188 -128 -345 -300 -391c102 -51 207 -125 293 -125c44 0 80 15 109 54l46 -38c-44 -58 -105 -74 -154 -74c-154 0 -315 164 -447 172c-201 23 -357 194 -357 402zM116 390c0 -191 155 -346 345 -346
c189 0 344 155 344 346c0 190 -155 346 -344 346c-190 0 -345 -156 -345 -346z" />
    <glyph glyph-name="R" unicode="R" horiz-adv-x="994" 
d="M112 780h344c169 0 266 -116 266 -251c0 -110 -64 -207 -178 -241l205 -288h-72l-197 277c-8 -1 -16 -1 -24 -1h-285v-276h-59v780zM454 724h-283v-392h283c136 0 210 92 210 196c0 103 -74 196 -210 196z" />
    <glyph glyph-name="S" unicode="S" horiz-adv-x="904" 
d="M59 195h58v-4c0 -87 94 -151 245 -151c145 0 223 61 223 145c0 102 -110 138 -242 178c-127 39 -278 87 -278 228c0 122 108 204 277 204c172 0 292 -85 292 -202v-9h-58v5c0 87 -89 151 -234 151c-139 0 -215 -61 -215 -145c0 -100 106 -135 233 -175
c125 -38 288 -86 288 -232c0 -123 -113 -203 -286 -203c-178 0 -303 84 -303 202v8z" />
    <glyph glyph-name="T" unicode="T" horiz-adv-x="876" 
d="M27 722v58h622v-58h-282v-722h-59v722h-281z" />
    <glyph glyph-name="U" unicode="U" 
d="M696 780h59v-485c0 -175 -114 -310 -327 -310s-327 135 -327 310v485h59v-483c0 -147 94 -254 268 -254c175 0 268 107 268 254v483z" />
    <glyph glyph-name="V" unicode="V" horiz-adv-x="1008" 
d="M436 0h-63l-359 780h66l324 -717l325 717h65z" />
    <glyph glyph-name="W" unicode="W" horiz-adv-x="1333" 
d="M340 0h-65l-251 780h64l220 -692l229 692h58l229 -692l221 692h64l-251 -780h-65l-227 685z" />
    <glyph glyph-name="X" unicode="X" horiz-adv-x="891" 
d="M93 780l252 -339l253 339h70l-287 -387l293 -393h-71l-257 346l-257 -346h-72l293 393l-287 387h70z" />
    <glyph glyph-name="Y" unicode="Y" horiz-adv-x="933" 
d="M83 780l283 -433l284 433h69l-323 -494v-286h-59v285l-323 495h69z" />
    <glyph glyph-name="Z" unicode="Z" horiz-adv-x="820" 
d="M50 722v58h530v-45l-467 -677h465v-58h-545v45l466 677h-449z" />
    <glyph glyph-name="bracketleft" unicode="[" horiz-adv-x="566" 
d="M331 -129v-57h-241v1153h241v-57h-182v-1039h182z" />
    <glyph glyph-name="backslash" unicode="\" horiz-adv-x="874" 
d="M31 927h65l548 -1076h-65z" />
    <glyph glyph-name="bracketright" unicode="]" horiz-adv-x="566" 
d="M35 910v57h241v-1153h-241v57h182v1039h-182z" />
    <glyph glyph-name="underscore" unicode="_" horiz-adv-x="827" 
d="M588 -80v-54h-549v54h549z" />
    <glyph glyph-name="a" unicode="a" horiz-adv-x="1008" 
d="M372 780h64l358 -780h-65l-80 176h-490l-79 -176h-66zM404 716l-219 -484h438z" />
    <glyph glyph-name="b" unicode="b" horiz-adv-x="988" 
d="M112 0v780h352c151 0 229 -94 229 -201c0 -81 -46 -149 -118 -180c92 -28 150 -102 150 -191c0 -112 -89 -208 -227 -208h-386zM493 370h-322v-315h322c107 0 172 76 172 159c0 82 -65 156 -172 156zM461 724h-290v-304h306c95 0 156 73 156 153c0 79 -58 151 -172 151z
" />
    <glyph glyph-name="c" unicode="c" horiz-adv-x="1061" 
d="M761 215l54 -26c-70 -122 -202 -204 -352 -204c-225 0 -407 181 -407 405c0 223 182 405 407 405c149 0 280 -82 351 -203l-54 -26c-61 101 -171 170 -297 170c-191 0 -347 -156 -347 -346c0 -191 156 -346 347 -346c127 0 237 69 298 171z" />
    <glyph glyph-name="d" unicode="d" horiz-adv-x="1041" 
d="M112 0v780h305c237 0 363 -172 363 -390c0 -219 -126 -390 -363 -390h-305zM414 722h-243v-664h243c197 0 307 143 307 332s-110 332 -307 332z" />
    <glyph glyph-name="e" unicode="e" horiz-adv-x="910" 
d="M112 0v780h536v-58h-477v-311h406v-56h-406v-297h477v-58h-536z" />
    <glyph glyph-name="f" unicode="f" horiz-adv-x="885" 
d="M112 0v780h516v-58h-457v-337h396v-56h-396v-329h-59z" />
    <glyph glyph-name="g" unicode="g" horiz-adv-x="1084" 
d="M472 349v52h341v-401h-53v134c-64 -92 -175 -149 -297 -149c-225 0 -407 181 -407 405c0 223 182 405 407 405c133 0 252 -65 326 -165l-49 -34c-64 85 -165 140 -277 140c-191 0 -347 -156 -347 -346c0 -191 156 -346 347 -346c124 0 233 66 294 167v138h-285z" />
    <glyph glyph-name="h" unicode="h" horiz-adv-x="1078" 
d="M707 780h59v-780h-59v355h-536v-355h-59v780h59v-369h536v369z" />
    <glyph glyph-name="i" unicode="i" horiz-adv-x="482" 
d="M112 780h59v-780h-59v780z" />
    <glyph glyph-name="j" unicode="j" horiz-adv-x="881" 
d="M519 780h59v-520c0 -180 -123 -275 -266 -275s-268 95 -268 275v66h60v-66c0 -147 97 -217 208 -217c109 0 207 70 207 217v520z" />
    <glyph glyph-name="k" unicode="k" horiz-adv-x="978" 
d="M112 0v780h59v-476l503 476h80l-339 -322l353 -458h-75l-322 416l-200 -190v-226h-59z" />
    <glyph glyph-name="l" unicode="l" horiz-adv-x="855" 
d="M112 0v780h59v-722h451v-58h-510z" />
    <glyph glyph-name="m" unicode="m" horiz-adv-x="1215" 
d="M171 0h-59v780h56l340 -676l340 676h56v-780h-59v656l-317 -631h-41l-316 629v-654z" />
    <glyph glyph-name="n" unicode="n" horiz-adv-x="1075" 
d="M171 0h-59v780h53l540 -679v679h59v-780h-53l-540 678v-678z" />
    <glyph glyph-name="o" unicode="o" horiz-adv-x="1125" 
d="M56 390c0 223 182 405 407 405c224 0 406 -182 406 -405c0 -224 -182 -405 -406 -405c-225 0 -407 181 -407 405zM116 390c0 -191 156 -346 347 -346c190 0 346 155 346 346c0 190 -156 346 -346 346c-191 0 -347 -156 -347 -346z" />
    <glyph glyph-name="p" unicode="p" horiz-adv-x="942" 
d="M112 0v780h301c182 0 286 -124 286 -269c0 -142 -104 -268 -286 -268h-242v-243h-59zM411 724h-240v-425h240c145 0 228 102 228 212c0 115 -83 213 -228 213z" />
    <glyph glyph-name="q" unicode="q" horiz-adv-x="1122" 
d="M56 390c0 223 181 405 405 405c223 0 405 -182 405 -405c0 -188 -128 -345 -300 -391c102 -51 207 -125 293 -125c44 0 80 15 109 54l46 -38c-44 -58 -105 -74 -154 -74c-154 0 -315 164 -447 172c-201 23 -357 194 -357 402zM116 390c0 -191 155 -346 345 -346
c189 0 344 155 344 346c0 190 -155 346 -344 346c-190 0 -345 -156 -345 -346z" />
    <glyph glyph-name="r" unicode="r" horiz-adv-x="994" 
d="M112 780h344c169 0 266 -116 266 -251c0 -110 -64 -207 -178 -241l205 -288h-72l-197 277c-8 -1 -16 -1 -24 -1h-285v-276h-59v780zM454 724h-283v-392h283c136 0 210 92 210 196c0 103 -74 196 -210 196z" />
    <glyph glyph-name="s" unicode="s" horiz-adv-x="904" 
d="M59 195h58v-4c0 -87 94 -151 245 -151c145 0 223 61 223 145c0 102 -110 138 -242 178c-127 39 -278 87 -278 228c0 122 108 204 277 204c172 0 292 -85 292 -202v-9h-58v5c0 87 -89 151 -234 151c-139 0 -215 -61 -215 -145c0 -100 106 -135 233 -175
c125 -38 288 -86 288 -232c0 -123 -113 -203 -286 -203c-178 0 -303 84 -303 202v8z" />
    <glyph glyph-name="t" unicode="t" horiz-adv-x="876" 
d="M27 722v58h622v-58h-282v-722h-59v722h-281z" />
    <glyph glyph-name="u" unicode="u" 
d="M696 780h59v-485c0 -175 -114 -310 -327 -310s-327 135 -327 310v485h59v-483c0 -147 94 -254 268 -254c175 0 268 107 268 254v483z" />
    <glyph glyph-name="v" unicode="v" horiz-adv-x="1008" 
d="M436 0h-63l-359 780h66l324 -717l325 717h65z" />
    <glyph glyph-name="w" unicode="w" horiz-adv-x="1333" 
d="M340 0h-65l-251 780h64l220 -692l229 692h58l229 -692l221 692h64l-251 -780h-65l-227 685z" />
    <glyph glyph-name="x" unicode="x" horiz-adv-x="891" 
d="M93 780l252 -339l253 339h70l-287 -387l293 -393h-71l-257 346l-257 -346h-72l293 393l-287 387h70z" />
    <glyph glyph-name="y" unicode="y" horiz-adv-x="933" 
d="M83 780l283 -433l284 433h69l-323 -494v-286h-59v285l-323 495h69z" />
    <glyph glyph-name="z" unicode="z" horiz-adv-x="820" 
d="M50 722v58h530v-45l-467 -677h465v-58h-545v45l466 677h-449z" />
    <glyph glyph-name="braceleft" unicode="{" horiz-adv-x="537" 
d="M50 364v52h7c71 0 109 52 109 103c0 81 -75 176 -75 283c0 84 49 165 175 165h21v-55h-21c-96 0 -119 -62 -119 -113c0 -93 77 -190 77 -280c0 -52 -26 -102 -77 -129c51 -27 77 -78 77 -129c0 -89 -77 -187 -77 -279c0 -52 23 -113 119 -113h21v-55h-21
c-126 0 -175 80 -175 165c0 107 75 201 75 282c0 51 -38 103 -109 103h-7z" />
    <glyph glyph-name="bar" unicode="|" horiz-adv-x="437" 
d="M90 966h58v-1151h-58v1151z" />
    <glyph glyph-name="braceright" unicode="}" horiz-adv-x="537" 
d="M287 416v-52h-7c-71 0 -109 -52 -109 -103c0 -81 75 -176 75 -283c0 -84 -49 -165 -175 -165h-21v55h21c96 0 119 62 119 113c0 93 -77 190 -77 280c0 52 26 102 77 129c-51 27 -77 78 -77 129c0 89 77 187 77 279c0 52 -23 113 -119 113h-21v55h21
c126 0 175 -80 175 -165c0 -107 -75 -201 -75 -282c0 -51 38 -103 109 -103h7z" />
    <glyph glyph-name="dagger" unicode="&#x2020;" horiz-adv-x="660" 
d="M177 743c0 28 24 52 52 52s51 -24 51 -52c0 -18 -9 -34 -23 -43v-182h149v-52h-149v-613h-56v613h-147v52h147v182c-15 9 -24 25 -24 43z" />
    <glyph glyph-name="degree" unicode="&#xb0;" horiz-adv-x="680" 
d="M62 617c0 98 79 178 177 178c99 0 179 -80 179 -178s-80 -177 -179 -177c-98 0 -177 79 -177 177zM108 617c0 -73 58 -132 131 -132c74 0 133 59 133 132s-59 132 -133 132c-73 0 -131 -59 -131 -132z" />
    <glyph glyph-name="cent" unicode="&#xa2;" horiz-adv-x="847" 
d="M527 217l51 -25c-44 -71 -120 -121 -208 -131v-86h-57v86c-140 14 -250 132 -250 273c0 140 110 258 250 272v87h57v-87c87 -9 163 -60 207 -130l-51 -25c-39 60 -107 99 -184 99c-121 0 -218 -97 -218 -216c0 -120 97 -216 218 -216c78 0 146 39 185 99z" />
    <glyph glyph-name="section" unicode="&#xa7;" horiz-adv-x="748" 
d="M479 378c0 -59 -41 -107 -114 -129c54 -27 94 -64 94 -126c0 -82 -70 -138 -184 -138c-111 0 -192 55 -192 161v8h56v-6c0 -80 60 -114 136 -114c84 0 128 41 128 92c0 60 -66 84 -155 117c-73 26 -179 64 -179 158c0 59 41 108 114 130c-55 28 -95 64 -95 126
c0 82 70 138 184 138c111 0 193 -56 193 -161v-9h-57v7c0 80 -60 114 -135 114c-85 0 -128 -41 -128 -91c0 -62 69 -87 155 -118c72 -26 179 -64 179 -159zM267 496l-5 2c-80 -4 -135 -42 -135 -98c0 -62 65 -85 154 -116l5 -2c79 4 135 42 135 98c0 62 -66 85 -154 116z
" />
    <glyph glyph-name="bullet" unicode="&#x2022;" horiz-adv-x="653" 
d="M98 325c0 72 57 128 129 128s128 -56 128 -128s-56 -128 -128 -128s-129 56 -129 128z" />
    <glyph glyph-name="paragraph" unicode="&#xb6;" horiz-adv-x="911" 
d="M620 0h-59v724h-150v-724h-58v283h-59c-138 0 -248 110 -248 248s110 249 248 249h326v-780zM104 531c0 -105 86 -192 190 -192h59v385h-59c-104 0 -190 -87 -190 -193z" />
    <glyph glyph-name="uni1E9E" unicode="&#x1e9e;" horiz-adv-x="1110" 
d="M328 117l48 32c69 -83 144 -110 218 -110c124 0 206 78 206 180c0 111 -115 206 -293 163l-29 42l260 239c-30 12 -155 66 -296 66c-207 0 -284 -120 -284 -259v-470h-57v473c0 164 95 312 343 312c138 0 282 -47 359 -83v-49l-234 -216c166 21 289 -81 289 -218
c0 -134 -104 -235 -261 -235c-97 0 -190 37 -269 133z" />
    <glyph glyph-name="germandbls" unicode="&#xdf;" horiz-adv-x="1110" 
d="M328 117l48 32c69 -83 144 -110 218 -110c124 0 206 78 206 180c0 111 -115 206 -293 163l-29 42l260 239c-30 12 -155 66 -296 66c-207 0 -284 -120 -284 -259v-470h-57v473c0 164 95 312 343 312c138 0 282 -47 359 -83v-49l-234 -216c166 21 289 -81 289 -218
c0 -134 -104 -235 -261 -235c-97 0 -190 37 -269 133z" />
    <glyph glyph-name="registered" unicode="&#xae;" horiz-adv-x="808" 
d="M61 552c0 134 109 243 243 243s243 -109 243 -243s-109 -243 -243 -243s-243 109 -243 243zM93 552c0 -117 94 -211 211 -211s211 94 211 211s-94 211 -211 211s-211 -94 -211 -211zM410 440h-34l-48 83h-81v-83h-30v235h108c51 0 80 -35 80 -76c0 -31 -17 -59 -47 -70z
M324 645h-77v-92h77c32 0 51 23 51 46s-19 46 -51 46z" />
    <glyph glyph-name="copyright" unicode="&#xa9;" horiz-adv-x="1135" 
d="M63 390c0 225 179 405 404 405c226 0 405 -180 405 -405c0 -226 -179 -405 -405 -405c-225 0 -404 179 -404 405zM111 390c0 -197 160 -356 356 -356c197 0 357 160 357 356s-160 357 -357 357c-196 0 -356 -161 -356 -357zM606 310l43 -22c-34 -59 -100 -99 -174 -99
c-110 0 -202 91 -202 202c0 110 92 202 202 202c73 0 140 -41 174 -100l-44 -22c-27 43 -73 72 -130 72c-84 0 -153 -68 -153 -152c0 -85 69 -153 153 -153c57 0 103 29 131 72z" />
    <glyph glyph-name="trademark" unicode="&#x2122;" horiz-adv-x="1026" 
d="M732 479h-47v226l-114 -188h-31l-114 188v-226h-47v301h50l126 -209l127 209h50v-301zM55 733v47h269v-47h-111v-254h-47v254h-111z" />
    <glyph glyph-name="dieresis" unicode="&#xa8;" horiz-adv-x="510" 
d="M0 923c0 25 21 46 46 46s45 -21 45 -46s-20 -45 -45 -45s-46 20 -46 45zM218 923c0 25 21 46 46 46s46 -21 46 -46s-21 -45 -46 -45s-46 20 -46 45z" />
    <glyph glyph-name="AE" unicode="&#xc6;" horiz-adv-x="1449" 
d="M650 0v176h-423l-142 -176h-77l632 780h546v-58h-477v-311h406v-56h-406v-297h477v-58h-536zM272 232h378v467z" />
    <glyph glyph-name="plusminus" unicode="&#xb1;" horiz-adv-x="816" 
d="M280 592h56v-190h190v-56h-190v-189h-56v189h-190v56h190v190zM526 104v-56h-436v56h436z" />
    <glyph glyph-name="ae" unicode="&#xe6;" horiz-adv-x="1449" 
d="M650 0v176h-423l-142 -176h-77l632 780h546v-58h-477v-311h406v-56h-406v-297h477v-58h-536zM272 232h378v467z" />
    <glyph glyph-name="questiondown" unicode="&#xbf;" horiz-adv-x="732" 
d="M272 516h53v-36c0 -80 -59 -121 -114 -159c-54 -38 -99 -73 -99 -144c0 -81 62 -136 150 -136c79 0 159 47 159 135v21h58v-25c0 -123 -115 -187 -218 -187c-114 0 -208 73 -208 191c0 95 62 144 120 184c52 37 99 67 99 126v30zM247 740c0 28 24 51 52 51s51 -23 51 -51
c0 -29 -23 -51 -51 -51s-52 22 -52 51z" />
    <glyph glyph-name="exclamdown" unicode="&#xa1;" horiz-adv-x="458" 
d="M161 0h-64l9 579h46zM181 741c0 -28 -24 -51 -52 -51s-52 23 -52 51c0 29 24 51 52 51s52 -22 52 -51z" />
    <glyph glyph-name="guillemotleft" unicode="&#xab;" horiz-adv-x="874" 
d="M60 342v47l252 226v-74l-195 -175l195 -175v-74zM325 342v47l252 226v-74l-195 -175l195 -175v-74z" />
    <glyph glyph-name="guillemotright" unicode="&#xbb;" horiz-adv-x="875" 
d="M349 390v-47l-252 -226v74l195 175l-195 175v74zM615 390v-47l-252 -226v74l195 175l-195 175v74z" />
    <glyph glyph-name="ellipsis" unicode="&#x2026;" horiz-adv-x="790" 
d="M69 39c0 28 24 51 52 51s51 -23 51 -51c0 -29 -23 -51 -51 -51s-52 22 -52 51zM244 39c0 28 24 51 52 51s51 -23 51 -51c0 -29 -23 -51 -51 -51s-52 22 -52 51zM418 39c0 28 24 51 52 51s51 -23 51 -51c0 -29 -23 -51 -51 -51s-52 22 -52 51z" />
    <glyph glyph-name="OE" unicode="&#x152;" horiz-adv-x="1372" 
d="M489 0c-272 0 -431 174 -431 390c0 215 159 390 431 390h620v-58h-477v-311h406v-56h-406v-297h477v-58h-620zM118 390c0 -184 136 -332 371 -332h84v664h-84c-235 0 -371 -148 -371 -332z" />
    <glyph glyph-name="oe" unicode="&#x153;" horiz-adv-x="1372" 
d="M489 0c-272 0 -431 174 -431 390c0 215 159 390 431 390h620v-58h-477v-311h406v-56h-406v-297h477v-58h-620zM118 390c0 -184 136 -332 371 -332h84v664h-84c-235 0 -371 -148 -371 -332z" />
    <glyph glyph-name="endash" unicode="&#x2013;" horiz-adv-x="829" 
d="M543 353v-56h-457v56h457z" />
    <glyph glyph-name="emdash" unicode="&#x2014;" horiz-adv-x="990" 
d="M703 353v-56h-616v56h616z" />
    <glyph glyph-name="quotedblleft" unicode="&#x201c;" horiz-adv-x="656" 
d="M192 806l25 -28c-24 -23 -75 -70 -89 -127c23 4 48 -18 48 -47c0 -28 -24 -51 -52 -51s-54 22 -54 59c0 78 74 153 122 194zM373 806l25 -28c-24 -23 -75 -70 -89 -127c23 4 48 -18 48 -47c0 -28 -24 -51 -52 -51s-54 22 -54 59c0 78 74 153 122 194z" />
    <glyph glyph-name="quotedblright" unicode="&#x201d;" horiz-adv-x="659" 
d="M96 542l-25 28c24 23 75 70 89 127c-23 -4 -48 18 -48 47c0 28 24 51 52 51s54 -22 54 -59c0 -78 -74 -153 -122 -194zM277 542l-25 28c24 23 75 70 89 127c-23 -4 -48 18 -48 47c0 28 24 51 52 51s54 -22 54 -59c0 -78 -74 -153 -122 -194z" />
    <glyph glyph-name="quoteleft" unicode="&#x2018;" horiz-adv-x="475" 
d="M192 806l25 -28c-24 -23 -75 -70 -89 -127c23 4 48 -18 48 -47c0 -28 -24 -51 -52 -51s-54 22 -54 59c0 78 74 153 122 194z" />
    <glyph glyph-name="quoteright" unicode="&#x2019;" horiz-adv-x="478" 
d="M96 542l-25 28c24 23 75 70 89 127c-23 -4 -48 18 -48 47c0 28 24 51 52 51s54 -22 54 -59c0 -78 -74 -153 -122 -194z" />
    <glyph glyph-name="divide" unicode="&#xf7;" horiz-adv-x="808" 
d="M522 393v-56h-436v56h436zM252 559c0 28 24 51 52 51s51 -23 51 -51c0 -29 -23 -51 -51 -51s-52 22 -52 51zM252 170c0 28 24 51 52 51s51 -23 51 -51c0 -29 -23 -51 -51 -51s-52 22 -52 51z" />
    <glyph glyph-name="fraction" unicode="&#x2044;" horiz-adv-x="745" 
d="M74 0h-65l462 780h65z" />
    <glyph glyph-name="sterling" unicode="&#xa3;" horiz-adv-x="800" 
d="M67 0v45c83 51 99 112 99 183c0 30 -4 59 -9 86h-87v55h75c-20 70 -45 133 -45 205c0 143 100 221 218 221c122 0 214 -84 214 -202v-9h-58v4c0 91 -67 149 -154 149s-162 -57 -162 -163c0 -65 28 -128 47 -205h221v-55h-209c4 -26 7 -54 7 -84c0 -54 -9 -116 -56 -171
h356v-59h-457z" />
    <glyph glyph-name="yen" unicode="&#xa5;" horiz-adv-x="979" 
d="M136 362v52h140l-239 366h69l283 -433l284 433h69l-240 -366h142v-52h-176l-49 -76v-55h225v-52h-225v-179h-59v179h-224v52h224v54l-50 77h-174z" />
    <glyph glyph-name="Euro" unicode="&#x20ac;" horiz-adv-x="1162" 
d="M841 215l54 -26c-69 -122 -202 -204 -352 -204c-184 0 -339 121 -390 288h-97v45h86c-4 23 -6 47 -6 72c0 23 2 46 6 68h-86v45h96c49 168 206 292 391 292c150 0 281 -82 351 -203l-54 -26c-60 101 -171 170 -297 170c-152 0 -280 -98 -328 -233h326v-45h-339
c-4 -22 -6 -45 -6 -68c0 -25 2 -49 7 -72h296v-45h-283c48 -134 177 -229 327 -229c127 0 237 69 298 171z" />
    <glyph glyph-name="guilsinglleft" unicode="&#x2039;" horiz-adv-x="609" 
d="M60 342v47l252 226v-74l-195 -175l195 -175v-74z" />
    <glyph glyph-name="guilsinglright" unicode="&#x203a;" horiz-adv-x="609" 
d="M349 390v-47l-252 -226v74l195 175l-195 175v74z" />
    <glyph glyph-name="daggerdbl" unicode="&#x2021;" horiz-adv-x="669" 
d="M182 743c0 28 23 52 51 52s52 -24 52 -52c0 -18 -10 -34 -24 -43v-182h150v-52h-150v-158h150v-52h-150v-403h-55v403h-148v52h148v158h-148v52h148v181c-15 9 -24 26 -24 44z" />
    <glyph glyph-name="periodcentered" unicode="&#xb7;" horiz-adv-x="477" 
d="M87 366c0 28 24 51 52 51s51 -23 51 -51c0 -29 -23 -51 -51 -51s-52 22 -52 51z" />
    <glyph glyph-name="quotesinglbase" unicode="&#x201a;" horiz-adv-x="444" 
d="M52 -163l-25 28c24 23 75 70 89 127c-23 -4 -48 18 -48 47c0 28 24 51 52 51s54 -22 54 -59c0 -78 -74 -153 -122 -194z" />
    <glyph glyph-name="quotedblbase" unicode="&#x201e;" horiz-adv-x="628" 
d="M52 -163l-25 28c24 23 75 70 89 127c-23 -4 -48 18 -48 47c0 28 24 51 52 51s54 -22 54 -59c0 -78 -74 -153 -122 -194zM233 -163l-25 28c24 23 75 70 89 127c-23 -4 -48 18 -48 47c0 28 24 51 52 51s54 -22 54 -59c0 -78 -74 -153 -122 -194z" />
    <glyph glyph-name="perthousand" unicode="&#x2030;" horiz-adv-x="1656" 
d="M44 611c0 102 81 183 183 183c103 0 183 -81 183 -183c0 -101 -80 -184 -183 -184c-102 0 -183 83 -183 184zM98 611c0 -71 59 -130 129 -130c71 0 130 59 130 130c0 70 -59 130 -130 130c-70 0 -129 -60 -129 -130zM586 173c0 103 81 183 183 183
c103 0 184 -80 184 -183s-81 -184 -184 -184c-102 0 -183 81 -183 184zM640 173c0 -71 59 -129 129 -129c71 0 130 58 130 129c0 70 -59 130 -130 130c-70 0 -129 -60 -129 -130zM250 0h-68l562 780h68zM1048 173c0 103 81 183 183 183c103 0 184 -80 184 -183
s-81 -184 -184 -184c-102 0 -183 81 -183 184zM1101 173c0 -71 60 -129 130 -129c71 0 130 58 130 129c0 70 -59 130 -130 130c-70 0 -130 -60 -130 -130z" />
    <glyph glyph-name="ring" unicode="&#x2da;" horiz-adv-x="429" 
d="M0 956c0 63 50 114 115 114c63 0 114 -50 114 -114c0 -65 -51 -115 -114 -115c-65 0 -115 50 -115 115zM43 956c0 -40 32 -72 72 -72c38 0 71 32 71 72c0 38 -33 71 -71 71c-40 0 -72 -33 -72 -71z" />
    <glyph glyph-name="hungarumlaut" unicode="&#x2dd;" horiz-adv-x="632" 
d="M33 870l-33 33l168 176l41 -41zM257 870l-33 33l167 176l41 -41z" />
    <glyph glyph-name="Eth" unicode="&#xd0;" horiz-adv-x="1042" 
d="M113 0v362h-88v53h88v365h305c237 0 363 -172 363 -390c0 -219 -126 -390 -363 -390h-305zM452 415v-53h-280v-304h243c197 0 307 143 307 332s-110 332 -307 332h-243v-307h280z" />
    <glyph glyph-name="multiply" unicode="&#xd7;" horiz-adv-x="795" 
d="M126 155l-39 39l171 171l-171 172l39 39l171 -172l172 172l39 -39l-172 -172l172 -171l-39 -39l-172 171z" />
    <glyph glyph-name="Thorn" unicode="&#xde;" horiz-adv-x="943" 
d="M112 0v780h59v-121h242c182 0 286 -124 286 -269c0 -142 -104 -268 -286 -268h-242v-122h-59zM411 603h-240v-425h240c145 0 228 101 228 212c0 115 -83 213 -228 213z" />
    <glyph glyph-name="eth" unicode="&#xf0;" horiz-adv-x="1042" 
d="M113 0v362h-88v53h88v365h305c237 0 363 -172 363 -390c0 -219 -126 -390 -363 -390h-305zM452 415v-53h-280v-304h243c197 0 307 143 307 332s-110 332 -307 332h-243v-307h280z" />
    <glyph glyph-name="thorn" unicode="&#xfe;" horiz-adv-x="943" 
d="M112 0v780h59v-121h242c182 0 286 -124 286 -269c0 -142 -104 -268 -286 -268h-242v-122h-59zM411 603h-240v-425h240c145 0 228 101 228 212c0 115 -83 213 -228 213z" />
    <glyph glyph-name="minus" unicode="&#x2212;" horiz-adv-x="818" 
d="M527 393v-56h-436v56h436z" />
    <glyph glyph-name="breve" unicode="&#x2d8;" horiz-adv-x="553" 
d="M0 980l41 23c29 -58 78 -91 135 -91c58 0 107 33 136 91l41 -23c-32 -67 -95 -119 -177 -119s-144 52 -176 119z" />
    <glyph glyph-name="dotaccent" unicode="&#x2d9;" horiz-adv-x="291" 
d="M0 913c0 25 21 46 46 46s45 -21 45 -46s-20 -45 -45 -45s-46 20 -46 45z" />
    <glyph glyph-name="caron" unicode="&#x2c7;" horiz-adv-x="555" 
d="M322 1027l30 -37l-175 -129l-173 129l30 37l143 -104z" />
    <glyph glyph-name="grave" unicode="`" horiz-adv-x="475" 
d="M275 884l-23 -40l-252 138l29 51z" />
    <glyph glyph-name="circumflex" unicode="&#x2c6;" horiz-adv-x="555" 
d="M352 898l-30 -37l-145 104l-143 -104l-30 37l173 129z" />
    <glyph glyph-name="macron" unicode="&#xaf;" horiz-adv-x="527" 
d="M327 927v-49h-327v49h327z" />
    <glyph glyph-name="acute" unicode="&#xb4;" horiz-adv-x="475" 
d="M23 844l-23 40l246 149l29 -51z" />
    <glyph glyph-name="tilde" unicode="&#x2dc;" horiz-adv-x="595" 
d="M52 863h-45c0 60 26 141 106 141c34 0 58 -13 102 -55c24 -24 45 -44 71 -44c37 0 57 40 56 90h46c0 -59 -23 -141 -102 -141c-35 0 -55 15 -99 55c-28 25 -48 44 -74 44c-39 0 -61 -40 -61 -90z" />
    <glyph glyph-name="asciitilde" unicode="~" horiz-adv-x="595" 
d="M137 259h-45c0 60 26 141 106 141c34 0 58 -13 102 -55c24 -24 45 -44 71 -44c37 0 57 40 56 90h46c0 -59 -23 -141 -102 -141c-35 0 -55 15 -99 55c-28 25 -48 44 -74 44c-39 0 -61 -40 -61 -90z" />
    <glyph glyph-name="asciicircum" unicode="^" horiz-adv-x="810" 
d="M279 780h51l221 -432h-64l-182 358l-182 -358h-64z" />
    <glyph glyph-name="brokenbar" unicode="&#xa6;" horiz-adv-x="449" 
d="M96 321h58v-506h-58v506zM96 966h58v-506h-58v506z" />
    <glyph glyph-name="cedilla" unicode="&#xb8;" horiz-adv-x="472" 
d="M113 6h38l-23 -67c89 -4 127 -56 127 -103c0 -52 -44 -102 -120 -102c-62 0 -125 32 -125 32l20 41c18 -9 59 -28 103 -28c55 0 81 31 81 62c0 33 -29 70 -112 63l-19 21z" />
    <glyph glyph-name="ogonek" unicode="&#x2db;" horiz-adv-x="360" 
d="M131 23l18 -23c-48 -40 -104 -96 -104 -148c0 -44 42 -63 107 -49l8 -47c-91 -19 -160 16 -160 87c0 77 81 141 131 180z" />
    <glyph glyph-name="apple" unicode="&#xf8ff;" horiz-adv-x="944" 
d="M681 367c-13 -5 -13 -16 -3 -23l28 -20c11 -7 10 -15 -3 -18l-34 -6c-14 -2 -16 -12 -7 -22l24 -24c8 -9 6 -17 -8 -17l-35 2c-13 0 -18 -9 -10 -20l18 -30c7 -11 2 -17 -11 -15l-34 9c-12 4 -19 -5 -15 -17l11 -33c5 -12 -1 -18 -13 -12l-31 15c-11 6 -20 0 -19 -14
l5 -33c1 -14 -5 -17 -15 -9l-28 21c-10 8 -20 3 -21 -10l-2 -34c-1 -13 -9 -15 -17 -6l-23 27c-9 9 -18 8 -22 -5l-10 -33c-3 -13 -12 -13 -18 -2l-17 30c-6 12 -15 12 -23 0l-15 -30c-6 -11 -15 -11 -18 2l-10 33c-4 13 -13 14 -22 5l-23 -27c-8 -9 -15 -7 -17 6l-2 34
c-1 13 -11 18 -22 10l-26 -21c-11 -8 -19 -5 -16 9l5 33c1 14 -8 20 -20 14l-30 -15c-12 -6 -18 0 -13 12l11 33c5 12 -3 21 -15 17l-34 -9c-13 -2 -18 4 -11 15l19 30c7 11 2 20 -11 20l-35 -2c-14 0 -16 8 -8 17l25 24c8 10 6 20 -8 22l-33 6c-14 3 -15 11 -4 18l28 20
c3 2 5 5 6 6c6 5 13 2 18 -6l16 -31c6 -12 14 -10 18 2l9 34c4 12 14 14 22 4l23 -26c9 -10 16 -7 17 6l2 34c2 13 11 17 21 9l28 -21c11 -8 18 -4 15 9l-4 34c-2 13 7 19 18 13l31 -14c12 -6 18 0 14 12l-11 33c-5 12 2 20 14 16l7 -1c26 -50 49 -145 49 -205
c-8 -10 -17 -18 -46 -18h-4c0 14 -5 26 -16 35c7 -8 9 -17 9 -27v-7c-11 1 -16 8 -16 19c0 27 -18 49 -51 49c-27 0 -47 -23 -47 -54c0 -38 33 -65 92 -65c144 0 278 190 278 319c0 38 -26 67 -64 67c-30 0 -60 -24 -60 -58s21 -54 58 -58c-8 -32 -15 -60 -29 -85
c-8 62 -29 119 -58 150c29 -38 47 -97 52 -161l-14 -20c0 100 -36 197 -89 224c-3 6 2 13 12 15l34 6c12 2 14 10 3 17l-29 19c-10 9 -9 18 3 23l31 14c14 4 14 13 0 18l-31 13c-9 4 -11 8 -10 14c4 2 6 4 7 8l17 30c6 12 15 11 18 -1l10 -33c4 -13 13 -16 22 -5l23 26
c8 10 16 8 17 -5l2 -35c1 -14 11 -17 21 -9l28 21c10 8 16 3 15 -10l-5 -34c-1 -13 8 -19 19 -13l31 16c12 5 18 0 13 -14l-11 -31c-4 -13 3 -21 15 -17l34 7c13 4 18 -2 11 -14l-18 -29c-8 -11 -3 -21 10 -20l35 2c14 0 16 -8 8 -17l-24 -26c-9 -9 -7 -19 7 -21l34 -6
c13 -3 14 -10 3 -19l-28 -19c-10 -7 -10 -17 3 -22l31 -13c12 -5 12 -13 0 -18zM300 164c144 0 278 189 278 319c0 19 -7 37 -20 49c8 -12 12 -25 12 -41c0 -66 -34 -146 -85 -210c-52 -64 -122 -113 -196 -113c-19 0 -36 3 -49 9c14 -9 35 -13 60 -13z" />
    <glyph glyph-name="dotlessi" unicode="&#x131;" horiz-adv-x="482" 
d="M112 780h59v-780h-59v780z" />
    <glyph glyph-name="zerosuperior" unicode="&#x2070;" horiz-adv-x="720" 
d="M56 527c0 141 71 263 203 263s205 -122 205 -263c0 -142 -73 -264 -205 -264s-203 122 -203 264zM103 527c0 -123 59 -218 156 -218c98 0 158 95 158 218c0 122 -60 217 -158 217c-97 0 -156 -95 -156 -217z" />
    <glyph glyph-name="onesuperior" unicode="&#xb9;" horiz-adv-x="455" 
d="M36 692v50l116 38h32v-507h-47v452z" />
    <glyph glyph-name="twosuperior" unicode="&#xb2;" horiz-adv-x="655" 
d="M401 320v-47h-353v36l209 192c52 47 93 84 93 138c0 65 -53 105 -119 105c-67 0 -129 -35 -129 -118v-9h-47v9c0 115 91 164 176 164c89 0 166 -57 166 -151c0 -75 -57 -125 -109 -173l-159 -146h272z" />
    <glyph glyph-name="threesuperior" unicode="&#xb3;" horiz-adv-x="648" 
d="M46 312l25 38c52 -30 98 -41 139 -41c80 0 135 44 135 101c0 62 -69 106 -185 106v40c120 0 168 56 168 103c0 52 -49 87 -111 87s-111 -33 -111 -79v-2h-45v6c0 65 69 119 156 119c82 0 158 -48 158 -126c0 -48 -33 -100 -104 -127c75 -22 122 -68 122 -130
c0 -83 -81 -144 -181 -144c-51 0 -108 14 -166 49z" />
    <glyph glyph-name="foursuperior" unicode="&#x2074;" horiz-adv-x="677" 
d="M367 273h-46v106h-288v35l216 366h52l-210 -357h230v136h46v-136h75v-44h-75v-106z" />
    <glyph glyph-name="fivesuperior" unicode="&#x2075;" horiz-adv-x="670" 
d="M387 780v-47h-232l-31 -186c18 15 64 42 125 42c105 0 175 -72 175 -158c0 -95 -83 -168 -191 -168c-86 0 -156 46 -193 107l41 24c31 -51 84 -85 152 -85c82 0 143 53 143 122c0 61 -48 115 -132 115c-44 0 -88 -14 -134 -57l-39 19l49 272h267z" />
    <glyph glyph-name="sixsuperior" unicode="&#x2076;" horiz-adv-x="659" 
d="M318 780l-135 -176c17 5 35 8 54 8c100 0 181 -73 181 -171c0 -99 -83 -178 -187 -178c-102 0 -185 80 -185 177c0 40 13 78 38 111l177 229h57zM119 520c-18 -24 -27 -49 -27 -79c0 -74 61 -132 139 -132c79 0 140 58 140 132s-61 132 -141 132c-46 0 -86 -20 -111 -53z
" />
    <glyph glyph-name="sevensuperior" unicode="&#x2077;" horiz-adv-x="621" 
d="M36 733v47h358v-37l-244 -470h-53l242 460h-303z" />
    <glyph glyph-name="eightsuperior" unicode="&#x2078;" horiz-adv-x="685" 
d="M54 411c0 63 42 110 104 132c-49 20 -83 60 -83 113c0 77 77 134 167 134c91 0 169 -57 169 -134c0 -53 -35 -93 -85 -113c62 -22 105 -69 105 -132c0 -85 -87 -148 -189 -148c-103 0 -188 63 -188 148zM101 414c0 -61 61 -108 141 -108s142 47 142 108s-62 109 -142 109
s-141 -47 -141 -109zM121 655c0 -53 52 -94 121 -94s122 41 122 94c0 51 -53 93 -122 93s-121 -42 -121 -93z" />
    <glyph glyph-name="ninesuperior" unicode="&#x2079;" horiz-adv-x="659" 
d="M141 273l135 176c-17 -5 -35 -8 -54 -8c-100 0 -181 73 -181 171c0 99 83 178 187 178c102 0 185 -80 185 -177c0 -40 -13 -78 -38 -111l-177 -229h-57zM340 533c18 24 27 49 27 79c0 74 -61 132 -139 132c-79 0 -140 -58 -140 -132s61 -132 141 -132c46 0 86 20 111 53z
" />
    <glyph glyph-name="ordmasculine" unicode="&#xba;" horiz-adv-x="669" 
d="M63 624c0 94 76 171 171 171s172 -77 172 -171c0 -95 -77 -171 -172 -171s-171 76 -171 171zM111 624c0 -69 54 -123 123 -123s124 54 124 123c0 68 -55 124 -124 124s-123 -56 -123 -124z" />
    <glyph glyph-name="ordfeminine" unicode="&#xaa;" horiz-adv-x="698" 
d="M359 463v52c-29 -38 -73 -62 -127 -62c-94 0 -169 76 -169 171c0 94 75 171 169 171c54 0 98 -25 127 -63v53h47v-322h-47zM111 624c0 -69 54 -123 123 -123s124 54 124 123c0 68 -55 124 -124 124s-123 -56 -123 -124z" />
    <glyph glyph-name="numbersignsuperior" unicode="&#xe909;" horiz-adv-x="727" 
d="M76 595v45h94l26 140h48l-26 -140h132l26 140h49l-26 -140h85v-45h-93l-25 -138h85v-45h-94l-25 -139h-48l25 139h-133l-25 -139h-48l25 139h-85v45h94l25 138h-86zM210 595l-25 -138h132l25 138h-132z" />
    <glyph glyph-name="dollarsuperior" unicode="&#xf6e4;" horiz-adv-x="631" 
d="M52 430h46v-4c0 -41 46 -74 123 -74c71 0 110 30 110 68c0 50 -57 65 -122 85c-73 22 -154 51 -154 126c0 60 54 103 138 109v56h45v-57c80 -8 136 -52 136 -110v-5h-46v5c0 38 -45 72 -117 72c-69 0 -106 -29 -106 -69c0 -46 49 -64 117 -83c66 -20 158 -43 158 -125
c0 -63 -56 -107 -142 -112v-55h-45v56c-83 8 -141 52 -141 111v6z" />
    <glyph glyph-name="percentsuperior" unicode="&#xe910;" horiz-adv-x="883" 
d="M39 667c0 68 54 122 121 122c68 0 122 -54 122 -122s-54 -121 -122 -121c-67 0 -121 53 -121 121zM81 667c0 -44 35 -79 79 -79s80 35 80 79s-36 80 -80 80s-79 -36 -79 -80zM400 387c0 67 54 122 121 122c68 0 123 -55 123 -122c0 -68 -55 -122 -123 -122
c-67 0 -121 54 -121 122zM442 387c0 -44 35 -80 79 -80c45 0 81 36 81 80s-36 80 -81 80c-44 0 -79 -36 -79 -80zM176 273h-53l382 507h54z" />
    <glyph glyph-name="centsuperior" unicode="&#xf6e0;" horiz-adv-x="639" 
d="M347 419l42 -21c-30 -46 -79 -79 -137 -85v-56h-46v57c-87 13 -153 88 -153 176c0 89 66 163 153 176v57h46v-56c57 -6 107 -39 136 -85l-41 -21c-24 37 -66 60 -112 60c-74 0 -133 -59 -133 -131c0 -73 59 -131 133 -131c47 0 88 23 112 60z" />
    <glyph glyph-name="sterlingsuperior" unicode="&#xe911;" horiz-adv-x="628" 
d="M56 273v35c56 32 67 71 67 116c0 18 -2 35 -5 51h-60v42h49c-13 43 -29 82 -29 128c0 93 70 145 150 145c83 0 147 -54 147 -134v-6h-45v2c0 58 -44 93 -101 93c-56 0 -105 -34 -105 -101c0 -39 18 -79 32 -127h147v-42h-138c2 -16 4 -32 4 -49c0 -34 -5 -72 -33 -106
h234v-47h-314z" />
    <glyph glyph-name="Eurosuperior" unicode="&#xe912;" horiz-adv-x="840" 
d="M548 416l42 -20c-45 -79 -132 -133 -229 -133c-119 0 -219 77 -253 185h-62v34h54c-3 14 -4 29 -4 45c0 13 1 27 3 40h-53v35h61c32 108 134 188 254 188c97 0 183 -54 229 -132l-43 -21c-38 64 -108 106 -186 106c-94 0 -174 -59 -205 -141h207v-35h-216
c-3 -13 -4 -27 -4 -40c0 -16 1 -31 4 -45h189v-34h-178c32 -81 111 -138 203 -138c78 0 148 41 187 106z" />
    <glyph glyph-name="yensuperior" unicode="&#xe011;" horiz-adv-x="770" 
d="M459 428v-43h-149v-112h-51v112h-148v43h148v32l-33 44h-115v43h84l-172 233h61l201 -271l201 271h61l-172 -233h84v-43h-116l-33 -46v-30h149z" />
    <glyph glyph-name="commaaccent" unicode="&#xf6c3;" horiz-adv-x="369" 
d="M55 -292l-21 24c21 20 69 65 83 118c-22 -4 -44 16 -44 41c0 24 20 44 44 44s47 -19 47 -51c0 -72 -69 -141 -109 -176z" />
    <glyph glyph-name="Aacute" unicode="&#xc1;" horiz-adv-x="1008" 
d="M372 780h64l358 -780h-65l-80 176h-490l-79 -176h-66zM404 716l-219 -484h438zM290 844l-23 40l246 149l29 -51z" />
    <glyph glyph-name="Abreve" unicode="&#x102;" horiz-adv-x="1008" 
d="M372 780h64l358 -780h-65l-80 176h-490l-79 -176h-66zM404 716l-219 -484h438zM227 980l41 23c29 -58 78 -91 135 -91c58 0 107 33 136 91l41 -23c-32 -67 -95 -119 -177 -119s-144 52 -176 119z" />
    <glyph glyph-name="Acircumflex" unicode="&#xc2;" horiz-adv-x="1008" 
d="M372 780h64l358 -780h-65l-80 176h-490l-79 -176h-66zM404 716l-219 -484h438zM578 898l-30 -37l-145 104l-143 -104l-30 37l173 129z" />
    <glyph glyph-name="Adieresis" unicode="&#xc4;" horiz-adv-x="1008" 
d="M372 780h64l358 -780h-65l-80 176h-490l-79 -176h-66zM404 716l-219 -484h438zM249 923c0 25 21 46 46 46s45 -21 45 -46s-20 -45 -45 -45s-46 20 -46 45zM467 923c0 25 21 46 46 46s46 -21 46 -46s-21 -45 -46 -45s-46 20 -46 45z" />
    <glyph glyph-name="AEacute" unicode="&#x1fc;" horiz-adv-x="1449" 
d="M650 0v176h-423l-142 -176h-77l632 780h546v-58h-477v-311h406v-56h-406v-297h477v-58h-536zM272 232h378v467zM673 844l-23 40l246 149l29 -51z" />
    <glyph glyph-name="Agrave" unicode="&#xc0;" horiz-adv-x="1008" 
d="M372 780h64l358 -780h-65l-80 176h-490l-79 -176h-66zM404 716l-219 -484h438zM542 884l-23 -40l-252 138l29 51z" />
    <glyph glyph-name="Amacron" unicode="&#x100;" horiz-adv-x="1008" 
d="M372 780h64l358 -780h-65l-80 176h-490l-79 -176h-66zM404 716l-219 -484h438zM568 927v-49h-327v49h327z" />
    <glyph glyph-name="Aogonek" unicode="&#x104;" horiz-adv-x="1007" 
d="M371 780h64l358 -780c-48 -40 -104 -96 -104 -148c0 -44 42 -63 107 -49l8 -47c-91 -19 -160 16 -160 87c0 64 54 118 102 157h-18l-80 176h-490l-79 -176h-66zM403 716l-219 -484h438z" />
    <glyph glyph-name="Aring" unicode="&#xc5;" horiz-adv-x="1008" 
d="M372 780h64l358 -780h-65l-80 176h-490l-79 -176h-66zM404 716l-219 -484h438zM290 956c0 63 50 114 115 114c63 0 114 -50 114 -114c0 -65 -51 -115 -114 -115c-65 0 -115 50 -115 115zM333 956c0 -40 32 -72 72 -72c38 0 71 32 71 72c0 38 -33 71 -71 71
c-40 0 -72 -33 -72 -71z" />
    <glyph glyph-name="Atilde" unicode="&#xc3;" horiz-adv-x="1008" 
d="M372 780h64l358 -780h-65l-80 176h-490l-79 -176h-66zM404 716l-219 -484h438zM258 863h-45c0 60 26 141 106 141c34 0 58 -13 102 -55c24 -24 45 -44 71 -44c37 0 57 40 56 90h46c0 -59 -23 -141 -102 -141c-35 0 -55 15 -99 55c-28 25 -48 44 -74 44
c-39 0 -61 -40 -61 -90z" />
    <glyph glyph-name="Cacute" unicode="&#x106;" horiz-adv-x="1061" 
d="M761 215l54 -26c-70 -122 -202 -204 -352 -204c-225 0 -407 181 -407 405c0 223 182 405 407 405c149 0 280 -82 351 -203l-54 -26c-61 101 -171 170 -297 170c-191 0 -347 -156 -347 -346c0 -191 156 -346 347 -346c127 0 237 69 298 171zM348 844l-23 40l246 149
l29 -51z" />
    <glyph glyph-name="Ccaron" unicode="&#x10c;" horiz-adv-x="1061" 
d="M761 215l54 -26c-70 -122 -202 -204 -352 -204c-225 0 -407 181 -407 405c0 223 182 405 407 405c149 0 280 -82 351 -203l-54 -26c-61 101 -171 170 -297 170c-191 0 -347 -156 -347 -346c0 -191 156 -346 347 -346c127 0 237 69 298 171zM608 1027l30 -37l-175 -129
l-173 129l30 37l143 -104z" />
    <glyph glyph-name="Ccedilla" unicode="&#xc7;" horiz-adv-x="1061" 
d="M761 215l54 -26c-70 -122 -202 -204 -352 -204h-1l-20 -59c89 -4 127 -56 127 -103c0 -52 -44 -102 -120 -102c-62 0 -125 32 -125 32l20 41c18 -9 59 -28 103 -28c55 0 81 31 81 62c0 33 -29 70 -112 63l-19 21l28 75c-207 19 -369 191 -369 403c0 223 182 405 407 405
c149 0 280 -82 351 -203l-54 -26c-61 101 -171 170 -297 170c-191 0 -347 -156 -347 -346c0 -191 156 -346 347 -346c127 0 237 69 298 171z" />
    <glyph glyph-name="Cdotaccent" unicode="&#x10a;" horiz-adv-x="1061" 
d="M761 215l54 -26c-70 -122 -202 -204 -352 -204c-225 0 -407 181 -407 405c0 223 182 405 407 405c149 0 280 -82 351 -203l-54 -26c-61 101 -171 170 -297 170c-191 0 -347 -156 -347 -346c0 -191 156 -346 347 -346c127 0 237 69 298 171zM417 913c0 25 21 46 46 46
s45 -21 45 -46s-20 -45 -45 -45s-46 20 -46 45z" />
    <glyph glyph-name="Dcaron" unicode="&#x10e;" horiz-adv-x="1041" 
d="M112 0v780h305c237 0 363 -172 363 -390c0 -219 -126 -390 -363 -390h-305zM414 722h-243v-664h243c197 0 307 143 307 332s-110 332 -307 332zM590 1027l30 -37l-175 -129l-173 129l30 37l143 -104z" />
    <glyph glyph-name="Dcroat" unicode="&#x110;" horiz-adv-x="1042" 
d="M113 0v362h-88v53h88v365h305c237 0 363 -172 363 -390c0 -219 -126 -390 -363 -390h-305zM452 415v-53h-280v-304h243c197 0 307 143 307 332s-110 332 -307 332h-243v-307h280z" />
    <glyph glyph-name="Eacute" unicode="&#xc9;" horiz-adv-x="910" 
d="M112 0v780h536v-58h-477v-311h406v-56h-406v-297h477v-58h-536zM265 844l-23 40l246 149l29 -51z" />
    <glyph glyph-name="Ecaron" unicode="&#x11a;" horiz-adv-x="910" 
d="M112 0v780h536v-58h-477v-311h406v-56h-406v-297h477v-58h-536zM524 1027l30 -37l-175 -129l-173 129l30 37l143 -104z" />
    <glyph glyph-name="Ecircumflex" unicode="&#xca;" horiz-adv-x="910" 
d="M112 0v780h536v-58h-477v-311h406v-56h-406v-297h477v-58h-536zM554 898l-30 -37l-145 104l-143 -104l-30 37l173 129z" />
    <glyph glyph-name="Edieresis" unicode="&#xcb;" horiz-adv-x="910" 
d="M112 0v780h536v-58h-477v-311h406v-56h-406v-297h477v-58h-536zM225 923c0 25 21 46 46 46s45 -21 45 -46s-20 -45 -45 -45s-46 20 -46 45zM443 923c0 25 21 46 46 46s46 -21 46 -46s-21 -45 -46 -45s-46 20 -46 45z" />
    <glyph glyph-name="Edotaccent" unicode="&#x116;" horiz-adv-x="910" 
d="M112 0v780h536v-58h-477v-311h406v-56h-406v-297h477v-58h-536zM334 913c0 25 21 46 46 46s45 -21 45 -46s-20 -45 -45 -45s-46 20 -46 45z" />
    <glyph glyph-name="Egrave" unicode="&#xc8;" horiz-adv-x="910" 
d="M112 0v780h536v-58h-477v-311h406v-56h-406v-297h477v-58h-536zM517 884l-23 -40l-252 138l29 51z" />
    <glyph glyph-name="Emacron" unicode="&#x112;" horiz-adv-x="910" 
d="M112 0v780h536v-58h-477v-311h406v-56h-406v-297h477v-58h-536zM544 927v-49h-327v49h327z" />
    <glyph glyph-name="Eogonek" unicode="&#x118;" horiz-adv-x="909" 
d="M111 0v780h536v-58h-477v-311h406v-56h-406v-297h477v-57c-48 -40 -103 -97 -103 -149c0 -44 42 -63 107 -49l8 -47c-91 -19 -160 16 -160 87c0 64 54 118 102 157h-490z" />
    <glyph glyph-name="Gbreve" unicode="&#x11e;" horiz-adv-x="1084" 
d="M472 349v52h341v-401h-53v134c-64 -92 -175 -149 -297 -149c-225 0 -407 181 -407 405c0 223 182 405 407 405c133 0 252 -65 326 -165l-49 -34c-64 85 -165 140 -277 140c-191 0 -347 -156 -347 -346c0 -191 156 -346 347 -346c124 0 233 66 294 167v138h-285zM287 980
l41 23c29 -58 78 -91 135 -91c58 0 107 33 136 91l41 -23c-32 -67 -95 -119 -177 -119s-144 52 -176 119z" />
    <glyph glyph-name="Gdotaccent" unicode="&#x120;" horiz-adv-x="1084" 
d="M472 349v52h341v-401h-53v134c-64 -92 -175 -149 -297 -149c-225 0 -407 181 -407 405c0 223 182 405 407 405c133 0 252 -65 326 -165l-49 -34c-64 85 -165 140 -277 140c-191 0 -347 -156 -347 -346c0 -191 156 -346 347 -346c124 0 233 66 294 167v138h-285zM417 913
c0 25 21 46 46 46s45 -21 45 -46s-20 -45 -45 -45s-46 20 -46 45z" />
    <glyph glyph-name="Gcommaaccent" unicode="&#x122;" horiz-adv-x="1084" 
d="M472 349v52h341v-401h-53v134c-64 -92 -175 -149 -297 -149c-225 0 -407 181 -407 405c0 223 182 405 407 405c133 0 252 -65 326 -165l-49 -34c-64 85 -165 140 -277 140c-191 0 -347 -156 -347 -346c0 -191 156 -346 347 -346c124 0 233 66 294 167v138h-285zM402 -292
l-21 24c21 20 69 65 83 118c-22 -4 -44 16 -44 41c0 24 20 44 44 44s47 -19 47 -51c0 -72 -69 -141 -109 -176z" />
    <glyph glyph-name="Hbar" unicode="&#x126;" horiz-adv-x="1078" 
d="M707 780h59v-160h74v-49h-74v-571h-59v355h-536v-355h-59v571h-74v49h74v160h59v-160h536v160zM171 571v-160h536v160h-536z" />
    <glyph glyph-name="Iacute" unicode="&#xcd;" horiz-adv-x="482" 
d="M112 780h59v-780h-59v780zM27 844l-23 40l246 149l29 -51z" />
    <glyph glyph-name="Ibreve" unicode="&#x12c;" horiz-adv-x="482" 
d="M112 780h59v-780h-59v780zM-35 980l41 23c29 -58 78 -91 135 -91c58 0 107 33 136 91l41 -23c-32 -67 -95 -119 -177 -119s-144 52 -176 119z" />
    <glyph glyph-name="Icircumflex" unicode="&#xce;" horiz-adv-x="482" 
d="M112 780h59v-780h-59v780zM316 898l-30 -37l-145 104l-143 -104l-30 37l173 129z" />
    <glyph glyph-name="Idieresis" unicode="&#xcf;" horiz-adv-x="482" 
d="M112 780h59v-780h-59v780zM-14 923c0 25 21 46 46 46s45 -21 45 -46s-20 -45 -45 -45s-46 20 -46 45zM204 923c0 25 21 46 46 46s46 -21 46 -46s-21 -45 -46 -45s-46 20 -46 45z" />
    <glyph glyph-name="Idotaccent" unicode="&#x130;" horiz-adv-x="482" 
d="M112 780h59v-780h-59v780zM95 913c0 25 21 46 46 46s45 -21 45 -46s-20 -45 -45 -45s-46 20 -46 45z" />
    <glyph glyph-name="Igrave" unicode="&#xcc;" horiz-adv-x="482" 
d="M112 780h59v-780h-59v780zM279 884l-23 -40l-252 138l29 51z" />
    <glyph glyph-name="IJ" unicode="&#x132;" horiz-adv-x="1126" 
d="M112 780h59v-780h-59v780zM764 780h59v-520c0 -180 -123 -275 -266 -275s-268 95 -268 275v66h60v-66c0 -147 97 -217 208 -217c109 0 207 70 207 217v520z" />
    <glyph glyph-name="Imacron" unicode="&#x12a;" horiz-adv-x="482" 
d="M112 780h59v-780h-59v780zM305 927v-49h-327v49h327z" />
    <glyph glyph-name="Iogonek" unicode="&#x12e;" horiz-adv-x="483" 
d="M113 780h59v-780c-48 -40 -104 -96 -104 -148c0 -44 42 -63 107 -49l8 -47c-91 -19 -160 16 -160 87c0 64 54 118 102 157h-12v780z" />
    <glyph glyph-name="Itilde" unicode="&#x128;" horiz-adv-x="482" 
d="M112 780h59v-780h-59v780zM-4 863h-45c0 60 26 141 106 141c34 0 58 -13 102 -55c24 -24 45 -44 71 -44c37 0 57 40 56 90h46c0 -59 -23 -141 -102 -141c-35 0 -55 15 -99 55c-28 25 -48 44 -74 44c-39 0 -61 -40 -61 -90z" />
    <glyph glyph-name="Jcircumflex" unicode="&#x134;" horiz-adv-x="881" 
d="M519 780h59v-520c0 -180 -123 -275 -266 -275s-268 95 -268 275v66h60v-66c0 -147 97 -217 208 -217c109 0 207 70 207 217v520zM723 898l-30 -37l-145 104l-143 -104l-30 37l173 129z" />
    <glyph glyph-name="Kcommaaccent" unicode="&#x136;" horiz-adv-x="978" 
d="M112 0v780h59v-476l503 476h80l-339 -322l353 -458h-75l-322 416l-200 -190v-226h-59zM377 -292l-21 24c21 20 69 65 83 118c-22 -4 -44 16 -44 41c0 24 20 44 44 44s47 -19 47 -51c0 -72 -69 -141 -109 -176z" />
    <glyph glyph-name="Lacute" unicode="&#x139;" horiz-adv-x="855" 
d="M112 0v780h59v-722h451v-58h-510zM27 844l-23 40l246 149l29 -51z" />
    <glyph glyph-name="Lcaron" unicode="&#x13d;" horiz-adv-x="855" 
d="M112 0v780h59v-722h451v-58h-510zM280 563l-21 24c21 20 69 65 83 118c-22 -4 -44 16 -44 41c0 24 20 44 44 44s47 -19 47 -51c0 -72 -69 -141 -109 -176z" />
    <glyph glyph-name="Lcommaaccent" unicode="&#x13b;" horiz-adv-x="855" 
d="M112 0v780h59v-722h451v-58h-510zM305 -292l-21 24c21 20 69 65 83 118c-22 -4 -44 16 -44 41c0 24 20 44 44 44s47 -19 47 -51c0 -72 -69 -141 -109 -176z" />
    <glyph glyph-name="Ldot" unicode="&#x13f;" horiz-adv-x="855" 
d="M112 0v780h59v-722h451v-58h-510zM350 418c0 25 21 46 46 46s45 -21 45 -46s-20 -45 -45 -45s-46 20 -46 45z" />
    <glyph glyph-name="Lslash" unicode="&#x141;" horiz-adv-x="855" 
d="M112 780h59v-356l244 111v-62l-244 -111v-304h452v-58h-511v335l-78 -35v62l78 35v383z" />
    <glyph glyph-name="Eng" unicode="&#x14a;" horiz-adv-x="1074" 
d="M170 0h-59v780h53l540 -679v679h59v-819c0 -180 -127 -275 -264 -275c-132 0 -209 88 -234 172l56 19c20 -66 79 -133 180 -133c103 0 203 69 203 217v46l-534 671v-678z" />
    <glyph glyph-name="Nacute" unicode="&#x143;" horiz-adv-x="1075" 
d="M171 0h-59v780h53l540 -679v679h59v-780h-53l-540 678v-678zM324 844l-23 40l246 149l29 -51z" />
    <glyph glyph-name="Ncaron" unicode="&#x147;" horiz-adv-x="1075" 
d="M171 0h-59v780h53l540 -679v679h59v-780h-53l-540 678v-678zM582 1027l30 -37l-175 -129l-173 129l30 37l143 -104z" />
    <glyph glyph-name="Ncommaaccent" unicode="&#x145;" horiz-adv-x="1075" 
d="M171 0h-59v780h53l540 -679v679h59v-780h-53l-540 678v-678zM376 -292l-21 24c21 20 69 65 83 118c-22 -4 -44 16 -44 41c0 24 20 44 44 44s47 -19 47 -51c0 -72 -69 -141 -109 -176z" />
    <glyph glyph-name="Ntilde" unicode="&#xd1;" horiz-adv-x="1075" 
d="M171 0h-59v780h53l540 -679v679h59v-780h-53l-540 678v-678zM292 863h-45c0 60 26 141 106 141c34 0 58 -13 102 -55c24 -24 45 -44 71 -44c37 0 57 40 56 90h46c0 -59 -23 -141 -102 -141c-35 0 -55 15 -99 55c-28 25 -48 44 -74 44c-39 0 -61 -40 -61 -90z" />
    <glyph glyph-name="Oacute" unicode="&#xd3;" horiz-adv-x="1125" 
d="M56 390c0 223 182 405 407 405c224 0 406 -182 406 -405c0 -224 -182 -405 -406 -405c-225 0 -407 181 -407 405zM116 390c0 -191 156 -346 347 -346c190 0 346 155 346 346c0 190 -156 346 -346 346c-191 0 -347 -156 -347 -346zM348 844l-23 40l246 149l29 -51z" />
    <glyph glyph-name="Obreve" unicode="&#x14e;" horiz-adv-x="1125" 
d="M56 390c0 223 182 405 407 405c224 0 406 -182 406 -405c0 -224 -182 -405 -406 -405c-225 0 -407 181 -407 405zM116 390c0 -191 156 -346 347 -346c190 0 346 155 346 346c0 190 -156 346 -346 346c-191 0 -347 -156 -347 -346zM286 980l41 23c29 -58 78 -91 135 -91
c58 0 107 33 136 91l41 -23c-32 -67 -95 -119 -177 -119s-144 52 -176 119z" />
    <glyph glyph-name="Ocircumflex" unicode="&#xd4;" horiz-adv-x="1125" 
d="M56 390c0 223 182 405 407 405c224 0 406 -182 406 -405c0 -224 -182 -405 -406 -405c-225 0 -407 181 -407 405zM116 390c0 -191 156 -346 347 -346c190 0 346 155 346 346c0 190 -156 346 -346 346c-191 0 -347 -156 -347 -346zM637 898l-30 -37l-145 104l-143 -104
l-30 37l173 129z" />
    <glyph glyph-name="Odieresis" unicode="&#xd6;" horiz-adv-x="1125" 
d="M56 390c0 223 182 405 407 405c224 0 406 -182 406 -405c0 -224 -182 -405 -406 -405c-225 0 -407 181 -407 405zM116 390c0 -191 156 -346 347 -346c190 0 346 155 346 346c0 190 -156 346 -346 346c-191 0 -347 -156 -347 -346zM308 923c0 25 21 46 46 46
s45 -21 45 -46s-20 -45 -45 -45s-46 20 -46 45zM526 923c0 25 21 46 46 46s46 -21 46 -46s-21 -45 -46 -45s-46 20 -46 45z" />
    <glyph glyph-name="Ograve" unicode="&#xd2;" horiz-adv-x="1125" 
d="M56 390c0 223 182 405 407 405c224 0 406 -182 406 -405c0 -224 -182 -405 -406 -405c-225 0 -407 181 -407 405zM116 390c0 -191 156 -346 347 -346c190 0 346 155 346 346c0 190 -156 346 -346 346c-191 0 -347 -156 -347 -346zM600 884l-23 -40l-252 138l29 51z" />
    <glyph glyph-name="Ohungarumlaut" unicode="&#x150;" horiz-adv-x="1125" 
d="M56 390c0 223 182 405 407 405c224 0 406 -182 406 -405c0 -224 -182 -405 -406 -405c-225 0 -407 181 -407 405zM116 390c0 -191 156 -346 347 -346c190 0 346 155 346 346c0 190 -156 346 -346 346c-191 0 -347 -156 -347 -346zM330 870l-33 33l168 176l41 -41z
M553 870l-32 33l167 176l41 -41z" />
    <glyph glyph-name="Omacron" unicode="&#x14c;" horiz-adv-x="1125" 
d="M56 390c0 223 182 405 407 405c224 0 406 -182 406 -405c0 -224 -182 -405 -406 -405c-225 0 -407 181 -407 405zM116 390c0 -191 156 -346 347 -346c190 0 346 155 346 346c0 190 -156 346 -346 346c-191 0 -347 -156 -347 -346zM627 927v-49h-327v49h327z" />
    <glyph glyph-name="Oslashacute" unicode="&#x1fe;" horiz-adv-x="1125" 
d="M348 844l-23 40l246 149l29 -51zM56 390c0 223 182 405 407 405c97 0 187 -35 257 -93l72 78h61l-100 -108c72 -73 116 -173 116 -282c0 -224 -183 -405 -406 -405c-98 0 -188 34 -259 92l-71 -77h-61l99 107c-71 73 -115 173 -115 283zM809 390c0 92 -37 176 -96 238
l-468 -507c59 -48 135 -77 218 -77c190 0 346 155 346 346zM116 390c0 -93 36 -177 96 -239l468 508c-60 48 -135 77 -217 77c-191 0 -347 -156 -347 -346z" />
    <glyph glyph-name="Otilde" unicode="&#xd5;" horiz-adv-x="1125" 
d="M56 390c0 223 182 405 407 405c224 0 406 -182 406 -405c0 -224 -182 -405 -406 -405c-225 0 -407 181 -407 405zM116 390c0 -191 156 -346 347 -346c190 0 346 155 346 346c0 190 -156 346 -346 346c-191 0 -347 -156 -347 -346zM317 863h-45c0 60 26 141 106 141
c34 0 58 -13 102 -55c24 -24 45 -44 71 -44c37 0 57 40 56 90h46c0 -59 -23 -141 -102 -141c-35 0 -55 15 -99 55c-28 25 -48 44 -74 44c-39 0 -61 -40 -61 -90z" />
    <glyph glyph-name="Racute" unicode="&#x154;" horiz-adv-x="994" 
d="M112 780h344c169 0 266 -116 266 -251c0 -110 -64 -207 -178 -241l205 -288h-72l-197 277c-8 -1 -16 -1 -24 -1h-285v-276h-59v780zM454 724h-283v-392h283c136 0 210 92 210 196c0 103 -74 196 -210 196zM316 844l-23 40l246 149l29 -51z" />
    <glyph glyph-name="Rcaron" unicode="&#x158;" horiz-adv-x="994" 
d="M112 780h344c169 0 266 -116 266 -251c0 -110 -64 -207 -178 -241l205 -288h-72l-197 277c-8 -1 -16 -1 -24 -1h-285v-276h-59v780zM454 724h-283v-392h283c136 0 210 92 210 196c0 103 -74 196 -210 196zM574 1027l30 -37l-175 -129l-173 129l30 37l143 -104z" />
    <glyph glyph-name="Rcommaaccent" unicode="&#x156;" horiz-adv-x="994" 
d="M112 780h344c169 0 266 -116 266 -251c0 -110 -64 -207 -178 -241l205 -288h-72l-197 277c-8 -1 -16 -1 -24 -1h-285v-276h-59v780zM454 724h-283v-392h283c136 0 210 92 210 196c0 103 -74 196 -210 196zM367 -292l-21 24c21 20 69 65 83 118c-22 -4 -44 16 -44 41
c0 24 20 44 44 44s47 -19 47 -51c0 -72 -69 -141 -109 -176z" />
    <glyph glyph-name="Sacute" unicode="&#x15a;" horiz-adv-x="904" 
d="M59 195h58v-4c0 -87 94 -151 245 -151c145 0 223 61 223 145c0 102 -110 138 -242 178c-127 39 -278 87 -278 228c0 122 108 204 277 204c172 0 292 -85 292 -202v-9h-58v5c0 87 -89 151 -234 151c-139 0 -215 -61 -215 -145c0 -100 106 -135 233 -175
c125 -38 288 -86 288 -232c0 -123 -113 -203 -286 -203c-178 0 -303 84 -303 202v8zM227 844l-23 40l246 149l29 -51z" />
    <glyph glyph-name="Scaron" unicode="&#x160;" horiz-adv-x="904" 
d="M59 195h58v-4c0 -87 94 -151 245 -151c145 0 223 61 223 145c0 102 -110 138 -242 178c-127 39 -278 87 -278 228c0 122 108 204 277 204c172 0 292 -85 292 -202v-9h-58v5c0 87 -89 151 -234 151c-139 0 -215 -61 -215 -145c0 -100 106 -135 233 -175
c125 -38 288 -86 288 -232c0 -123 -113 -203 -286 -203c-178 0 -303 84 -303 202v8zM486 1027l30 -37l-175 -129l-173 129l30 37l143 -104z" />
    <glyph glyph-name="Scedilla" unicode="&#x15e;" horiz-adv-x="905" 
d="M59 195h58v-4c0 -87 94 -151 245 -151c145 0 223 61 223 145c0 102 -110 138 -242 178c-127 39 -278 87 -278 228c0 122 108 204 277 204c172 0 292 -85 292 -202v-9h-58v5c0 87 -89 151 -234 151c-139 0 -215 -61 -215 -145c0 -100 106 -135 233 -175
c125 -38 288 -86 288 -232c0 -119 -105 -196 -267 -202l-19 -58c89 -4 127 -56 127 -103c0 -52 -44 -102 -120 -102c-62 0 -125 32 -125 32l20 41c18 -9 59 -28 103 -28c55 0 81 31 81 62c0 33 -29 70 -112 63l-19 21l26 71c-168 6 -284 88 -284 202v8z" />
    <glyph glyph-name="Scircumflex" unicode="&#x15c;" horiz-adv-x="904" 
d="M59 195h58v-4c0 -87 94 -151 245 -151c145 0 223 61 223 145c0 102 -110 138 -242 178c-127 39 -278 87 -278 228c0 122 108 204 277 204c172 0 292 -85 292 -202v-9h-58v5c0 87 -89 151 -234 151c-139 0 -215 -61 -215 -145c0 -100 106 -135 233 -175
c125 -38 288 -86 288 -232c0 -123 -113 -203 -286 -203c-178 0 -303 84 -303 202v8zM516 898l-30 -37l-145 104l-143 -104l-30 37l173 129z" />
    <glyph glyph-name="Scommaaccent" unicode="&#x218;" horiz-adv-x="904" 
d="M59 195h58v-4c0 -87 94 -151 245 -151c145 0 223 61 223 145c0 102 -110 138 -242 178c-127 39 -278 87 -278 228c0 122 108 204 277 204c172 0 292 -85 292 -202v-9h-58v5c0 87 -89 151 -234 151c-139 0 -215 -61 -215 -145c0 -100 106 -135 233 -175
c125 -38 288 -86 288 -232c0 -123 -113 -203 -286 -203c-178 0 -303 84 -303 202v8zM300 -292l-21 24c21 20 69 65 83 118c-22 -4 -44 16 -44 41c0 24 20 44 44 44s47 -19 47 -51c0 -72 -69 -141 -109 -176z" />
    <glyph glyph-name="Tbar" unicode="&#x166;" horiz-adv-x="884" 
d="M31 722v58h622v-58h-281v-307h140v-48h-140v-367h-60v367h-141v48h141v307h-281z" />
    <glyph glyph-name="Tcaron" unicode="&#x164;" horiz-adv-x="876" 
d="M27 722v58h622v-58h-282v-722h-59v722h-281zM482 1027l30 -37l-175 -129l-173 129l30 37l143 -104z" />
    <glyph glyph-name="Tcommaaccent" unicode="&#x162;" horiz-adv-x="876" 
d="M27 722v58h622v-58h-282v-722h-59v722h-281zM275 -292l-21 24c21 20 69 65 83 118c-22 -4 -44 16 -44 41c0 24 20 44 44 44s47 -19 47 -51c0 -72 -69 -141 -109 -176z" />
    <glyph glyph-name="Uacute" unicode="&#xda;" 
d="M696 780h59v-485c0 -175 -114 -310 -327 -310s-327 135 -327 310v485h59v-483c0 -147 94 -254 268 -254c175 0 268 107 268 254v483zM313 844l-23 40l246 149l29 -51z" />
    <glyph glyph-name="Ubreve" unicode="&#x16c;" 
d="M696 780h59v-485c0 -175 -114 -310 -327 -310s-327 135 -327 310v485h59v-483c0 -147 94 -254 268 -254c175 0 268 107 268 254v483zM251 980l41 23c29 -58 78 -91 135 -91c58 0 107 33 136 91l41 -23c-32 -67 -95 -119 -177 -119s-144 52 -176 119z" />
    <glyph glyph-name="Ucircumflex" unicode="&#xdb;" 
d="M696 780h59v-485c0 -175 -114 -310 -327 -310s-327 135 -327 310v485h59v-483c0 -147 94 -254 268 -254c175 0 268 107 268 254v483zM602 898l-30 -37l-145 104l-143 -104l-30 37l173 129z" />
    <glyph glyph-name="Udieresis" unicode="&#xdc;" 
d="M696 780h59v-485c0 -175 -114 -310 -327 -310s-327 135 -327 310v485h59v-483c0 -147 94 -254 268 -254c175 0 268 107 268 254v483zM273 923c0 25 21 46 46 46s45 -21 45 -46s-20 -45 -45 -45s-46 20 -46 45zM491 923c0 25 21 46 46 46s46 -21 46 -46s-21 -45 -46 -45
s-46 20 -46 45z" />
    <glyph glyph-name="Ugrave" unicode="&#xd9;" 
d="M696 780h59v-485c0 -175 -114 -310 -327 -310s-327 135 -327 310v485h59v-483c0 -147 94 -254 268 -254c175 0 268 107 268 254v483zM565 884l-23 -40l-252 138l29 51z" />
    <glyph glyph-name="Uhungarumlaut" unicode="&#x170;" 
d="M696 780h59v-485c0 -175 -114 -310 -327 -310s-327 135 -327 310v485h59v-483c0 -147 94 -254 268 -254c175 0 268 107 268 254v483zM294 870l-33 33l168 176l41 -41zM517 870l-32 33l167 176l41 -41z" />
    <glyph glyph-name="Umacron" unicode="&#x16a;" 
d="M696 780h59v-485c0 -175 -114 -310 -327 -310s-327 135 -327 310v485h59v-483c0 -147 94 -254 268 -254c175 0 268 107 268 254v483zM592 927v-49h-327v49h327z" />
    <glyph glyph-name="Uogonek" unicode="&#x172;" 
d="M694 780h59v-485c0 -144 -77 -260 -222 -297c-48 -40 -101 -95 -101 -146c0 -44 42 -63 107 -49l8 -47c-91 -19 -160 16 -160 87c0 57 43 106 86 144c-14 -1 -29 -2 -45 -2c-213 0 -327 135 -327 310v485h59v-483c0 -147 94 -254 268 -254c175 0 268 107 268 254v483z
" />
    <glyph glyph-name="Uring" unicode="&#x16e;" 
d="M696 780h59v-485c0 -175 -114 -310 -327 -310s-327 135 -327 310v485h59v-483c0 -147 94 -254 268 -254c175 0 268 107 268 254v483zM313 956c0 63 50 114 115 114c63 0 114 -50 114 -114c0 -65 -51 -115 -114 -115c-65 0 -115 50 -115 115zM356 956c0 -40 32 -72 72 -72
c38 0 71 32 71 72c0 38 -33 71 -71 71c-40 0 -72 -33 -72 -71z" />
    <glyph glyph-name="Utilde" unicode="&#x168;" 
d="M696 780h59v-485c0 -175 -114 -310 -327 -310s-327 135 -327 310v485h59v-483c0 -147 94 -254 268 -254c175 0 268 107 268 254v483zM282 863h-45c0 60 26 141 106 141c34 0 58 -13 102 -55c24 -24 45 -44 71 -44c37 0 57 40 56 90h46c0 -59 -23 -141 -102 -141
c-35 0 -55 15 -99 55c-28 25 -48 44 -74 44c-39 0 -61 -40 -61 -90z" />
    <glyph glyph-name="Wacute" unicode="&#x1e82;" horiz-adv-x="1333" 
d="M340 0h-65l-251 780h64l220 -692l229 692h58l229 -692l221 692h64l-251 -780h-65l-227 685zM452 844l-23 40l246 149l29 -51z" />
    <glyph glyph-name="Wcircumflex" unicode="&#x174;" horiz-adv-x="1333" 
d="M340 0h-65l-251 780h64l220 -692l229 692h58l229 -692l221 692h64l-251 -780h-65l-227 685zM741 898l-30 -37l-145 104l-143 -104l-30 37l173 129z" />
    <glyph glyph-name="Wdieresis" unicode="&#x1e84;" horiz-adv-x="1333" 
d="M340 0h-65l-251 780h64l220 -692l229 692h58l229 -692l221 692h64l-251 -780h-65l-227 685zM412 923c0 25 21 46 46 46s45 -21 45 -46s-20 -45 -45 -45s-46 20 -46 45zM630 923c0 25 21 46 46 46s46 -21 46 -46s-21 -45 -46 -45s-46 20 -46 45z" />
    <glyph glyph-name="Wgrave" unicode="&#x1e80;" horiz-adv-x="1333" 
d="M340 0h-65l-251 780h64l220 -692l229 692h58l229 -692l221 692h64l-251 -780h-65l-227 685zM704 884l-23 -40l-252 138l29 51z" />
    <glyph glyph-name="Yacute" unicode="&#xdd;" horiz-adv-x="933" 
d="M253 844l-23 40l246 149l29 -51zM83 780l283 -433l284 433h69l-323 -494v-286h-59v285l-323 495h69z" />
    <glyph glyph-name="ycircumflex" unicode="&#x177;" horiz-adv-x="933" 
d="M542 898l-30 -37l-145 104l-143 -104l-30 37l173 129zM83 780l283 -433l284 433h69l-323 -494v-286h-59v285l-323 495h69z" />
    <glyph glyph-name="Ydieresis" unicode="&#x178;" horiz-adv-x="933" 
d="M212 923c0 25 21 46 46 46s45 -21 45 -46s-20 -45 -45 -45s-46 20 -46 45zM430 923c0 25 21 46 46 46s46 -21 46 -46s-21 -45 -46 -45s-46 20 -46 45zM83 780l283 -433l284 433h69l-323 -494v-286h-59v285l-323 495h69z" />
    <glyph glyph-name="Ygrave" unicode="&#x1ef2;" horiz-adv-x="933" 
d="M506 884l-23 -40l-252 138l29 51zM83 780l283 -433l284 433h69l-323 -494v-286h-59v285l-323 495h69z" />
    <glyph glyph-name="Zacute" unicode="&#x179;" horiz-adv-x="820" 
d="M50 722v58h530v-45l-467 -677h465v-58h-545v45l466 677h-449zM192 844l-23 40l246 149l29 -51z" />
    <glyph glyph-name="Zcaron" unicode="&#x17d;" horiz-adv-x="820" 
d="M50 722v58h530v-45l-467 -677h465v-58h-545v45l466 677h-449zM451 1027l30 -37l-175 -129l-173 129l30 37l143 -104z" />
    <glyph glyph-name="Zdotaccent" unicode="&#x17b;" horiz-adv-x="820" 
d="M50 722v58h530v-45l-467 -677h465v-58h-545v45l466 677h-449zM261 913c0 25 21 46 46 46s45 -21 45 -46s-20 -45 -45 -45s-46 20 -46 45z" />
    <glyph glyph-name="aacute" unicode="&#xe1;" horiz-adv-x="1008" 
d="M372 780h64l358 -780h-65l-80 176h-490l-79 -176h-66zM404 716l-219 -484h438zM290 844l-23 40l246 149l29 -51z" />
    <glyph glyph-name="abreve" unicode="&#x103;" horiz-adv-x="1008" 
d="M372 780h64l358 -780h-65l-80 176h-490l-79 -176h-66zM404 716l-219 -484h438zM227 980l41 23c29 -58 78 -91 135 -91c58 0 107 33 136 91l41 -23c-32 -67 -95 -119 -177 -119s-144 52 -176 119z" />
    <glyph glyph-name="acircumflex" unicode="&#xe2;" horiz-adv-x="1008" 
d="M372 780h64l358 -780h-65l-80 176h-490l-79 -176h-66zM404 716l-219 -484h438zM578 898l-30 -37l-145 104l-143 -104l-30 37l173 129z" />
    <glyph glyph-name="adieresis" unicode="&#xe4;" horiz-adv-x="1008" 
d="M372 780h64l358 -780h-65l-80 176h-490l-79 -176h-66zM404 716l-219 -484h438zM249 923c0 25 21 46 46 46s45 -21 45 -46s-20 -45 -45 -45s-46 20 -46 45zM467 923c0 25 21 46 46 46s46 -21 46 -46s-21 -45 -46 -45s-46 20 -46 45z" />
    <glyph glyph-name="aeacute" unicode="&#x1fd;" horiz-adv-x="1449" 
d="M650 0v176h-423l-142 -176h-77l632 780h546v-58h-477v-311h406v-56h-406v-297h477v-58h-536zM272 232h378v467zM673 844l-23 40l246 149l29 -51z" />
    <glyph glyph-name="agrave" unicode="&#xe0;" horiz-adv-x="1008" 
d="M372 780h64l358 -780h-65l-80 176h-490l-79 -176h-66zM404 716l-219 -484h438zM542 884l-23 -40l-252 138l29 51z" />
    <glyph glyph-name="amacron" unicode="&#x101;" horiz-adv-x="1008" 
d="M372 780h64l358 -780h-65l-80 176h-490l-79 -176h-66zM404 716l-219 -484h438zM568 927v-49h-327v49h327z" />
    <glyph glyph-name="aogonek" unicode="&#x105;" horiz-adv-x="1007" 
d="M371 780h64l358 -780c-48 -40 -104 -96 -104 -148c0 -44 42 -63 107 -49l8 -47c-91 -19 -160 16 -160 87c0 64 54 118 102 157h-18l-80 176h-490l-79 -176h-66zM403 716l-219 -484h438z" />
    <glyph glyph-name="aring" unicode="&#xe5;" horiz-adv-x="1008" 
d="M372 780h64l358 -780h-65l-80 176h-490l-79 -176h-66zM404 716l-219 -484h438zM290 956c0 63 50 114 115 114c63 0 114 -50 114 -114c0 -65 -51 -115 -114 -115c-65 0 -115 50 -115 115zM333 956c0 -40 32 -72 72 -72c38 0 71 32 71 72c0 38 -33 71 -71 71
c-40 0 -72 -33 -72 -71z" />
    <glyph glyph-name="atilde" unicode="&#xe3;" horiz-adv-x="1008" 
d="M372 780h64l358 -780h-65l-80 176h-490l-79 -176h-66zM404 716l-219 -484h438zM258 863h-45c0 60 26 141 106 141c34 0 58 -13 102 -55c24 -24 45 -44 71 -44c37 0 57 40 56 90h46c0 -59 -23 -141 -102 -141c-35 0 -55 15 -99 55c-28 25 -48 44 -74 44
c-39 0 -61 -40 -61 -90z" />
    <glyph glyph-name="cacute" unicode="&#x107;" horiz-adv-x="1061" 
d="M761 215l54 -26c-70 -122 -202 -204 -352 -204c-225 0 -407 181 -407 405c0 223 182 405 407 405c149 0 280 -82 351 -203l-54 -26c-61 101 -171 170 -297 170c-191 0 -347 -156 -347 -346c0 -191 156 -346 347 -346c127 0 237 69 298 171zM348 844l-23 40l246 149
l29 -51z" />
    <glyph glyph-name="ccaron" unicode="&#x10d;" horiz-adv-x="1061" 
d="M761 215l54 -26c-70 -122 -202 -204 -352 -204c-225 0 -407 181 -407 405c0 223 182 405 407 405c149 0 280 -82 351 -203l-54 -26c-61 101 -171 170 -297 170c-191 0 -347 -156 -347 -346c0 -191 156 -346 347 -346c127 0 237 69 298 171zM608 1027l30 -37l-175 -129
l-173 129l30 37l143 -104z" />
    <glyph glyph-name="ccedilla" unicode="&#xe7;" horiz-adv-x="1061" 
d="M761 215l54 -26c-70 -122 -202 -204 -352 -204h-1l-20 -59c89 -4 127 -56 127 -103c0 -52 -44 -102 -120 -102c-62 0 -125 32 -125 32l20 41c18 -9 59 -28 103 -28c55 0 81 31 81 62c0 33 -29 70 -112 63l-19 21l28 75c-207 19 -369 191 -369 403c0 223 182 405 407 405
c149 0 280 -82 351 -203l-54 -26c-61 101 -171 170 -297 170c-191 0 -347 -156 -347 -346c0 -191 156 -346 347 -346c127 0 237 69 298 171z" />
    <glyph glyph-name="cdotaccent" unicode="&#x10b;" horiz-adv-x="1061" 
d="M761 215l54 -26c-70 -122 -202 -204 -352 -204c-225 0 -407 181 -407 405c0 223 182 405 407 405c149 0 280 -82 351 -203l-54 -26c-61 101 -171 170 -297 170c-191 0 -347 -156 -347 -346c0 -191 156 -346 347 -346c127 0 237 69 298 171zM417 913c0 25 21 46 46 46
s45 -21 45 -46s-20 -45 -45 -45s-46 20 -46 45z" />
    <glyph glyph-name="dcaron" unicode="&#x10f;" horiz-adv-x="1041" 
d="M112 0v780h305c237 0 363 -172 363 -390c0 -219 -126 -390 -363 -390h-305zM414 722h-243v-664h243c197 0 307 143 307 332s-110 332 -307 332zM590 1027l30 -37l-175 -129l-173 129l30 37l143 -104z" />
    <glyph glyph-name="dcroat" unicode="&#x111;" horiz-adv-x="1042" 
d="M113 0v362h-88v53h88v365h305c237 0 363 -172 363 -390c0 -219 -126 -390 -363 -390h-305zM452 415v-53h-280v-304h243c197 0 307 143 307 332s-110 332 -307 332h-243v-307h280z" />
    <glyph glyph-name="eacute" unicode="&#xe9;" horiz-adv-x="910" 
d="M112 0v780h536v-58h-477v-311h406v-56h-406v-297h477v-58h-536zM265 844l-23 40l246 149l29 -51z" />
    <glyph glyph-name="ecaron" unicode="&#x11b;" horiz-adv-x="910" 
d="M112 0v780h536v-58h-477v-311h406v-56h-406v-297h477v-58h-536zM524 1027l30 -37l-175 -129l-173 129l30 37l143 -104z" />
    <glyph glyph-name="ecircumflex" unicode="&#xea;" horiz-adv-x="910" 
d="M112 0v780h536v-58h-477v-311h406v-56h-406v-297h477v-58h-536zM554 898l-30 -37l-145 104l-143 -104l-30 37l173 129z" />
    <glyph glyph-name="edieresis" unicode="&#xeb;" horiz-adv-x="910" 
d="M112 0v780h536v-58h-477v-311h406v-56h-406v-297h477v-58h-536zM225 923c0 25 21 46 46 46s45 -21 45 -46s-20 -45 -45 -45s-46 20 -46 45zM443 923c0 25 21 46 46 46s46 -21 46 -46s-21 -45 -46 -45s-46 20 -46 45z" />
    <glyph glyph-name="edotaccent" unicode="&#x117;" horiz-adv-x="910" 
d="M112 0v780h536v-58h-477v-311h406v-56h-406v-297h477v-58h-536zM334 913c0 25 21 46 46 46s45 -21 45 -46s-20 -45 -45 -45s-46 20 -46 45z" />
    <glyph glyph-name="egrave" unicode="&#xe8;" horiz-adv-x="910" 
d="M112 0v780h536v-58h-477v-311h406v-56h-406v-297h477v-58h-536zM517 884l-23 -40l-252 138l29 51z" />
    <glyph glyph-name="emacron" unicode="&#x113;" horiz-adv-x="910" 
d="M112 0v780h536v-58h-477v-311h406v-56h-406v-297h477v-58h-536zM544 927v-49h-327v49h327z" />
    <glyph glyph-name="eogonek" unicode="&#x119;" horiz-adv-x="909" 
d="M111 0v780h536v-58h-477v-311h406v-56h-406v-297h477v-57c-48 -40 -103 -97 -103 -149c0 -44 42 -63 107 -49l8 -47c-91 -19 -160 16 -160 87c0 64 54 118 102 157h-490z" />
    <glyph glyph-name="gbreve" unicode="&#x11f;" horiz-adv-x="1084" 
d="M472 349v52h341v-401h-53v134c-64 -92 -175 -149 -297 -149c-225 0 -407 181 -407 405c0 223 182 405 407 405c133 0 252 -65 326 -165l-49 -34c-64 85 -165 140 -277 140c-191 0 -347 -156 -347 -346c0 -191 156 -346 347 -346c124 0 233 66 294 167v138h-285zM287 980
l41 23c29 -58 78 -91 135 -91c58 0 107 33 136 91l41 -23c-32 -67 -95 -119 -177 -119s-144 52 -176 119z" />
    <glyph glyph-name="gdotaccent" unicode="&#x121;" horiz-adv-x="1084" 
d="M472 349v52h341v-401h-53v134c-64 -92 -175 -149 -297 -149c-225 0 -407 181 -407 405c0 223 182 405 407 405c133 0 252 -65 326 -165l-49 -34c-64 85 -165 140 -277 140c-191 0 -347 -156 -347 -346c0 -191 156 -346 347 -346c124 0 233 66 294 167v138h-285zM417 913
c0 25 21 46 46 46s45 -21 45 -46s-20 -45 -45 -45s-46 20 -46 45z" />
    <glyph glyph-name="gcommaaccent" unicode="&#x123;" horiz-adv-x="1084" 
d="M472 349v52h341v-401h-53v134c-64 -92 -175 -149 -297 -149c-225 0 -407 181 -407 405c0 223 182 405 407 405c133 0 252 -65 326 -165l-49 -34c-64 85 -165 140 -277 140c-191 0 -347 -156 -347 -346c0 -191 156 -346 347 -346c124 0 233 66 294 167v138h-285zM402 -292
l-21 24c21 20 69 65 83 118c-22 -4 -44 16 -44 41c0 24 20 44 44 44s47 -19 47 -51c0 -72 -69 -141 -109 -176z" />
    <glyph glyph-name="hbar" unicode="&#x127;" horiz-adv-x="1078" 
d="M707 780h59v-160h74v-49h-74v-571h-59v355h-536v-355h-59v571h-74v49h74v160h59v-160h536v160zM171 571v-160h536v160h-536z" />
    <glyph glyph-name="iacute" unicode="&#xed;" horiz-adv-x="482" 
d="M112 780h59v-780h-59v780zM27 844l-23 40l246 149l29 -51z" />
    <glyph glyph-name="ibreve" unicode="&#x12d;" horiz-adv-x="482" 
d="M112 780h59v-780h-59v780zM-35 980l41 23c29 -58 78 -91 135 -91c58 0 107 33 136 91l41 -23c-32 -67 -95 -119 -177 -119s-144 52 -176 119z" />
    <glyph glyph-name="icircumflex" unicode="&#xee;" horiz-adv-x="482" 
d="M112 780h59v-780h-59v780zM316 898l-30 -37l-145 104l-143 -104l-30 37l173 129z" />
    <glyph glyph-name="idieresis" unicode="&#xef;" horiz-adv-x="482" 
d="M112 780h59v-780h-59v780zM-14 923c0 25 21 46 46 46s45 -21 45 -46s-20 -45 -45 -45s-46 20 -46 45zM204 923c0 25 21 46 46 46s46 -21 46 -46s-21 -45 -46 -45s-46 20 -46 45z" />
    <glyph glyph-name="igrave" unicode="&#xec;" horiz-adv-x="482" 
d="M112 780h59v-780h-59v780zM279 884l-23 -40l-252 138l29 51z" />
    <glyph glyph-name="ij" unicode="&#x133;" horiz-adv-x="1126" 
d="M112 780h59v-780h-59v780zM764 780h59v-520c0 -180 -123 -275 -266 -275s-268 95 -268 275v66h60v-66c0 -147 97 -217 208 -217c109 0 207 70 207 217v520z" />
    <glyph glyph-name="imacron" unicode="&#x12b;" horiz-adv-x="482" 
d="M112 780h59v-780h-59v780zM305 927v-49h-327v49h327z" />
    <glyph glyph-name="iogonek" unicode="&#x12f;" horiz-adv-x="483" 
d="M113 780h59v-780c-48 -40 -104 -96 -104 -148c0 -44 42 -63 107 -49l8 -47c-91 -19 -160 16 -160 87c0 64 54 118 102 157h-12v780z" />
    <glyph glyph-name="itilde" unicode="&#x129;" horiz-adv-x="482" 
d="M112 780h59v-780h-59v780zM-4 863h-45c0 60 26 141 106 141c34 0 58 -13 102 -55c24 -24 45 -44 71 -44c37 0 57 40 56 90h46c0 -59 -23 -141 -102 -141c-35 0 -55 15 -99 55c-28 25 -48 44 -74 44c-39 0 -61 -40 -61 -90z" />
    <glyph glyph-name="jcircumflex" unicode="&#x135;" horiz-adv-x="881" 
d="M519 780h59v-520c0 -180 -123 -275 -266 -275s-268 95 -268 275v66h60v-66c0 -147 97 -217 208 -217c109 0 207 70 207 217v520zM723 898l-30 -37l-145 104l-143 -104l-30 37l173 129z" />
    <glyph glyph-name="kcommaaccent" unicode="&#x137;" horiz-adv-x="978" 
d="M112 0v780h59v-476l503 476h80l-339 -322l353 -458h-75l-322 416l-200 -190v-226h-59zM377 -292l-21 24c21 20 69 65 83 118c-22 -4 -44 16 -44 41c0 24 20 44 44 44s47 -19 47 -51c0 -72 -69 -141 -109 -176z" />
    <glyph glyph-name="lacute" unicode="&#x13a;" horiz-adv-x="855" 
d="M112 0v780h59v-722h451v-58h-510zM27 844l-23 40l246 149l29 -51z" />
    <glyph glyph-name="lcaron" unicode="&#x13e;" horiz-adv-x="855" 
d="M112 0v780h59v-722h451v-58h-510zM280 563l-21 24c21 20 69 65 83 118c-22 -4 -44 16 -44 41c0 24 20 44 44 44s47 -19 47 -51c0 -72 -69 -141 -109 -176z" />
    <glyph glyph-name="lcommaaccent" unicode="&#x13c;" horiz-adv-x="855" 
d="M112 0v780h59v-722h451v-58h-510zM305 -292l-21 24c21 20 69 65 83 118c-22 -4 -44 16 -44 41c0 24 20 44 44 44s47 -19 47 -51c0 -72 -69 -141 -109 -176z" />
    <glyph glyph-name="ldot" unicode="&#x140;" horiz-adv-x="855" 
d="M112 0v780h59v-722h451v-58h-510zM350 418c0 25 21 46 46 46s45 -21 45 -46s-20 -45 -45 -45s-46 20 -46 45z" />
    <glyph glyph-name="lslash" unicode="&#x142;" horiz-adv-x="855" 
d="M112 780h59v-356l244 111v-62l-244 -111v-304h452v-58h-511v335l-78 -35v62l78 35v383z" />
    <glyph glyph-name="eng" unicode="&#x14b;" horiz-adv-x="1074" 
d="M170 0h-59v780h53l540 -679v679h59v-819c0 -180 -127 -275 -264 -275c-132 0 -209 88 -234 172l56 19c20 -66 79 -133 180 -133c103 0 203 69 203 217v46l-534 671v-678z" />
    <glyph glyph-name="nacute" unicode="&#x144;" horiz-adv-x="1075" 
d="M171 0h-59v780h53l540 -679v679h59v-780h-53l-540 678v-678zM324 844l-23 40l246 149l29 -51z" />
    <glyph glyph-name="ncaron" unicode="&#x148;" horiz-adv-x="1075" 
d="M171 0h-59v780h53l540 -679v679h59v-780h-53l-540 678v-678zM582 1027l30 -37l-175 -129l-173 129l30 37l143 -104z" />
    <glyph glyph-name="ncommaaccent" unicode="&#x146;" horiz-adv-x="1075" 
d="M171 0h-59v780h53l540 -679v679h59v-780h-53l-540 678v-678zM376 -292l-21 24c21 20 69 65 83 118c-22 -4 -44 16 -44 41c0 24 20 44 44 44s47 -19 47 -51c0 -72 -69 -141 -109 -176z" />
    <glyph glyph-name="ntilde" unicode="&#xf1;" horiz-adv-x="1075" 
d="M171 0h-59v780h53l540 -679v679h59v-780h-53l-540 678v-678zM292 863h-45c0 60 26 141 106 141c34 0 58 -13 102 -55c24 -24 45 -44 71 -44c37 0 57 40 56 90h46c0 -59 -23 -141 -102 -141c-35 0 -55 15 -99 55c-28 25 -48 44 -74 44c-39 0 -61 -40 -61 -90z" />
    <glyph glyph-name="oacute" unicode="&#xf3;" horiz-adv-x="1125" 
d="M56 390c0 223 182 405 407 405c224 0 406 -182 406 -405c0 -224 -182 -405 -406 -405c-225 0 -407 181 -407 405zM116 390c0 -191 156 -346 347 -346c190 0 346 155 346 346c0 190 -156 346 -346 346c-191 0 -347 -156 -347 -346zM348 844l-23 40l246 149l29 -51z" />
    <glyph glyph-name="obreve" unicode="&#x14f;" horiz-adv-x="1125" 
d="M56 390c0 223 182 405 407 405c224 0 406 -182 406 -405c0 -224 -182 -405 -406 -405c-225 0 -407 181 -407 405zM116 390c0 -191 156 -346 347 -346c190 0 346 155 346 346c0 190 -156 346 -346 346c-191 0 -347 -156 -347 -346zM286 980l41 23c29 -58 78 -91 135 -91
c58 0 107 33 136 91l41 -23c-32 -67 -95 -119 -177 -119s-144 52 -176 119z" />
    <glyph glyph-name="ocircumflex" unicode="&#xf4;" horiz-adv-x="1125" 
d="M56 390c0 223 182 405 407 405c224 0 406 -182 406 -405c0 -224 -182 -405 -406 -405c-225 0 -407 181 -407 405zM116 390c0 -191 156 -346 347 -346c190 0 346 155 346 346c0 190 -156 346 -346 346c-191 0 -347 -156 -347 -346zM637 898l-30 -37l-145 104l-143 -104
l-30 37l173 129z" />
    <glyph glyph-name="odieresis" unicode="&#xf6;" horiz-adv-x="1125" 
d="M56 390c0 223 182 405 407 405c224 0 406 -182 406 -405c0 -224 -182 -405 -406 -405c-225 0 -407 181 -407 405zM116 390c0 -191 156 -346 347 -346c190 0 346 155 346 346c0 190 -156 346 -346 346c-191 0 -347 -156 -347 -346zM308 923c0 25 21 46 46 46
s45 -21 45 -46s-20 -45 -45 -45s-46 20 -46 45zM526 923c0 25 21 46 46 46s46 -21 46 -46s-21 -45 -46 -45s-46 20 -46 45z" />
    <glyph glyph-name="ograve" unicode="&#xf2;" horiz-adv-x="1125" 
d="M56 390c0 223 182 405 407 405c224 0 406 -182 406 -405c0 -224 -182 -405 -406 -405c-225 0 -407 181 -407 405zM116 390c0 -191 156 -346 347 -346c190 0 346 155 346 346c0 190 -156 346 -346 346c-191 0 -347 -156 -347 -346zM600 884l-23 -40l-252 138l29 51z" />
    <glyph glyph-name="ohungarumlaut" unicode="&#x151;" horiz-adv-x="1125" 
d="M56 390c0 223 182 405 407 405c224 0 406 -182 406 -405c0 -224 -182 -405 -406 -405c-225 0 -407 181 -407 405zM116 390c0 -191 156 -346 347 -346c190 0 346 155 346 346c0 190 -156 346 -346 346c-191 0 -347 -156 -347 -346zM330 870l-33 33l168 176l41 -41z
M553 870l-32 33l167 176l41 -41z" />
    <glyph glyph-name="omacron" unicode="&#x14d;" horiz-adv-x="1125" 
d="M56 390c0 223 182 405 407 405c224 0 406 -182 406 -405c0 -224 -182 -405 -406 -405c-225 0 -407 181 -407 405zM116 390c0 -191 156 -346 347 -346c190 0 346 155 346 346c0 190 -156 346 -346 346c-191 0 -347 -156 -347 -346zM627 927v-49h-327v49h327z" />
    <glyph glyph-name="oslashacute" unicode="&#x1ff;" horiz-adv-x="1125" 
d="M348 844l-23 40l246 149l29 -51zM56 390c0 223 182 405 407 405c97 0 187 -35 257 -93l72 78h61l-100 -108c72 -73 116 -173 116 -282c0 -224 -183 -405 -406 -405c-98 0 -188 34 -259 92l-71 -77h-61l99 107c-71 73 -115 173 -115 283zM809 390c0 92 -37 176 -96 238
l-468 -507c59 -48 135 -77 218 -77c190 0 346 155 346 346zM116 390c0 -93 36 -177 96 -239l468 508c-60 48 -135 77 -217 77c-191 0 -347 -156 -347 -346z" />
    <glyph glyph-name="otilde" unicode="&#xf5;" horiz-adv-x="1125" 
d="M56 390c0 223 182 405 407 405c224 0 406 -182 406 -405c0 -224 -182 -405 -406 -405c-225 0 -407 181 -407 405zM116 390c0 -191 156 -346 347 -346c190 0 346 155 346 346c0 190 -156 346 -346 346c-191 0 -347 -156 -347 -346zM317 863h-45c0 60 26 141 106 141
c34 0 58 -13 102 -55c24 -24 45 -44 71 -44c37 0 57 40 56 90h46c0 -59 -23 -141 -102 -141c-35 0 -55 15 -99 55c-28 25 -48 44 -74 44c-39 0 -61 -40 -61 -90z" />
    <glyph glyph-name="racute" unicode="&#x155;" horiz-adv-x="994" 
d="M112 780h344c169 0 266 -116 266 -251c0 -110 -64 -207 -178 -241l205 -288h-72l-197 277c-8 -1 -16 -1 -24 -1h-285v-276h-59v780zM454 724h-283v-392h283c136 0 210 92 210 196c0 103 -74 196 -210 196zM316 844l-23 40l246 149l29 -51z" />
    <glyph glyph-name="rcaron" unicode="&#x159;" horiz-adv-x="994" 
d="M112 780h344c169 0 266 -116 266 -251c0 -110 -64 -207 -178 -241l205 -288h-72l-197 277c-8 -1 -16 -1 -24 -1h-285v-276h-59v780zM454 724h-283v-392h283c136 0 210 92 210 196c0 103 -74 196 -210 196zM574 1027l30 -37l-175 -129l-173 129l30 37l143 -104z" />
    <glyph glyph-name="rcommaaccent" unicode="&#x157;" horiz-adv-x="994" 
d="M112 780h344c169 0 266 -116 266 -251c0 -110 -64 -207 -178 -241l205 -288h-72l-197 277c-8 -1 -16 -1 -24 -1h-285v-276h-59v780zM454 724h-283v-392h283c136 0 210 92 210 196c0 103 -74 196 -210 196zM367 -292l-21 24c21 20 69 65 83 118c-22 -4 -44 16 -44 41
c0 24 20 44 44 44s47 -19 47 -51c0 -72 -69 -141 -109 -176z" />
    <glyph glyph-name="sacute" unicode="&#x15b;" horiz-adv-x="904" 
d="M59 195h58v-4c0 -87 94 -151 245 -151c145 0 223 61 223 145c0 102 -110 138 -242 178c-127 39 -278 87 -278 228c0 122 108 204 277 204c172 0 292 -85 292 -202v-9h-58v5c0 87 -89 151 -234 151c-139 0 -215 -61 -215 -145c0 -100 106 -135 233 -175
c125 -38 288 -86 288 -232c0 -123 -113 -203 -286 -203c-178 0 -303 84 -303 202v8zM227 844l-23 40l246 149l29 -51z" />
    <glyph glyph-name="scaron" unicode="&#x161;" horiz-adv-x="904" 
d="M59 195h58v-4c0 -87 94 -151 245 -151c145 0 223 61 223 145c0 102 -110 138 -242 178c-127 39 -278 87 -278 228c0 122 108 204 277 204c172 0 292 -85 292 -202v-9h-58v5c0 87 -89 151 -234 151c-139 0 -215 -61 -215 -145c0 -100 106 -135 233 -175
c125 -38 288 -86 288 -232c0 -123 -113 -203 -286 -203c-178 0 -303 84 -303 202v8zM486 1027l30 -37l-175 -129l-173 129l30 37l143 -104z" />
    <glyph glyph-name="scedilla" unicode="&#x15f;" horiz-adv-x="905" 
d="M59 195h58v-4c0 -87 94 -151 245 -151c145 0 223 61 223 145c0 102 -110 138 -242 178c-127 39 -278 87 -278 228c0 122 108 204 277 204c172 0 292 -85 292 -202v-9h-58v5c0 87 -89 151 -234 151c-139 0 -215 -61 -215 -145c0 -100 106 -135 233 -175
c125 -38 288 -86 288 -232c0 -119 -105 -196 -267 -202l-19 -58c89 -4 127 -56 127 -103c0 -52 -44 -102 -120 -102c-62 0 -125 32 -125 32l20 41c18 -9 59 -28 103 -28c55 0 81 31 81 62c0 33 -29 70 -112 63l-19 21l26 71c-168 6 -284 88 -284 202v8z" />
    <glyph glyph-name="scircumflex" unicode="&#x15d;" horiz-adv-x="904" 
d="M59 195h58v-4c0 -87 94 -151 245 -151c145 0 223 61 223 145c0 102 -110 138 -242 178c-127 39 -278 87 -278 228c0 122 108 204 277 204c172 0 292 -85 292 -202v-9h-58v5c0 87 -89 151 -234 151c-139 0 -215 -61 -215 -145c0 -100 106 -135 233 -175
c125 -38 288 -86 288 -232c0 -123 -113 -203 -286 -203c-178 0 -303 84 -303 202v8zM516 898l-30 -37l-145 104l-143 -104l-30 37l173 129z" />
    <glyph glyph-name="scommaaccent" unicode="&#x219;" horiz-adv-x="904" 
d="M59 195h58v-4c0 -87 94 -151 245 -151c145 0 223 61 223 145c0 102 -110 138 -242 178c-127 39 -278 87 -278 228c0 122 108 204 277 204c172 0 292 -85 292 -202v-9h-58v5c0 87 -89 151 -234 151c-139 0 -215 -61 -215 -145c0 -100 106 -135 233 -175
c125 -38 288 -86 288 -232c0 -123 -113 -203 -286 -203c-178 0 -303 84 -303 202v8zM300 -292l-21 24c21 20 69 65 83 118c-22 -4 -44 16 -44 41c0 24 20 44 44 44s47 -19 47 -51c0 -72 -69 -141 -109 -176z" />
    <glyph glyph-name="tbar" unicode="&#x167;" horiz-adv-x="884" 
d="M31 722v58h622v-58h-281v-307h140v-48h-140v-367h-60v367h-141v48h141v307h-281z" />
    <glyph glyph-name="tcaron" unicode="&#x165;" horiz-adv-x="876" 
d="M27 722v58h622v-58h-282v-722h-59v722h-281zM482 1027l30 -37l-175 -129l-173 129l30 37l143 -104z" />
    <glyph glyph-name="tcommaaccent" unicode="&#x163;" horiz-adv-x="876" 
d="M27 722v58h622v-58h-282v-722h-59v722h-281zM275 -292l-21 24c21 20 69 65 83 118c-22 -4 -44 16 -44 41c0 24 20 44 44 44s47 -19 47 -51c0 -72 -69 -141 -109 -176z" />
    <glyph glyph-name="uacute" unicode="&#xfa;" 
d="M696 780h59v-485c0 -175 -114 -310 -327 -310s-327 135 -327 310v485h59v-483c0 -147 94 -254 268 -254c175 0 268 107 268 254v483zM313 844l-23 40l246 149l29 -51z" />
    <glyph glyph-name="ubreve" unicode="&#x16d;" 
d="M696 780h59v-485c0 -175 -114 -310 -327 -310s-327 135 -327 310v485h59v-483c0 -147 94 -254 268 -254c175 0 268 107 268 254v483zM251 980l41 23c29 -58 78 -91 135 -91c58 0 107 33 136 91l41 -23c-32 -67 -95 -119 -177 -119s-144 52 -176 119z" />
    <glyph glyph-name="ucircumflex" unicode="&#xfb;" 
d="M696 780h59v-485c0 -175 -114 -310 -327 -310s-327 135 -327 310v485h59v-483c0 -147 94 -254 268 -254c175 0 268 107 268 254v483zM602 898l-30 -37l-145 104l-143 -104l-30 37l173 129z" />
    <glyph glyph-name="udieresis" unicode="&#xfc;" 
d="M696 780h59v-485c0 -175 -114 -310 -327 -310s-327 135 -327 310v485h59v-483c0 -147 94 -254 268 -254c175 0 268 107 268 254v483zM273 923c0 25 21 46 46 46s45 -21 45 -46s-20 -45 -45 -45s-46 20 -46 45zM491 923c0 25 21 46 46 46s46 -21 46 -46s-21 -45 -46 -45
s-46 20 -46 45z" />
    <glyph glyph-name="ugrave" unicode="&#xf9;" 
d="M696 780h59v-485c0 -175 -114 -310 -327 -310s-327 135 -327 310v485h59v-483c0 -147 94 -254 268 -254c175 0 268 107 268 254v483zM565 884l-23 -40l-252 138l29 51z" />
    <glyph glyph-name="uhungarumlaut" unicode="&#x171;" 
d="M696 780h59v-485c0 -175 -114 -310 -327 -310s-327 135 -327 310v485h59v-483c0 -147 94 -254 268 -254c175 0 268 107 268 254v483zM294 870l-33 33l168 176l41 -41zM517 870l-32 33l167 176l41 -41z" />
    <glyph glyph-name="umacron" unicode="&#x16b;" 
d="M696 780h59v-485c0 -175 -114 -310 -327 -310s-327 135 -327 310v485h59v-483c0 -147 94 -254 268 -254c175 0 268 107 268 254v483zM592 927v-49h-327v49h327z" />
    <glyph glyph-name="uogonek" unicode="&#x173;" 
d="M694 780h59v-485c0 -144 -77 -260 -222 -297c-48 -40 -101 -95 -101 -146c0 -44 42 -63 107 -49l8 -47c-91 -19 -160 16 -160 87c0 57 43 106 86 144c-14 -1 -29 -2 -45 -2c-213 0 -327 135 -327 310v485h59v-483c0 -147 94 -254 268 -254c175 0 268 107 268 254v483z
" />
    <glyph glyph-name="uring" unicode="&#x16f;" 
d="M696 780h59v-485c0 -175 -114 -310 -327 -310s-327 135 -327 310v485h59v-483c0 -147 94 -254 268 -254c175 0 268 107 268 254v483zM313 956c0 63 50 114 115 114c63 0 114 -50 114 -114c0 -65 -51 -115 -114 -115c-65 0 -115 50 -115 115zM356 956c0 -40 32 -72 72 -72
c38 0 71 32 71 72c0 38 -33 71 -71 71c-40 0 -72 -33 -72 -71z" />
    <glyph glyph-name="utilde" unicode="&#x169;" 
d="M696 780h59v-485c0 -175 -114 -310 -327 -310s-327 135 -327 310v485h59v-483c0 -147 94 -254 268 -254c175 0 268 107 268 254v483zM282 863h-45c0 60 26 141 106 141c34 0 58 -13 102 -55c24 -24 45 -44 71 -44c37 0 57 40 56 90h46c0 -59 -23 -141 -102 -141
c-35 0 -55 15 -99 55c-28 25 -48 44 -74 44c-39 0 -61 -40 -61 -90z" />
    <glyph glyph-name="wacute" unicode="&#x1e83;" horiz-adv-x="1333" 
d="M340 0h-65l-251 780h64l220 -692l229 692h58l229 -692l221 692h64l-251 -780h-65l-227 685zM452 844l-23 40l246 149l29 -51z" />
    <glyph glyph-name="wcircumflex" unicode="&#x175;" horiz-adv-x="1333" 
d="M340 0h-65l-251 780h64l220 -692l229 692h58l229 -692l221 692h64l-251 -780h-65l-227 685zM741 898l-30 -37l-145 104l-143 -104l-30 37l173 129z" />
    <glyph glyph-name="wdieresis" unicode="&#x1e85;" horiz-adv-x="1333" 
d="M340 0h-65l-251 780h64l220 -692l229 692h58l229 -692l221 692h64l-251 -780h-65l-227 685zM412 923c0 25 21 46 46 46s45 -21 45 -46s-20 -45 -45 -45s-46 20 -46 45zM630 923c0 25 21 46 46 46s46 -21 46 -46s-21 -45 -46 -45s-46 20 -46 45z" />
    <glyph glyph-name="wgrave" unicode="&#x1e81;" horiz-adv-x="1333" 
d="M340 0h-65l-251 780h64l220 -692l229 692h58l229 -692l221 692h64l-251 -780h-65l-227 685zM704 884l-23 -40l-252 138l29 51z" />
    <glyph glyph-name="yacute" unicode="&#xfd;" horiz-adv-x="933" 
d="M253 844l-23 40l246 149l29 -51zM83 780l283 -433l284 433h69l-323 -494v-286h-59v285l-323 495h69z" />
    <glyph glyph-name="ydieresis" unicode="&#xff;" horiz-adv-x="933" 
d="M212 923c0 25 21 46 46 46s45 -21 45 -46s-20 -45 -45 -45s-46 20 -46 45zM430 923c0 25 21 46 46 46s46 -21 46 -46s-21 -45 -46 -45s-46 20 -46 45zM83 780l283 -433l284 433h69l-323 -494v-286h-59v285l-323 495h69z" />
    <glyph glyph-name="ygrave" unicode="&#x1ef3;" horiz-adv-x="933" 
d="M506 884l-23 -40l-252 138l29 51zM83 780l283 -433l284 433h69l-323 -494v-286h-59v285l-323 495h69z" />
    <glyph glyph-name="zacute" unicode="&#x17a;" horiz-adv-x="820" 
d="M50 722v58h530v-45l-467 -677h465v-58h-545v45l466 677h-449zM192 844l-23 40l246 149l29 -51z" />
    <glyph glyph-name="zcaron" unicode="&#x17e;" horiz-adv-x="820" 
d="M50 722v58h530v-45l-467 -677h465v-58h-545v45l466 677h-449zM451 1027l30 -37l-175 -129l-173 129l30 37l143 -104z" />
    <glyph glyph-name="zdotaccent" unicode="&#x17c;" horiz-adv-x="820" 
d="M50 722v58h530v-45l-467 -677h465v-58h-545v45l466 677h-449zM261 913c0 25 21 46 46 46s45 -21 45 -46s-20 -45 -45 -45s-46 20 -46 45z" />
    <glyph glyph-name="onequarter" unicode="&#xbc;" horiz-adv-x="1146" 
d="M43 692v50l116 38h32v-507h-47v452zM830 0h-46v106h-288v35l216 366h52l-210 -357h230v136h46v-136h75v-44h-75v-106zM227 0h-53l462 780h53z" />
    <glyph glyph-name="onehalf" unicode="&#xbd;" horiz-adv-x="1215" 
d="M42 692v50l116 38h32v-507h-47v452zM956 47v-47h-353v36l209 192c52 47 93 84 93 138c0 65 -53 105 -119 105c-67 0 -129 -35 -129 -118v-9h-47v9c0 115 91 164 176 164c89 0 166 -57 166 -151c0 -75 -57 -125 -109 -173l-159 -146h272zM226 0h-53l462 780h53z" />
    <glyph glyph-name="threequarters" unicode="&#xbe;" horiz-adv-x="1268" 
d="M952 0h-46v106h-288v35l216 366h52l-210 -357h230v136h46v-136h75v-44h-75v-106zM349 0h-53l462 780h53zM62 312l25 38c52 -30 98 -41 139 -41c80 0 135 44 135 101c0 62 -69 106 -185 106v40c120 0 168 56 168 103c0 52 -49 87 -111 87s-111 -33 -111 -79v-2h-45v6
c0 65 69 119 156 119c82 0 158 -48 158 -126c0 -48 -33 -100 -104 -127c75 -22 122 -68 122 -130c0 -83 -81 -144 -181 -144c-51 0 -108 14 -166 49z" />
    <glyph glyph-name="oslash" unicode="&#xf8;" horiz-adv-x="1125" 
d="M56 390c0 223 182 405 407 405c97 0 187 -35 257 -93l72 78h61l-100 -108c72 -73 116 -173 116 -282c0 -224 -183 -405 -406 -405c-98 0 -188 34 -259 92l-71 -77h-61l99 107c-71 73 -115 173 -115 283zM116 390c0 -93 36 -177 96 -239l468 508c-60 48 -135 77 -217 77
c-191 0 -347 -156 -347 -346zM809 390c0 92 -37 176 -96 238l-468 -507c59 -48 135 -77 218 -77c190 0 346 155 346 346z" />
    <glyph glyph-name="Oslash" unicode="&#xd8;" horiz-adv-x="1125" 
d="M56 390c0 223 182 405 407 405c97 0 187 -35 257 -93l72 78h61l-100 -108c72 -73 116 -173 116 -282c0 -224 -183 -405 -406 -405c-98 0 -188 34 -259 92l-71 -77h-61l99 107c-71 73 -115 173 -115 283zM116 390c0 -93 36 -177 96 -239l468 508c-60 48 -135 77 -217 77
c-191 0 -347 -156 -347 -346zM809 390c0 92 -37 176 -96 238l-468 -507c59 -48 135 -77 218 -77c190 0 346 155 346 346z" />
    <glyph glyph-name="fraction.alt" unicode="&#xe999;" horiz-adv-x="733" 
d="M62 0h-53l462 780h53z" />
    <glyph glyph-name="quotedbl" unicode="&#x22;" horiz-adv-x="648" 
d="M138 463h-46l-6 317h58zM354 463h-46l-6 317h58z" />
    <glyph glyph-name="uni00A0" unicode="&#xa0;" horiz-adv-x="546" 
 />
    <glyph glyph-name="ampersand.alt" unicode="&#xe001;" horiz-adv-x="1154" 
d="M352 439c0 -24 -20 -37 -47 -37c-34 0 -63 20 -91 51c-62 -12 -108 -78 -108 -159c0 -121 101 -259 301 -259c184 0 305 118 305 276c0 78 -30 127 -66 164c-85 -7 -184 -21 -184 -96c0 -40 29 -61 55 -61c7 0 14 2 20 5c-9 4 -31 14 -29 46c2 29 24 48 51 48
c30 0 57 -24 57 -62c0 -45 -39 -79 -91 -79c-54 0 -107 37 -107 111c0 111 126 132 227 142c171 19 250 48 250 133c0 59 -43 86 -83 86c-24 0 -47 -10 -60 -30c29 0 45 -22 45 -46c0 -27 -20 -51 -52 -51c-37 0 -60 32 -60 63c0 39 36 99 117 99c71 0 136 -44 136 -130
c0 -123 -114 -160 -247 -174c25 -28 68 -93 68 -195c0 -204 -181 -310 -355 -310c-198 0 -355 137 -355 315c0 114 64 176 139 203c-29 47 -39 85 -39 122c0 107 84 179 183 179c89 0 165 -57 165 -141c0 -54 -32 -83 -70 -83c-37 0 -54 27 -54 50c0 33 34 64 74 37
c1 5 2 9 2 14c0 35 -35 77 -104 77c-81 0 -143 -58 -143 -144c0 -41 14 -76 39 -107h22c40 0 89 -19 89 -57z" />
    </font>
</defs>
</svg>
