<?xml version="1.0" standalone="no"?>
<!DOCTYPE svg PUBLIC "-//W3C//DTD SVG 1.1//EN" "http://www.w3.org/Graphics/SVG/1.1/DTD/svg11.dtd" >
<svg xmlns="http://www.w3.org/2000/svg" xmlns:xlink="http://www.w3.org/1999/xlink" version="1.1">
<metadata>
Created by FontForge 20170910 at Fri Jul  8 23:14:54 2016
 By Jimmy Wärting
Copyright \(c\) 2016 by Radomir Tinkov. All rights reserved.
</metadata>
<defs>
<font id="Gilroy-SemiBold" horiz-adv-x="630" >
  <font-face 
    font-family="Gilroy SemiBold"
    font-weight="600"
    font-stretch="normal"
    units-per-em="1000"
    panose-1="0 0 7 0 0 0 0 0 0 0"
    ascent="800"
    descent="-200"
    x-height="500"
    cap-height="700"
    bbox="-382 -255 1064 970"
    underline-thickness="50"
    underline-position="-100"
    unicode-range="U+0020-FB02"
  />
<missing-glyph horiz-adv-x="500" 
d="M410 800v-1000h-317v1000h317zM333 733h-165v-33h65v-37h-66v-33h166v33h-66v37h66v33zM267 604h-100v-104h166v34h-66v70zM233 570v-36h-33v36h33zM333 473h-166v-33h66v-37h-66v-33h100v70h66v33zM333 413h-33v-66h-133v-34h166v100zM333 291h-100v-56h34v23h33v-47
h-100v80h-33v-113h166v113zM333 118h-166v-113h166v113zM300 85v-47h-100v47h100zM333 -18h-166v-33h70l-70 -47v-33h166v33h-102l70 47h32v33z" />
    <glyph glyph-name="f_f" unicode="ff" horiz-adv-x="600" 
d="M600 619c-76 7 -118 -22 -118 -99v-20h118v-104h-118v-396h-108v396h-167v-396h-108v396h-76v104h76v10c0 135 76 213 226 203v-104c-76 7 -118 -22 -118 -99v-10h167v20c0 135 76 213 226 203v-104z" />
    <glyph glyph-name="f_f_i" unicode="ffi" horiz-adv-x="818" 
d="M756 500v-500h-108v396h-166v-396h-108v396h-167v-396h-108v396h-76v104h76v10c0 135 76 213 226 203v-104c-76 7 -118 -22 -118 -99v-10h167v20c0 135 76 203 226 203c36 0 71 -4 111 -13v-99c-40 6 -76 8 -111 8c-76 0 -118 -22 -118 -99v-20h274z" />
    <glyph glyph-name="f_f_l" unicode="ffl" horiz-adv-x="818" 
d="M600 723c56 0 104 -7 156 -18v-705h-108v627c-16 1 -32 1 -48 1c-76 0 -118 -31 -118 -108v-20h93v-104h-93v-396h-108v396h-167v-396h-108v396h-76v104h76v10c0 135 76 213 226 203v-104c-76 7 -118 -22 -118 -99v-10h167v20c0 135 76 203 226 203z" />
    <glyph glyph-name="fi" unicode="fi" horiz-adv-x="543" 
d="M481 500v-500h-108v396h-166v-396h-108v396h-76v104h76v10c0 135 76 203 226 203c36 0 71 -4 111 -13v-99c-40 6 -76 8 -111 8c-76 0 -118 -22 -118 -99v-10h274z" />
    <glyph glyph-name="fl" unicode="fl" horiz-adv-x="543" 
d="M325 713c56 0 104 -7 156 -18v-695h-108v617c-16 1 -32 1 -48 1c-76 0 -118 -31 -118 -108v-10h93v-104h-93v-396h-108v396h-76v104h76v10c0 135 76 203 226 203z" />
    <glyph glyph-name=".notdef" horiz-adv-x="500" 
d="M410 800v-1000h-317v1000h317zM333 733h-165v-33h65v-37h-66v-33h166v33h-66v37h66v33zM267 604h-100v-104h166v34h-66v70zM233 570v-36h-33v36h33zM333 473h-166v-33h66v-37h-66v-33h100v70h66v33zM333 413h-33v-66h-133v-34h166v100zM333 291h-100v-56h34v23h33v-47
h-100v80h-33v-113h166v113zM333 118h-166v-113h166v113zM300 85v-47h-100v47h100zM333 -18h-166v-33h70l-70 -47v-33h166v33h-102l70 47h32v33z" />
    <glyph glyph-name="A" unicode="A" horiz-adv-x="655" 
d="M526 0l-49 141h-298l-49 -141h-125l254 700h138l253 -700h-124zM217 249h222l-111 316z" />
    <glyph glyph-name="Aacute" unicode="&#xc1;" horiz-adv-x="655" 
d="M468 900l-106 -135h-104l80 135h130zM526 0l-49 141h-298l-49 -141h-125l254 700h138l253 -700h-124zM217 249h222l-111 316z" />
    <glyph glyph-name="Abreve" unicode="&#x102;" horiz-adv-x="655" 
d="M328 752c-99 0 -158 51 -158 140h98c0 -40 21 -59 60 -59c38 0 59 19 59 59h98c0 -89 -58 -140 -157 -140zM526 0l-49 141h-298l-49 -141h-125l254 700h138l253 -700h-124zM217 249h222l-111 316z" />
    <glyph glyph-name="Acircumflex" unicode="&#xc2;" horiz-adv-x="655" 
d="M326 834l-53 -74h-110l106 140h113l106 -140h-110zM526 0l-49 141h-298l-49 -141h-125l254 700h138l253 -700h-124zM217 249h222l-111 316z" />
    <glyph glyph-name="Adieresis" unicode="&#xc4;" horiz-adv-x="655" 
d="M233 758c-33 0 -60 27 -60 60s27 60 60 60s60 -27 60 -60s-27 -60 -60 -60zM423 758c-33 0 -60 27 -60 60s27 60 60 60s60 -27 60 -60s-27 -60 -60 -60zM526 0l-49 141h-298l-49 -141h-125l254 700h138l253 -700h-124zM217 249h222l-111 316z" />
    <glyph glyph-name="Agrave" unicode="&#xc0;" horiz-adv-x="655" 
d="M403 765h-104l-106 135h130zM526 0l-49 141h-298l-49 -141h-125l254 700h138l253 -700h-124zM217 249h222l-111 316z" />
    <glyph glyph-name="Amacron" unicode="&#x100;" horiz-adv-x="655" 
d="M468 859v-89h-280v89h280zM526 0l-49 141h-298l-49 -141h-125l254 700h138l253 -700h-124zM217 249h222l-111 316z" />
    <glyph glyph-name="Aogonek" unicode="&#x104;" horiz-adv-x="655" 
d="M618 -133c10 -1 21 2 32 6v-72c-22 -9 -44 -14 -73 -14c-55 0 -91 30 -91 83c0 39 25 87 68 130h-28l-49 141h-298l-49 -141h-125l254 700h138l253 -700c-37 -37 -60 -78 -60 -105c-1 -19 10 -28 28 -28zM217 249h222l-111 316z" />
    <glyph glyph-name="Aring" unicode="&#xc5;" horiz-adv-x="655" 
d="M526 0l-49 141h-298l-49 -141h-125l246 677c-27 20 -43 51 -43 88c0 64 49 113 119 113c72 0 120 -49 120 -113c0 -36 -15 -67 -42 -88l245 -677h-124zM327 807c-28 0 -43 -18 -43 -42c0 -23 15 -41 43 -41c29 0 44 18 44 41c0 24 -15 42 -44 42zM217 249h222l-111 316z
" />
    <glyph glyph-name="Atilde" unicode="&#xc3;" horiz-adv-x="655" 
d="M320 790c-44 31 -63 36 -63 -23h-89c0 147 89 164 169 110c43 -31 62 -36 62 23h89c0 -147 -88 -164 -168 -110zM526 0l-49 141h-298l-49 -141h-125l254 700h138l253 -700h-124zM217 249h222l-111 316z" />
    <glyph glyph-name="AE" unicode="&#xc6;" horiz-adv-x="880" 
d="M563 110h282v-110h-395v141h-236l-84 -141h-130l419 700h421v-110h-277v-182h257v-109h-257v-189zM278 249h172v288z" />
    <glyph glyph-name="B" unicode="B" horiz-adv-x="610" 
d="M482 363c59 -31 98 -88 98 -163c0 -116 -94 -200 -210 -200h-300v700h278c113 0 205 -82 205 -194c0 -61 -27 -111 -71 -143zM348 592h-163v-184h163c51 0 90 40 90 92s-39 92 -90 92zM370 108c54 0 95 43 95 98s-41 98 -95 98h-185v-196h185z" />
    <glyph glyph-name="C" unicode="C" horiz-adv-x="732" 
d="M401 -13c-213 0 -366 160 -366 363s153 363 366 363c128 0 242 -65 301 -167l-100 -58c-37 69 -113 113 -201 113c-151 0 -251 -107 -251 -251s100 -251 251 -251c88 0 165 44 201 113l100 -57c-58 -102 -172 -168 -301 -168z" />
    <glyph glyph-name="Cacute" unicode="&#x106;" horiz-adv-x="732" 
d="M331 770h104l106 135h-130zM401 -13c-213 0 -366 160 -366 363s153 363 366 363c128 0 242 -65 301 -167l-100 -58c-37 69 -113 113 -201 113c-151 0 -251 -107 -251 -251s100 -251 251 -251c88 0 165 44 201 113l100 -57c-58 -102 -172 -168 -301 -168z" />
    <glyph glyph-name="Ccaron" unicode="&#x10c;" horiz-adv-x="732" 
d="M342 765l-106 140h110l53 -73l52 73h110l-106 -140h-113zM401 99c88 0 165 44 201 113l100 -57c-58 -102 -172 -168 -301 -168c-213 0 -366 160 -366 363s153 363 366 363c128 0 242 -65 301 -167l-100 -58c-37 69 -113 113 -201 113c-151 0 -251 -107 -251 -251
s100 -251 251 -251z" />
    <glyph glyph-name="Ccedilla" unicode="&#xc7;" horiz-adv-x="732" 
d="M401 99c88 0 165 44 201 113l100 -57c-51 -90 -145 -152 -255 -165v-36c42 -8 78 -34 78 -79c0 -56 -47 -101 -215 -91v79c82 -7 121 4 121 25c0 20 -28 28 -73 30v71c-190 20 -323 172 -323 361c0 203 153 363 366 363c128 0 242 -65 301 -167l-100 -58
c-37 69 -113 113 -201 113c-151 0 -251 -107 -251 -251s100 -251 251 -251z" />
    <glyph glyph-name="Cdotaccent" unicode="&#x10a;" horiz-adv-x="732" 
d="M401 763c-38 0 -70 31 -70 70c0 38 32 70 70 70c39 0 70 -32 70 -70c0 -39 -31 -70 -70 -70zM401 -13c-213 0 -366 160 -366 363s153 363 366 363c128 0 242 -65 301 -167l-100 -58c-37 69 -113 113 -201 113c-151 0 -251 -107 -251 -251s100 -251 251 -251
c88 0 165 44 201 113l100 -57c-58 -102 -172 -168 -301 -168z" />
    <glyph glyph-name="D" unicode="D" horiz-adv-x="715" 
d="M345 700c193 0 335 -154 335 -350c0 -195 -142 -350 -335 -350h-275v700h275zM345 110c133 0 224 102 224 240c0 139 -91 240 -224 240h-160v-480h160z" />
    <glyph glyph-name="Eth" unicode="&#xd0;" horiz-adv-x="745" 
d="M375 700c193 0 335 -154 335 -350c0 -195 -142 -350 -335 -350h-275v293h-75v104h75v303h275zM375 110c133 0 224 102 224 240c0 139 -91 240 -224 240h-160v-193h180v-104h-180v-183h160z" />
    <glyph glyph-name="Dcaron" unicode="&#x10e;" horiz-adv-x="715" 
d="M281 760l-106 140h110l53 -73l52 73h110l-106 -140h-113zM345 700c193 0 335 -154 335 -350c0 -195 -142 -350 -335 -350h-275v700h275zM345 110c133 0 224 102 224 240c0 139 -91 240 -224 240h-160v-480h160z" />
    <glyph glyph-name="Dcroat" unicode="&#x110;" horiz-adv-x="745" 
d="M375 700c193 0 335 -154 335 -350c0 -195 -142 -350 -335 -350h-275v293h-75v104h75v303h275zM375 110c133 0 224 102 224 240c0 139 -91 240 -224 240h-160v-193h180v-104h-180v-183h160z" />
    <glyph glyph-name="E" unicode="E" horiz-adv-x="530" 
d="M185 110h310v-110h-425v700h420v-110h-305v-182h280v-109h-280v-189z" />
    <glyph glyph-name="Eacute" unicode="&#xc9;" horiz-adv-x="530" 
d="M421 900l-106 -135h-104l80 135h130zM185 110h310v-110h-425v700h420v-110h-305v-182h280v-109h-280v-189z" />
    <glyph glyph-name="Ecaron" unicode="&#x11a;" horiz-adv-x="530" 
d="M222 760l-106 140h110l53 -73l52 73h110l-106 -140h-113zM185 110h310v-110h-425v700h420v-110h-305v-182h280v-109h-280v-189z" />
    <glyph glyph-name="Ecircumflex" unicode="&#xca;" horiz-adv-x="530" 
d="M279 834l-53 -74h-110l106 140h113l106 -140h-110zM185 110h310v-110h-425v700h420v-110h-305v-182h280v-109h-280v-189z" />
    <glyph glyph-name="Edieresis" unicode="&#xcb;" horiz-adv-x="530" 
d="M186 758c-33 0 -60 27 -60 60s27 60 60 60s60 -27 60 -60s-27 -60 -60 -60zM376 758c-33 0 -60 27 -60 60s27 60 60 60s60 -27 60 -60s-27 -60 -60 -60zM185 110h310v-110h-425v700h420v-110h-305v-182h280v-109h-280v-189z" />
    <glyph glyph-name="Edotaccent" unicode="&#x116;" horiz-adv-x="530" 
d="M281 758c-38 0 -70 31 -70 70c0 38 32 70 70 70c39 0 70 -32 70 -70c0 -39 -31 -70 -70 -70zM185 110h310v-110h-425v700h420v-110h-305v-182h280v-109h-280v-189z" />
    <glyph glyph-name="Egrave" unicode="&#xc8;" horiz-adv-x="530" 
d="M356 765h-104l-106 135h130zM185 110h310v-110h-425v700h420v-110h-305v-182h280v-109h-280v-189z" />
    <glyph glyph-name="Emacron" unicode="&#x112;" horiz-adv-x="530" 
d="M421 859v-89h-280v89h280zM185 110h310v-110h-425v700h420v-110h-305v-182h280v-109h-280v-189z" />
    <glyph glyph-name="Eogonek" unicode="&#x118;" horiz-adv-x="530" 
d="M495 0c-38 -37 -61 -78 -61 -105c0 -19 10 -28 28 -28c11 -1 21 2 33 6v-72c-22 -9 -44 -14 -74 -14c-54 0 -91 30 -91 83c0 39 26 87 68 130h-328v700h420v-110h-305v-182h280v-109h-280v-189h310v-110z" />
    <glyph glyph-name="F" unicode="F" horiz-adv-x="518" 
d="M480 590h-295v-196h285v-110h-285v-284h-115v700h410v-110z" />
    <glyph glyph-name="G" unicode="G" horiz-adv-x="786" 
d="M751 362v-48c0 -191 -138 -327 -343 -327c-218 0 -373 162 -373 363s157 363 367 363c133 0 246 -67 305 -166l-99 -57c-36 65 -114 111 -206 111c-148 0 -252 -109 -252 -252c0 -141 102 -250 259 -250c127 0 205 66 226 160h-234v103h350z" />
    <glyph glyph-name="Gbreve" unicode="&#x11e;" horiz-adv-x="786" 
d="M396 757c-99 0 -158 51 -158 140h98c0 -40 21 -59 60 -59c38 0 59 19 59 59h98c0 -89 -58 -140 -157 -140zM751 362v-48c0 -191 -138 -327 -343 -327c-218 0 -373 162 -373 363s157 363 367 363c133 0 246 -67 305 -166l-99 -57c-36 65 -114 111 -206 111
c-148 0 -252 -109 -252 -252c0 -141 102 -250 259 -250c127 0 205 66 226 160h-234v103h350z" />
    <glyph glyph-name="Gcommaaccent" unicode="&#x122;" horiz-adv-x="786" 
d="M751 362v-48c0 -191 -138 -327 -343 -327c-218 0 -373 162 -373 363s157 363 367 363c133 0 246 -67 305 -166l-99 -57c-36 65 -114 111 -206 111c-148 0 -252 -109 -252 -252c0 -141 102 -250 259 -250c127 0 205 66 226 160h-234v103h350zM356 -255l10 190h103
l-30 -190h-83z" />
    <glyph glyph-name="Gdotaccent" unicode="&#x120;" horiz-adv-x="786" 
d="M396 763c-38 0 -70 31 -70 70c0 38 32 70 70 70c39 0 70 -32 70 -70c0 -39 -31 -70 -70 -70zM751 362v-48c0 -191 -138 -327 -343 -327c-218 0 -373 162 -373 363s157 363 367 363c133 0 246 -67 305 -166l-99 -57c-36 65 -114 111 -206 111c-148 0 -252 -109 -252 -252
c0 -141 102 -250 259 -250c127 0 205 66 226 160h-234v103h350z" />
    <glyph glyph-name="H" unicode="H" horiz-adv-x="670" 
d="M485 700h115v-700h-115v303h-300v-303h-115v700h115v-287h300v287z" />
    <glyph glyph-name="Hbar" unicode="&#x126;" horiz-adv-x="715" 
d="M685 591v-86h-62v-505h-115v290h-300v-290h-115v505h-63v86h63v109h115v-109h300v109h115v-109h62zM508 400v105h-300v-105h300z" />
    <glyph glyph-name="I" unicode="I" horiz-adv-x="255" 
d="M70 700h115v-700h-115v700z" />
    <glyph glyph-name="Iacute" unicode="&#xcd;" horiz-adv-x="255" 
d="M58 765h104l106 135h-130zM70 700h115v-700h-115v700z" />
    <glyph glyph-name="Icircumflex" unicode="&#xce;" horiz-adv-x="255" 
d="M126 834l-53 -74h-110l106 140h113l106 -140h-110zM70 0v700h115v-700h-115z" />
    <glyph glyph-name="Idieresis" unicode="&#xcf;" horiz-adv-x="255" 
d="M33 758c-33 0 -60 27 -60 60s27 60 60 60s60 -27 60 -60s-27 -60 -60 -60zM223 758c-33 0 -60 27 -60 60s27 60 60 60s60 -27 60 -60s-27 -60 -60 -60zM70 700h115v-700h-115v700z" />
    <glyph glyph-name="Idotaccent" unicode="&#x130;" horiz-adv-x="255" 
d="M128 758c-38 0 -70 31 -70 70c0 38 32 70 70 70c39 0 70 -32 70 -70c0 -39 -31 -70 -70 -70zM70 700h115v-700h-115v700z" />
    <glyph glyph-name="Igrave" unicode="&#xcc;" horiz-adv-x="255" 
d="M203 765l-80 135h-130l106 -135h104zM70 700h115v-700h-115v700z" />
    <glyph glyph-name="Imacron" unicode="&#x12a;" horiz-adv-x="255" 
d="M-12 770v89h280v-89h-280zM70 700h115v-700h-115v700z" />
    <glyph glyph-name="Iogonek" unicode="&#x12e;" horiz-adv-x="255" 
d="M176 -133c10 -1 21 2 32 6v-72c-22 -9 -44 -14 -73 -14c-55 0 -91 30 -91 83c0 40 18 89 43 130h-17v700h115v-700c-23 -39 -37 -73 -37 -105c-1 -19 10 -28 28 -28z" />
    <glyph glyph-name="J" unicode="J" horiz-adv-x="564" 
d="M260 -13c-102 0 -184 43 -225 128l99 58c23 -50 63 -74 127 -74c80 0 125 41 125 113v488h115v-488c0 -149 -107 -225 -241 -225z" />
    <glyph glyph-name="K" unicode="K" horiz-adv-x="603" 
d="M598 0h-137l-276 333v-333h-115v700h115v-314l266 314h137l-283 -341z" />
    <glyph glyph-name="Kcommaaccent" unicode="&#x136;" horiz-adv-x="603" 
d="M305 359l293 -359h-137l-276 333v-333h-115v700h115v-314l266 314h137zM250 -255l10 190h103l-30 -190h-83z" />
    <glyph glyph-name="L" unicode="L" horiz-adv-x="485" 
d="M185 110h285v-110h-400v700h115v-590z" />
    <glyph glyph-name="Lacute" unicode="&#x139;" horiz-adv-x="485" 
d="M282 900l-106 -135h-104l80 135h130zM185 110h285v-110h-400v700h115v-590z" />
    <glyph glyph-name="Lcaron" unicode="&#x13d;" horiz-adv-x="485" 
d="M185 110h285v-110h-400v700h115v-590zM382 700l-30 -180h-88l10 180h108z" />
    <glyph glyph-name="Lcommaaccent" unicode="&#x13b;" horiz-adv-x="485" 
d="M185 110h285v-110h-400v700h115v-590zM221 -255l10 190h103l-30 -190h-83z" />
    <glyph glyph-name="Lslash" unicode="&#x141;" horiz-adv-x="505" 
d="M205 110h285v-110h-400v222l-60 -36v113l60 36v365h115v-297l145 86v-113l-145 -86v-180z" />
    <glyph glyph-name="M" unicode="M" horiz-adv-x="810" 
d="M740 700v-700h-115v499l-213 -352h-14l-213 353v-500h-115v700h124l211 -350l212 350h123z" />
    <glyph glyph-name="N" unicode="N" horiz-adv-x="675" 
d="M490 700h115v-700h-90l-330 475v-475h-115v700h90l330 -475v475z" />
    <glyph glyph-name="Nacute" unicode="&#x143;" horiz-adv-x="675" 
d="M263 765h104l106 135h-130zM490 700h115v-700h-90l-330 475v-475h-115v700h90l330 -475v475z" />
    <glyph glyph-name="Ncaron" unicode="&#x147;" horiz-adv-x="675" 
d="M274 760l-106 140h110l53 -73l52 73h110l-106 -140h-113zM490 700h115v-700h-90l-330 475v-475h-115v700h90l330 -475v475z" />
    <glyph glyph-name="Ncommaaccent" unicode="&#x145;" horiz-adv-x="675" 
d="M490 700h115v-700h-90l-330 475v-475h-115v700h90l330 -475v475zM364 -255l30 190h-103l-10 -190h83z" />
    <glyph glyph-name="Eng" unicode="&#x14a;" horiz-adv-x="675" 
d="M490 700h115v-700c0 -143 -89 -205 -225 -200v106c67 0 110 18 110 99v31l-305 439v-475h-115v700h90l330 -475v475z" />
    <glyph glyph-name="Ntilde" unicode="&#xd1;" horiz-adv-x="675" 
d="M173 767c0 147 89 164 169 110c43 -31 62 -36 62 23h89c0 -147 -88 -164 -168 -110c-44 31 -63 36 -63 -23h-89zM490 700h115v-700h-90l-330 475v-475h-115v700h90l330 -475v475z" />
    <glyph glyph-name="O" unicode="O" horiz-adv-x="796" 
d="M398 -13c-202 0 -363 160 -363 363s161 363 363 363c203 0 363 -160 363 -363s-160 -363 -363 -363zM398 99c140 0 248 107 248 251s-108 251 -248 251s-248 -107 -248 -251s108 -251 248 -251z" />
    <glyph glyph-name="Oacute" unicode="&#xd3;" horiz-adv-x="796" 
d="M328 770h104l106 135h-130zM398 -13c-202 0 -363 160 -363 363s161 363 363 363c203 0 363 -160 363 -363s-160 -363 -363 -363zM398 99c140 0 248 107 248 251s-108 251 -248 251s-248 -107 -248 -251s108 -251 248 -251z" />
    <glyph glyph-name="Ocircumflex" unicode="&#xd4;" horiz-adv-x="796" 
d="M396 839l-53 -74h-110l106 140h113l106 -140h-110zM398 713c203 0 363 -160 363 -363s-160 -363 -363 -363c-202 0 -363 160 -363 363s161 363 363 363zM398 99c140 0 248 107 248 251s-108 251 -248 251s-248 -107 -248 -251s108 -251 248 -251z" />
    <glyph glyph-name="Odieresis" unicode="&#xd6;" horiz-adv-x="796" 
d="M303 763c-33 0 -60 27 -60 60s27 60 60 60s60 -27 60 -60s-27 -60 -60 -60zM493 763c-33 0 -60 27 -60 60s27 60 60 60s60 -27 60 -60s-27 -60 -60 -60zM398 -13c-202 0 -363 160 -363 363s161 363 363 363c203 0 363 -160 363 -363s-160 -363 -363 -363zM398 99
c140 0 248 107 248 251s-108 251 -248 251s-248 -107 -248 -251s108 -251 248 -251z" />
    <glyph glyph-name="Ograve" unicode="&#xd2;" horiz-adv-x="796" 
d="M473 770l-80 135h-130l106 -135h104zM398 -13c-202 0 -363 160 -363 363s161 363 363 363c203 0 363 -160 363 -363s-160 -363 -363 -363zM398 99c140 0 248 107 248 251s-108 251 -248 251s-248 -107 -248 -251s108 -251 248 -251z" />
    <glyph glyph-name="Ohungarumlaut" unicode="&#x150;" horiz-adv-x="796" 
d="M238 765h108l81 135h-114zM401 765h108l91 135h-114zM398 -13c-202 0 -363 160 -363 363s161 363 363 363c203 0 363 -160 363 -363s-160 -363 -363 -363zM398 99c140 0 248 107 248 251s-108 251 -248 251s-248 -107 -248 -251s108 -251 248 -251z" />
    <glyph glyph-name="Omacron" unicode="&#x14c;" horiz-adv-x="796" 
d="M258 775v89h280v-89h-280zM398 -13c-202 0 -363 160 -363 363s161 363 363 363c203 0 363 -160 363 -363s-160 -363 -363 -363zM398 99c140 0 248 107 248 251s-108 251 -248 251s-248 -107 -248 -251s108 -251 248 -251z" />
    <glyph glyph-name="Oslash" unicode="&#xd8;" horiz-adv-x="804" 
d="M665 606c65 -65 104 -155 104 -256c0 -203 -160 -363 -363 -363c-77 0 -148 23 -206 63l-48 -57l-61 35l56 66c-65 66 -104 156 -104 256c0 203 161 363 363 363c77 0 148 -23 206 -63l48 57l61 -35zM158 350c0 -66 23 -125 61 -169l321 383c-38 23 -84 37 -134 37
c-140 0 -248 -107 -248 -251zM406 99c140 0 248 107 248 251c0 66 -23 125 -61 169l-321 -383c38 -23 84 -37 134 -37z" />
    <glyph glyph-name="Otilde" unicode="&#xd5;" horiz-adv-x="796" 
d="M238 772c0 147 89 164 169 110c43 -31 62 -36 62 23h89c0 -147 -88 -164 -168 -110c-44 31 -63 36 -63 -23h-89zM398 -13c-202 0 -363 160 -363 363s161 363 363 363c203 0 363 -160 363 -363s-160 -363 -363 -363zM398 99c140 0 248 107 248 251s-108 251 -248 251
s-248 -107 -248 -251s108 -251 248 -251z" />
    <glyph glyph-name="OE" unicode="&#x152;" horiz-adv-x="916" 
d="M601 110h280v-110h-395c-31 -9 -64 -13 -98 -13c-202 0 -353 160 -353 363s151 363 353 363c34 0 67 -4 98 -13h390v-110h-275v-182h255v-109h-255v-189zM486 114v472c-30 11 -63 15 -98 15c-140 0 -238 -107 -238 -251s98 -251 238 -251c35 0 68 5 98 15z" />
    <glyph glyph-name="P" unicode="P" horiz-adv-x="590" 
d="M328 700c132 0 232 -100 232 -230c0 -129 -100 -230 -232 -230h-143v-240h-115v700h258zM328 348c68 0 117 52 117 122c0 71 -49 122 -117 122h-143v-244h143z" />
    <glyph glyph-name="Thorn" unicode="&#xde;" horiz-adv-x="590" 
d="M330 580c130 0 230 -100 230 -230c0 -129 -100 -230 -230 -230h-145v-120h-115v700h115v-120h145zM330 228c66 0 115 52 115 122c0 71 -49 122 -115 122h-145v-244h145z" />
    <glyph glyph-name="Q" unicode="Q" horiz-adv-x="801" 
d="M761 350c0 -94 -35 -179 -92 -242l74 -76l-81 -73l-77 79c-55 -32 -119 -51 -187 -51c-200 0 -363 160 -363 363s163 363 363 363c201 0 363 -160 363 -363zM398 99c38 0 73 8 105 23l-128 131l81 73l134 -137c35 43 56 98 56 161c0 144 -110 251 -248 251
s-248 -107 -248 -251s110 -251 248 -251z" />
    <glyph glyph-name="R" unicode="R" horiz-adv-x="613" 
d="M469 0l-148 255h-136v-255h-115v700h280c125 0 225 -100 225 -225c0 -90 -57 -170 -139 -203l159 -272h-126zM185 592v-234h165c61 0 110 52 110 117c0 66 -49 117 -110 117h-165z" />
    <glyph glyph-name="Racute" unicode="&#x154;" horiz-adv-x="613" 
d="M440 900l-106 -135h-104l80 135h130zM469 0l-148 255h-136v-255h-115v700h280c125 0 225 -100 225 -225c0 -90 -57 -170 -139 -203l159 -272h-126zM185 592v-234h165c61 0 110 52 110 117c0 66 -49 117 -110 117h-165z" />
    <glyph glyph-name="Rcaron" unicode="&#x158;" horiz-adv-x="613" 
d="M241 760l-106 140h110l53 -73l52 73h110l-106 -140h-113zM469 0l-148 255h-136v-255h-115v700h280c125 0 225 -100 225 -225c0 -90 -57 -170 -139 -203l159 -272h-126zM185 592v-234h165c61 0 110 52 110 117c0 66 -49 117 -110 117h-165z" />
    <glyph glyph-name="Rcommaaccent" unicode="&#x156;" horiz-adv-x="613" 
d="M436 272l159 -272h-126l-148 255h-136v-255h-115v700h280c125 0 225 -100 225 -225c0 -90 -57 -170 -139 -203zM185 592v-234h165c61 0 110 52 110 117c0 66 -49 117 -110 117h-165zM268 -255l10 190h103l-30 -190h-83z" />
    <glyph glyph-name="S" unicode="S" horiz-adv-x="581" 
d="M303 -13c-138 0 -233 68 -270 172l99 58c25 -71 79 -118 174 -118c91 0 130 41 130 92c0 62 -55 83 -159 115c-109 33 -215 73 -215 205c0 129 107 202 225 202c115 0 200 -61 244 -154l-97 -56c-25 56 -69 98 -147 98c-67 0 -110 -34 -110 -87c0 -54 39 -77 141 -109
c116 -37 233 -73 233 -212c0 -128 -102 -206 -248 -206z" />
    <glyph glyph-name="Sacute" unicode="&#x15a;" horiz-adv-x="581" 
d="M219 770h104l106 135h-130zM303 -13c-138 0 -233 68 -270 172l99 58c25 -71 79 -118 174 -118c91 0 130 41 130 92c0 62 -55 83 -159 115c-109 33 -215 73 -215 205c0 129 107 202 225 202c115 0 200 -61 244 -154l-97 -56c-25 56 -69 98 -147 98
c-67 0 -110 -34 -110 -87c0 -54 39 -77 141 -109c116 -37 233 -73 233 -212c0 -128 -102 -206 -248 -206z" />
    <glyph glyph-name="Scaron" unicode="&#x160;" horiz-adv-x="581" 
d="M230 765l-106 140h110l53 -73l52 73h110l-106 -140h-113zM318 405c116 -37 233 -73 233 -212c0 -128 -102 -206 -248 -206c-138 0 -233 68 -270 172l99 58c25 -71 79 -118 174 -118c91 0 130 41 130 92c0 62 -55 83 -159 115c-109 33 -215 73 -215 205
c0 129 107 202 225 202c115 0 200 -61 244 -154l-97 -56c-25 56 -69 98 -147 98c-67 0 -110 -34 -110 -87c0 -54 39 -77 141 -109z" />
    <glyph glyph-name="Scedilla" unicode="&#x15e;" horiz-adv-x="581" 
d="M551 193c0 -116 -83 -190 -207 -204v-35c42 -8 78 -34 78 -79c0 -56 -47 -101 -215 -91v79c82 -7 121 4 121 25c0 20 -28 28 -73 30v72c-112 14 -189 78 -222 169l99 58c25 -71 79 -118 174 -118c91 0 130 41 130 92c0 62 -55 83 -159 115c-109 33 -215 73 -215 205
c0 129 107 202 225 202c115 0 200 -61 244 -154l-97 -56c-25 56 -69 98 -147 98c-67 0 -110 -34 -110 -87c0 -54 39 -77 141 -109c116 -37 233 -73 233 -212z" />
    <glyph glyph-name="Scommaaccent" unicode="&#x218;" horiz-adv-x="581" 
d="M303 -13c-138 0 -233 68 -270 172l99 58c25 -71 79 -118 174 -118c91 0 130 41 130 92c0 62 -55 83 -159 115c-109 33 -215 73 -215 205c0 129 107 202 225 202c115 0 200 -61 244 -154l-97 -56c-25 56 -69 98 -147 98c-67 0 -110 -34 -110 -87c0 -54 39 -77 141 -109
c116 -37 233 -73 233 -212c0 -128 -102 -206 -248 -206zM331 -255l30 190h-103l-10 -190h83z" />
    <glyph glyph-name="T" unicode="T" horiz-adv-x="540" 
d="M525 700v-110h-197v-590h-115v590h-198v110h510z" />
    <glyph glyph-name="Tbar" unicode="&#x166;" horiz-adv-x="540" 
d="M525 590h-197v-193h127v-104h-127v-293h-115v293h-128v104h128v193h-198v110h510v-110z" />
    <glyph glyph-name="Tcaron" unicode="&#x164;" horiz-adv-x="540" 
d="M211 760l-106 140h110l53 -73l52 73h110l-106 -140h-113zM525 700v-110h-197v-590h-115v590h-198v110h510z" />
    <glyph glyph-name="uni0162" unicode="&#x162;" horiz-adv-x="540" 
d="M525 700v-110h-197v-590h-115v590h-198v110h510zM213 -255l10 190h103l-30 -190h-83z" />
    <glyph glyph-name="uni021A" unicode="&#x21a;" horiz-adv-x="540" 
d="M525 700v-110h-197v-590h-115v590h-198v110h510zM213 -255l10 190h103l-30 -190h-83z" />
    <glyph glyph-name="U" unicode="U" horiz-adv-x="655" 
d="M328 -13c-154 0 -265 94 -265 245v468h115v-461c0 -82 47 -140 150 -140s150 58 150 140v461h115v-468c0 -151 -112 -245 -265 -245z" />
    <glyph glyph-name="Uacute" unicode="&#xda;" horiz-adv-x="655" 
d="M258 765h104l106 135h-130zM328 -13c-154 0 -265 94 -265 245v468h115v-461c0 -82 47 -140 150 -140s150 58 150 140v461h115v-468c0 -151 -112 -245 -265 -245z" />
    <glyph glyph-name="Ucircumflex" unicode="&#xdb;" horiz-adv-x="655" 
d="M326 834l-53 -74h-110l106 140h113l106 -140h-110zM478 700h115v-468c0 -151 -112 -245 -265 -245c-154 0 -265 94 -265 245v468h115v-461c0 -82 47 -140 150 -140s150 58 150 140v461z" />
    <glyph glyph-name="Udieresis" unicode="&#xdc;" horiz-adv-x="655" 
d="M233 758c-33 0 -60 27 -60 60s27 60 60 60s60 -27 60 -60s-27 -60 -60 -60zM423 758c-33 0 -60 27 -60 60s27 60 60 60s60 -27 60 -60s-27 -60 -60 -60zM328 -13c-154 0 -265 94 -265 245v468h115v-461c0 -82 47 -140 150 -140s150 58 150 140v461h115v-468
c0 -151 -112 -245 -265 -245z" />
    <glyph glyph-name="Ugrave" unicode="&#xd9;" horiz-adv-x="655" 
d="M403 765l-80 135h-130l106 -135h104zM328 -13c-154 0 -265 94 -265 245v468h115v-461c0 -82 47 -140 150 -140s150 58 150 140v461h115v-468c0 -151 -112 -245 -265 -245z" />
    <glyph glyph-name="Uhungarumlaut" unicode="&#x170;" horiz-adv-x="655" 
d="M168 760h108l81 135h-114zM331 760h108l91 135h-114zM328 -13c-154 0 -265 94 -265 245v468h115v-461c0 -82 47 -140 150 -140s150 58 150 140v461h115v-468c0 -151 -112 -245 -265 -245z" />
    <glyph glyph-name="Umacron" unicode="&#x16a;" horiz-adv-x="655" 
d="M188 770v89h280v-89h-280zM328 -13c-154 0 -265 94 -265 245v468h115v-461c0 -82 47 -140 150 -140s150 58 150 140v461h115v-468c0 -151 -112 -245 -265 -245z" />
    <glyph glyph-name="Uogonek" unicode="&#x172;" horiz-adv-x="655" 
d="M478 700h115v-468c0 -83 -34 -148 -89 -191c-74 -69 -102 -105 -103 -146c0 -19 10 -27 28 -28c11 -1 21 2 33 6v-72c-22 -9 -44 -14 -74 -14c-54 0 -91 30 -91 83c0 35 21 78 57 118c-9 -1 -17 -1 -26 -1c-154 0 -265 94 -265 245v468h115v-461c0 -82 47 -140 150 -140
s150 58 150 140v461z" />
    <glyph glyph-name="Uring" unicode="&#x16e;" horiz-adv-x="655" 
d="M327 713c-70 0 -119 48 -119 112s49 113 119 113c72 0 120 -49 120 -113s-48 -112 -120 -112zM327 784c29 0 44 18 44 41c0 24 -15 42 -44 42c-28 0 -43 -18 -43 -42c0 -23 15 -41 43 -41zM328 -13c-154 0 -265 94 -265 245v468h115v-461c0 -82 47 -140 150 -140
s150 58 150 140v461h115v-468c0 -151 -112 -245 -265 -245z" />
    <glyph glyph-name="V" unicode="V" horiz-adv-x="634" 
d="M248 0l-243 700h126l186 -561l187 561h125l-243 -700h-138z" />
    <glyph glyph-name="W" unicode="W" horiz-adv-x="999" 
d="M218 0l-198 700h121l147 -547l159 547h106l158 -547l147 547h121l-198 -700h-133l-148 511l-149 -511h-133z" />
    <glyph glyph-name="Wacute" unicode="&#x1e82;" horiz-adv-x="999" 
d="M449 765h104l106 135h-130zM218 0l-198 700h121l147 -547l159 547h106l158 -547l147 547h121l-198 -700h-133l-148 511l-149 -511h-133z" />
    <glyph glyph-name="Wcircumflex" unicode="&#x174;" horiz-adv-x="999" 
d="M517 834l-53 -74h-110l106 140h113l106 -140h-110zM858 700h121l-198 -700h-133l-148 511l-149 -511h-133l-198 700h121l147 -547l159 547h106l158 -547z" />
    <glyph glyph-name="Wdieresis" unicode="&#x1e84;" horiz-adv-x="999" 
d="M424 758c-33 0 -60 27 -60 60s27 60 60 60s60 -27 60 -60s-27 -60 -60 -60zM614 758c-33 0 -60 27 -60 60s27 60 60 60s60 -27 60 -60s-27 -60 -60 -60zM218 0l-198 700h121l147 -547l159 547h106l158 -547l147 547h121l-198 -700h-133l-148 511l-149 -511h-133z" />
    <glyph glyph-name="Wgrave" unicode="&#x1e80;" horiz-adv-x="999" 
d="M594 765l-80 135h-130l106 -135h104zM218 0l-198 700h121l147 -547l159 547h106l158 -547l147 547h121l-198 -700h-133l-148 511l-149 -511h-133z" />
    <glyph glyph-name="X" unicode="X" horiz-adv-x="600" 
d="M585 0h-131l-154 253l-154 -253h-131l220 360l-207 340h130l142 -233l142 233h131l-207 -340z" />
    <glyph glyph-name="Y" unicode="Y" horiz-adv-x="613" 
d="M608 700l-244 -422v-278h-115v278l-244 422h131l171 -310l170 310h131z" />
    <glyph glyph-name="Yacute" unicode="&#xdd;" horiz-adv-x="613" 
d="M445 900l-106 -135h-104l80 135h130zM608 700l-244 -422v-278h-115v278l-244 422h131l171 -310l170 310h131z" />
    <glyph glyph-name="Ycircumflex" unicode="&#x176;" horiz-adv-x="613" 
d="M303 834l-53 -74h-110l106 140h113l106 -140h-110zM608 700l-244 -422v-278h-115v278l-244 422h131l171 -310l170 310h131z" />
    <glyph glyph-name="Ydieresis" unicode="&#x178;" horiz-adv-x="613" 
d="M210 758c-33 0 -60 27 -60 60s27 60 60 60s60 -27 60 -60s-27 -60 -60 -60zM400 758c-33 0 -60 27 -60 60s27 60 60 60s60 -27 60 -60s-27 -60 -60 -60zM608 700l-244 -422v-278h-115v278l-244 422h131l171 -310l170 310h131z" />
    <glyph glyph-name="Ygrave" unicode="&#x1ef2;" horiz-adv-x="613" 
d="M380 765h-104l-106 135h130zM608 700l-244 -422v-278h-115v278l-244 422h131l171 -310l170 310h131z" />
    <glyph glyph-name="Z" unicode="Z" horiz-adv-x="530" 
d="M181 110h322v-110h-465v95l314 495h-307v110h450v-95z" />
    <glyph glyph-name="Zacute" unicode="&#x179;" horiz-adv-x="530" 
d="M410 900l-106 -135h-104l80 135h130zM181 110h322v-110h-465v95l314 495h-307v110h450v-95z" />
    <glyph glyph-name="Zcaron" unicode="&#x17d;" horiz-adv-x="530" 
d="M211 760l-106 140h110l53 -73l52 73h110l-106 -140h-113zM181 110h322v-110h-465v95l314 495h-307v110h450v-95z" />
    <glyph glyph-name="Zdotaccent" unicode="&#x17b;" horiz-adv-x="530" 
d="M270 758c-38 0 -70 31 -70 70c0 38 32 70 70 70c39 0 70 -32 70 -70c0 -39 -31 -70 -70 -70zM181 110h322v-110h-465v95l314 495h-307v110h450v-95z" />
    <glyph glyph-name="a" unicode="a" 
d="M459 500h108v-500h-108v72c-38 -53 -97 -85 -175 -85c-136 0 -249 115 -249 263c0 149 113 263 249 263c78 0 137 -32 175 -84v71zM301 90c90 0 158 67 158 160s-68 160 -158 160s-158 -67 -158 -160s68 -160 158 -160z" />
    <glyph glyph-name="aacute" unicode="&#xe1;" 
d="M448 700l-106 -135h-104l80 135h130zM459 500h108v-500h-108v72c-38 -53 -97 -85 -175 -85c-136 0 -249 115 -249 263c0 149 113 263 249 263c78 0 137 -32 175 -84v71zM301 90c90 0 158 67 158 160s-68 160 -158 160s-158 -67 -158 -160s68 -160 158 -160z" />
    <glyph glyph-name="abreve" unicode="&#x103;" 
d="M308 552c-99 0 -158 51 -158 140h98c0 -40 21 -59 60 -59c38 0 59 19 59 59h98c0 -89 -58 -140 -157 -140zM459 500h108v-500h-108v72c-38 -53 -97 -85 -175 -85c-136 0 -249 115 -249 263c0 149 113 263 249 263c78 0 137 -32 175 -84v71zM301 90c90 0 158 67 158 160
s-68 160 -158 160s-158 -67 -158 -160s68 -160 158 -160z" />
    <glyph glyph-name="acircumflex" unicode="&#xe2;" 
d="M306 634l-53 -74h-110l106 140h113l106 -140h-110zM459 500h108v-500h-108v72c-38 -53 -97 -85 -175 -85c-136 0 -249 115 -249 263c0 149 113 263 249 263c78 0 137 -32 175 -84v71zM301 90c90 0 158 67 158 160s-68 160 -158 160s-158 -67 -158 -160s68 -160 158 -160z
" />
    <glyph glyph-name="adieresis" unicode="&#xe4;" 
d="M213 558c-33 0 -60 27 -60 60s27 60 60 60s60 -27 60 -60s-27 -60 -60 -60zM403 558c-33 0 -60 27 -60 60s27 60 60 60s60 -27 60 -60s-27 -60 -60 -60zM459 500h108v-500h-108v72c-38 -53 -97 -85 -175 -85c-136 0 -249 115 -249 263c0 149 113 263 249 263
c78 0 137 -32 175 -84v71zM301 90c90 0 158 67 158 160s-68 160 -158 160s-158 -67 -158 -160s68 -160 158 -160z" />
    <glyph glyph-name="agrave" unicode="&#xe0;" 
d="M383 565h-104l-106 135h130zM459 500h108v-500h-108v72c-38 -53 -97 -85 -175 -85c-136 0 -249 115 -249 263c0 149 113 263 249 263c78 0 137 -32 175 -84v71zM301 90c90 0 158 67 158 160s-68 160 -158 160s-158 -67 -158 -160s68 -160 158 -160z" />
    <glyph glyph-name="amacron" unicode="&#x101;" 
d="M448 659v-89h-280v89h280zM459 500h108v-500h-108v72c-38 -53 -97 -85 -175 -85c-136 0 -249 115 -249 263c0 149 113 263 249 263c78 0 137 -32 175 -84v71zM301 90c90 0 158 67 158 160s-68 160 -158 160s-158 -67 -158 -160s68 -160 158 -160z" />
    <glyph glyph-name="aogonek" unicode="&#x105;" 
d="M567 0c-37 -37 -60 -78 -60 -105c-1 -19 10 -28 28 -28c10 -1 21 2 32 6v-72c-22 -9 -44 -14 -73 -14c-55 0 -91 30 -91 83c0 36 22 83 64 130h-8v72c-38 -53 -97 -85 -175 -85c-136 0 -249 115 -249 263c0 149 113 263 249 263c78 0 137 -32 175 -84v71h108v-500z
M301 90c90 0 158 67 158 160s-68 160 -158 160s-158 -67 -158 -160s68 -160 158 -160z" />
    <glyph glyph-name="aring" unicode="&#xe5;" 
d="M308 543c-70 0 -119 48 -119 112s49 113 119 113c72 0 120 -49 120 -113s-48 -112 -120 -112zM308 697c-28 0 -43 -18 -43 -42c0 -23 15 -41 43 -41c29 0 44 18 44 41c0 24 -15 42 -44 42zM459 500h108v-500h-108v72c-38 -53 -97 -85 -175 -85c-136 0 -249 115 -249 263
c0 149 113 263 249 263c78 0 137 -32 175 -84v71zM301 90c90 0 158 67 158 160s-68 160 -158 160s-158 -67 -158 -160s68 -160 158 -160z" />
    <glyph glyph-name="atilde" unicode="&#xe3;" 
d="M300 590c-44 31 -63 36 -63 -23h-89c0 147 89 164 169 110c43 -31 62 -36 62 23h89c0 -147 -88 -164 -168 -110zM459 500h108v-500h-108v72c-38 -53 -97 -85 -175 -85c-136 0 -249 115 -249 263c0 149 113 263 249 263c78 0 137 -32 175 -84v71zM301 90
c90 0 158 67 158 160s-68 160 -158 160s-158 -67 -158 -160s68 -160 158 -160z" />
    <glyph glyph-name="ae" unicode="&#xe6;" horiz-adv-x="1006" 
d="M573 204c17 -79 80 -118 157 -118c62 0 107 27 131 62l89 -52c-46 -68 -111 -109 -206 -109c-79 0 -142 32 -182 87v-74h-103v72c-38 -53 -97 -85 -175 -85c-136 0 -249 115 -249 263c0 149 113 263 249 263c78 0 137 -32 175 -84v71h103v-74c39 54 99 87 176 87
c152 0 236 -120 236 -264c0 -15 -2 -31 -4 -45h-397zM572 293h293c-14 85 -75 122 -141 122c-82 0 -137 -47 -152 -122zM301 90c90 0 158 67 158 160s-68 160 -158 160s-158 -67 -158 -160s68 -160 158 -160z" />
    <glyph glyph-name="b" unicode="b" 
d="M346 513c136 0 249 -114 249 -263c0 -148 -113 -263 -249 -263c-78 0 -137 32 -175 85v-72h-108v700h108v-271c38 52 97 84 175 84zM329 90c90 0 158 67 158 160s-68 160 -158 160s-158 -67 -158 -160s68 -160 158 -160z" />
    <glyph glyph-name="c" unicode="c" horiz-adv-x="542" 
d="M299 -13c-151 0 -264 115 -264 263c0 149 113 263 264 263c98 0 183 -51 223 -129l-93 -54c-22 47 -71 77 -131 77c-88 0 -155 -67 -155 -157s67 -157 155 -157c60 0 109 31 133 77l93 -53c-42 -79 -127 -130 -225 -130z" />
    <glyph glyph-name="cacute" unicode="&#x107;" horiz-adv-x="542" 
d="M225 565h104l106 135h-130zM299 -13c-151 0 -264 115 -264 263c0 149 113 263 264 263c98 0 183 -51 223 -129l-93 -54c-22 47 -71 77 -131 77c-88 0 -155 -67 -155 -157s67 -157 155 -157c60 0 109 31 133 77l93 -53c-42 -79 -127 -130 -225 -130z" />
    <glyph glyph-name="ccaron" unicode="&#x10d;" horiz-adv-x="542" 
d="M236 560l-106 140h110l53 -73l52 73h110l-106 -140h-113zM431 170l93 -53c-42 -79 -127 -130 -225 -130c-151 0 -264 115 -264 263c0 149 113 263 264 263c98 0 183 -51 223 -129l-93 -54c-22 47 -71 77 -131 77c-88 0 -155 -67 -155 -157s67 -157 155 -157
c60 0 109 31 133 77z" />
    <glyph glyph-name="ccedilla" unicode="&#xe7;" horiz-adv-x="542" 
d="M524 117c-35 -66 -101 -113 -179 -126v-37c42 -8 78 -34 78 -79c0 -56 -47 -101 -215 -91v79c82 -7 121 4 121 25c0 20 -28 28 -73 30v72c-129 20 -221 126 -221 260c0 149 113 263 264 263c98 0 183 -51 223 -129l-93 -54c-22 47 -71 77 -131 77
c-88 0 -155 -67 -155 -157s67 -157 155 -157c60 0 109 31 133 77z" />
    <glyph glyph-name="cdotaccent" unicode="&#x10b;" horiz-adv-x="542" 
d="M295 558c-38 0 -70 31 -70 70c0 38 32 70 70 70c39 0 70 -32 70 -70c0 -39 -31 -70 -70 -70zM299 -13c-151 0 -264 115 -264 263c0 149 113 263 264 263c98 0 183 -51 223 -129l-93 -54c-22 47 -71 77 -131 77c-88 0 -155 -67 -155 -157s67 -157 155 -157
c60 0 109 31 133 77l93 -53c-42 -79 -127 -130 -225 -130z" />
    <glyph glyph-name="d" unicode="d" 
d="M459 700h108v-700h-108v72c-38 -53 -97 -85 -175 -85c-136 0 -249 115 -249 263c0 149 113 263 249 263c78 0 137 -32 175 -84v271zM301 90c90 0 158 67 158 160s-68 160 -158 160s-158 -67 -158 -160s68 -160 158 -160z" />
    <glyph glyph-name="eth" unicode="&#xf0;" horiz-adv-x="576" 
d="M495 370c28 -37 46 -85 46 -140c0 -150 -119 -242 -253 -242s-253 92 -253 242c0 144 126 247 268 225h1l-66 91l-123 -65v80l80 43l-70 96h124l36 -49l117 62v-80l-74 -39zM288 90c80 0 145 52 145 140c0 33 -9 61 -24 81l-1 1c-21 28 -57 54 -119 54
c-84 0 -146 -52 -146 -136c0 -88 65 -140 145 -140z" />
    <glyph glyph-name="dcaron" unicode="&#x10f;" horiz-adv-x="724" 
d="M459 429v271h108v-700h-108v72c-38 -53 -97 -85 -175 -85c-136 0 -249 115 -249 263c0 149 113 263 249 263c78 0 137 -32 175 -84zM631 700h103l-30 -190h-83zM301 90c90 0 158 67 158 160s-68 160 -158 160s-158 -67 -158 -160s68 -160 158 -160z" />
    <glyph glyph-name="dcroat" unicode="&#x111;" horiz-adv-x="637" 
d="M632 635v-74h-65v-561h-108v72c-38 -53 -97 -85 -175 -85c-136 0 -249 115 -249 263c0 149 113 263 249 263c78 0 137 -32 175 -84v132h-162v74h162v65h108v-65h65zM301 90c90 0 158 67 158 160s-68 160 -158 160s-158 -67 -158 -160s68 -160 158 -160z" />
    <glyph glyph-name="e" unicode="e" horiz-adv-x="582" 
d="M148 204c17 -78 80 -118 160 -118c60 0 105 27 129 62l89 -52c-46 -68 -121 -109 -219 -109c-165 0 -272 113 -272 263c0 148 107 263 264 263c149 0 251 -120 251 -264c0 -15 -2 -31 -4 -45h-398zM147 292h294c-15 86 -78 123 -143 123c-81 0 -136 -48 -151 -123z" />
    <glyph glyph-name="eacute" unicode="&#xe9;" horiz-adv-x="582" 
d="M433 703l-106 -135h-104l80 135h130zM148 204c17 -78 80 -118 160 -118c60 0 105 27 129 62l89 -52c-46 -68 -121 -109 -219 -109c-165 0 -272 113 -272 263c0 148 107 263 264 263c149 0 251 -120 251 -264c0 -15 -2 -31 -4 -45h-398zM147 292h294
c-15 86 -78 123 -143 123c-81 0 -136 -48 -151 -123z" />
    <glyph glyph-name="ecaron" unicode="&#x11b;" horiz-adv-x="582" 
d="M234 563l-106 140h110l53 -73l52 73h110l-106 -140h-113zM148 204c17 -78 80 -118 160 -118c60 0 105 27 129 62l89 -52c-46 -68 -121 -109 -219 -109c-165 0 -272 113 -272 263c0 148 107 263 264 263c149 0 251 -120 251 -264c0 -15 -2 -31 -4 -45h-398zM147 292h294
c-15 86 -78 123 -143 123c-81 0 -136 -48 -151 -123z" />
    <glyph glyph-name="ecircumflex" unicode="&#xea;" horiz-adv-x="582" 
d="M291 637l-53 -74h-110l106 140h113l106 -140h-110zM148 204c17 -78 80 -118 160 -118c60 0 105 27 129 62l89 -52c-46 -68 -121 -109 -219 -109c-165 0 -272 113 -272 263c0 148 107 263 264 263c149 0 251 -120 251 -264c0 -15 -2 -31 -4 -45h-398zM147 292h294
c-15 86 -78 123 -143 123c-81 0 -136 -48 -151 -123z" />
    <glyph glyph-name="edieresis" unicode="&#xeb;" horiz-adv-x="582" 
d="M198 561c-33 0 -60 27 -60 60s27 60 60 60s60 -27 60 -60s-27 -60 -60 -60zM388 561c-33 0 -60 27 -60 60s27 60 60 60s60 -27 60 -60s-27 -60 -60 -60zM148 204c17 -78 80 -118 160 -118c60 0 105 27 129 62l89 -52c-46 -68 -121 -109 -219 -109
c-165 0 -272 113 -272 263c0 148 107 263 264 263c149 0 251 -120 251 -264c0 -15 -2 -31 -4 -45h-398zM147 292h294c-15 86 -78 123 -143 123c-81 0 -136 -48 -151 -123z" />
    <glyph glyph-name="edotaccent" unicode="&#x117;" horiz-adv-x="582" 
d="M293 561c-38 0 -70 31 -70 70c0 38 32 70 70 70c39 0 70 -32 70 -70c0 -39 -31 -70 -70 -70zM148 204c17 -78 80 -118 160 -118c60 0 105 27 129 62l89 -52c-46 -68 -121 -109 -219 -109c-165 0 -272 113 -272 263c0 148 107 263 264 263c149 0 251 -120 251 -264
c0 -15 -2 -31 -4 -45h-398zM147 292h294c-15 86 -78 123 -143 123c-81 0 -136 -48 -151 -123z" />
    <glyph glyph-name="egrave" unicode="&#xe8;" horiz-adv-x="582" 
d="M368 568h-104l-106 135h130zM148 204c17 -78 80 -118 160 -118c60 0 105 27 129 62l89 -52c-46 -68 -121 -109 -219 -109c-165 0 -272 113 -272 263c0 148 107 263 264 263c149 0 251 -120 251 -264c0 -15 -2 -31 -4 -45h-398zM147 292h294c-15 86 -78 123 -143 123
c-81 0 -136 -48 -151 -123z" />
    <glyph glyph-name="emacron" unicode="&#x113;" horiz-adv-x="582" 
d="M433 662v-89h-280v89h280zM148 204c17 -78 80 -118 160 -118c60 0 105 27 129 62l89 -52c-46 -68 -121 -109 -219 -109c-165 0 -272 113 -272 263c0 148 107 263 264 263c149 0 251 -120 251 -264c0 -15 -2 -31 -4 -45h-398zM147 292h294c-15 86 -78 123 -143 123
c-81 0 -136 -48 -151 -123z" />
    <glyph glyph-name="eogonek" unicode="&#x119;" horiz-adv-x="582" 
d="M148 204c17 -78 80 -118 160 -118c60 0 105 27 129 62l89 -52c-10 -15 -22 -30 -36 -42c-77 -84 -97 -134 -97 -159c0 -19 10 -28 28 -28c11 -1 21 2 33 6v-72c-22 -9 -44 -14 -74 -14c-54 0 -91 30 -91 83c0 34 19 78 65 120c-15 -2 -31 -3 -47 -3
c-165 0 -272 113 -272 263c0 148 107 263 264 263c149 0 251 -120 251 -264c0 -15 -2 -31 -4 -45h-398zM147 292h294c-15 86 -78 123 -143 123c-81 0 -136 -48 -151 -123z" />
    <glyph glyph-name="f" unicode="f" horiz-adv-x="325" 
d="M325 609c-76 7 -118 -22 -118 -99v-10h118v-104h-118v-396h-108v396h-76v104h76v10c0 135 76 213 226 203v-104z" />
    <glyph glyph-name="g" unicode="g" 
d="M461 500h106v-477c0 -161 -126 -236 -257 -236c-110 0 -195 41 -237 121l93 54c22 -43 59 -77 146 -77c93 0 149 51 149 138v61c-38 -54 -97 -87 -174 -87c-141 0 -252 115 -252 258s111 258 252 258c77 0 136 -33 174 -87v74zM302 98c91 0 159 67 159 157
s-68 157 -159 157s-159 -67 -159 -157s68 -157 159 -157z" />
    <glyph glyph-name="gbreve" unicode="&#x11f;" 
d="M301 557c-99 0 -158 51 -158 140h98c0 -40 21 -59 60 -59c38 0 59 19 59 59h98c0 -89 -58 -140 -157 -140zM461 500h106v-477c0 -161 -126 -236 -257 -236c-110 0 -195 41 -237 121l93 54c22 -43 59 -77 146 -77c93 0 149 51 149 138v61c-38 -54 -97 -87 -174 -87
c-141 0 -252 115 -252 258s111 258 252 258c77 0 136 -33 174 -87v74zM302 98c91 0 159 67 159 157s-68 157 -159 157s-159 -67 -159 -157s68 -157 159 -157z" />
    <glyph glyph-name="gcommaaccent" unicode="&#x123;" 
d="M356 775l-10 -190h-103l30 190h83zM461 500h106v-477c0 -161 -126 -236 -257 -236c-110 0 -195 41 -237 121l93 54c22 -43 59 -77 146 -77c93 0 149 51 149 138v61c-38 -54 -97 -87 -174 -87c-141 0 -252 115 -252 258s111 258 252 258c77 0 136 -33 174 -87v74zM302 98
c91 0 159 67 159 157s-68 157 -159 157s-159 -67 -159 -157s68 -157 159 -157z" />
    <glyph glyph-name="gdotaccent" unicode="&#x121;" 
d="M301 563c-38 0 -70 31 -70 70c0 38 32 70 70 70c39 0 70 -32 70 -70c0 -39 -31 -70 -70 -70zM461 500h106v-477c0 -161 -126 -236 -257 -236c-110 0 -195 41 -237 121l93 54c22 -43 59 -77 146 -77c93 0 149 51 149 138v61c-38 -54 -97 -87 -174 -87
c-141 0 -252 115 -252 258s111 258 252 258c77 0 136 -33 174 -87v74zM302 98c91 0 159 67 159 157s-68 157 -159 157s-159 -67 -159 -157s68 -157 159 -157z" />
    <glyph glyph-name="h" unicode="h" horiz-adv-x="571" 
d="M326 513c112 0 192 -76 192 -206v-307h-108v296c0 76 -44 116 -112 116c-71 0 -127 -42 -127 -144v-268h-108v700h108v-264c33 52 87 77 155 77z" />
    <glyph glyph-name="hbar" unicode="&#x127;" horiz-adv-x="578" 
d="M334 513c111 0 191 -76 191 -206v-307h-108v296c0 76 -44 116 -111 116c-72 0 -128 -42 -128 -144v-268h-108v561h-65v74h65v65h108v-65h142v-74h-142v-125c34 52 88 77 156 77z" />
    <glyph glyph-name="i" unicode="i" horiz-adv-x="233" 
d="M117 575c-38 0 -69 32 -69 69c0 38 31 69 69 69s69 -31 69 -69c0 -37 -31 -69 -69 -69zM63 0v500h108v-500h-108z" />
    <glyph glyph-name="dotlessi" unicode="&#x131;" horiz-adv-x="233" 
d="M63 0v500h108v-500h-108z" />
    <glyph glyph-name="iacute" unicode="&#xed;" horiz-adv-x="233" 
d="M64 560h104l66 140h-125zM63 0v500h108v-500h-108z" />
    <glyph glyph-name="icircumflex" unicode="&#xee;" horiz-adv-x="233" 
d="M117 622l-38 -62h-110l91 140h113l91 -140h-110zM63 0v500h108v-500h-108z" />
    <glyph glyph-name="idieresis" unicode="&#xef;" horiz-adv-x="233" 
d="M37 560c-33 0 -61 27 -61 60s28 60 61 60s60 -27 60 -60s-27 -60 -60 -60zM197 560c-33 0 -60 27 -60 60s27 60 60 60s60 -27 60 -60s-27 -60 -60 -60zM63 0v500h108v-500h-108z" />
    <glyph glyph-name="i.loclTRK" horiz-adv-x="233" 
d="M117 558c-38 0 -70 31 -70 70c0 38 32 70 70 70c39 0 70 -32 70 -70c0 -39 -31 -70 -70 -70zM63 0v500h108v-500h-108z" />
    <glyph glyph-name="igrave" unicode="&#xec;" horiz-adv-x="233" 
d="M167 560l-45 140h-125l66 -140h104zM171 0h-108v500h108v-500z" />
    <glyph glyph-name="imacron" unicode="&#x12b;" horiz-adv-x="233" 
d="M7 570v94h220v-94h-220zM63 0v500h108v-500h-108z" />
    <glyph glyph-name="iogonek" unicode="&#x12f;" horiz-adv-x="233" 
d="M117 575c-38 0 -69 32 -69 69c0 38 31 69 69 69s69 -31 69 -69c0 -37 -31 -69 -69 -69zM162 -133c11 -1 21 2 33 6v-72c-22 -9 -44 -14 -74 -14c-54 0 -91 35 -91 88c0 35 11 73 41 125h-8v500h108v-500c-23 -37 -37 -73 -37 -100c0 -19 10 -33 28 -33z" />
    <glyph glyph-name="j" unicode="j" horiz-adv-x="253" 
d="M136 575c-38 0 -69 32 -69 69c0 38 31 69 69 69s69 -31 69 -69c0 -37 -31 -69 -69 -69zM82 -20v520h108v-520c0 -138 -68 -203 -205 -193v104c66 -6 97 19 97 89z" />
    <glyph glyph-name="k" unicode="k" horiz-adv-x="515" 
d="M505 0h-129l-205 231v-231h-108v700h108v-421l194 221h132l-220 -245z" />
    <glyph glyph-name="kcommaaccent" unicode="&#x137;" horiz-adv-x="515" 
d="M277 255l228 -255h-129l-205 231v-231h-108v700h108v-421l194 221h132zM218 -255l10 190h103l-30 -190h-83z" />
    <glyph glyph-name="l" unicode="l" horiz-adv-x="233" 
d="M63 0v730h108v-730h-108z" />
    <glyph glyph-name="lacute" unicode="&#x13a;" horiz-adv-x="233" 
d="M61 765h104l106 135h-130zM63 0v730h108v-730h-108z" />
    <glyph glyph-name="lcaron" unicode="&#x13e;" horiz-adv-x="327" 
d="M63 0v730h108v-730h-108zM307 540l30 190h-103l-10 -190h83z" />
    <glyph glyph-name="lcommaaccent" unicode="&#x13c;" horiz-adv-x="233" 
d="M63 0v730h108v-730h-108zM140 -255l30 190h-103l-10 -190h83z" />
    <glyph glyph-name="lslash" unicode="&#x142;" horiz-adv-x="255" 
d="M240 480v-103l-58 -40v-337h-108v263l-59 -40v103l59 40v364h108v-290z" />
    <glyph glyph-name="m" unicode="m" horiz-adv-x="851" 
d="M609 513c113 0 189 -78 189 -203v-310h-108v303c0 70 -38 109 -97 109c-64 0 -109 -41 -109 -132v-280h-108v303c0 70 -35 109 -94 109c-61 0 -111 -41 -111 -132v-280h-108v500h108v-60c32 49 81 73 143 73c65 0 113 -29 142 -79c33 52 86 79 153 79z" />
    <glyph glyph-name="n" unicode="n" horiz-adv-x="571" 
d="M326 513c112 0 192 -76 192 -206v-307h-108v296c0 76 -44 116 -112 116c-71 0 -127 -42 -127 -144v-268h-108v500h108v-64c33 52 87 77 155 77z" />
    <glyph glyph-name="nacute" unicode="&#x144;" horiz-adv-x="571" 
d="M436 705l-106 -135h-104l80 135h130zM326 513c112 0 192 -76 192 -206v-307h-108v296c0 76 -44 116 -112 116c-71 0 -127 -42 -127 -144v-268h-108v500h108v-64c33 52 87 77 155 77z" />
    <glyph glyph-name="ncaron" unicode="&#x148;" horiz-adv-x="571" 
d="M237 565l-106 140h110l53 -73l52 73h110l-106 -140h-113zM326 513c112 0 192 -76 192 -206v-307h-108v296c0 76 -44 116 -112 116c-71 0 -127 -42 -127 -144v-268h-108v500h108v-64c33 52 87 77 155 77z" />
    <glyph glyph-name="ncommaaccent" unicode="&#x146;" horiz-adv-x="571" 
d="M326 513c112 0 192 -76 192 -206v-307h-108v296c0 76 -44 116 -112 116c-71 0 -127 -42 -127 -144v-268h-108v500h108v-64c33 52 87 77 155 77zM236 -255l10 190h103l-30 -190h-83z" />
    <glyph glyph-name="eng" unicode="&#x14b;" horiz-adv-x="571" 
d="M326 513c112 0 192 -76 192 -206v-327c0 -130 -66 -203 -200 -193v104c60 -7 92 17 92 89v316c0 76 -44 116 -112 116c-71 0 -127 -42 -127 -144v-268h-108v500h108v-64c33 52 87 77 155 77z" />
    <glyph glyph-name="ntilde" unicode="&#xf1;" horiz-adv-x="571" 
d="M288 595c-44 31 -63 36 -63 -23h-89c0 147 89 164 169 110c43 -31 62 -36 62 23h89c0 -147 -88 -164 -168 -110zM326 513c112 0 192 -76 192 -206v-307h-108v296c0 76 -44 116 -112 116c-71 0 -127 -42 -127 -144v-268h-108v500h108v-64c33 52 87 77 155 77z" />
    <glyph glyph-name="o" unicode="o" horiz-adv-x="598" 
d="M299 -13c-146 0 -264 115 -264 263c0 149 118 263 264 263c147 0 264 -114 264 -263c0 -148 -117 -263 -264 -263zM299 92c88 0 156 67 156 158s-68 158 -156 158s-156 -67 -156 -158s68 -158 156 -158z" />
    <glyph glyph-name="oacute" unicode="&#xf3;" horiz-adv-x="598" 
d="M229 570h104l106 135h-130zM299 -13c-146 0 -264 115 -264 263c0 149 118 263 264 263c147 0 264 -114 264 -263c0 -148 -117 -263 -264 -263zM299 92c88 0 156 67 156 158s-68 158 -156 158s-156 -67 -156 -158s68 -158 156 -158z" />
    <glyph glyph-name="ocircumflex" unicode="&#xf4;" horiz-adv-x="598" 
d="M297 639l-53 -74h-110l106 140h113l106 -140h-110zM299 513c147 0 264 -114 264 -263c0 -148 -117 -263 -264 -263c-146 0 -264 115 -264 263c0 149 118 263 264 263zM299 92c88 0 156 67 156 158s-68 158 -156 158s-156 -67 -156 -158s68 -158 156 -158z" />
    <glyph glyph-name="odieresis" unicode="&#xf6;" horiz-adv-x="598" 
d="M204 563c-33 0 -60 27 -60 60s27 60 60 60s60 -27 60 -60s-27 -60 -60 -60zM394 563c-33 0 -60 27 -60 60s27 60 60 60s60 -27 60 -60s-27 -60 -60 -60zM299 -13c-146 0 -264 115 -264 263c0 149 118 263 264 263c147 0 264 -114 264 -263c0 -148 -117 -263 -264 -263z
M299 92c88 0 156 67 156 158s-68 158 -156 158s-156 -67 -156 -158s68 -158 156 -158z" />
    <glyph glyph-name="ograve" unicode="&#xf2;" horiz-adv-x="598" 
d="M374 570l-80 135h-130l106 -135h104zM299 -13c-146 0 -264 115 -264 263c0 149 118 263 264 263c147 0 264 -114 264 -263c0 -148 -117 -263 -264 -263zM299 92c88 0 156 67 156 158s-68 158 -156 158s-156 -67 -156 -158s68 -158 156 -158z" />
    <glyph glyph-name="ohungarumlaut" unicode="&#x151;" horiz-adv-x="598" 
d="M139 565h108l81 135h-114zM302 565h108l91 135h-114zM299 -13c-146 0 -264 115 -264 263c0 149 118 263 264 263c147 0 264 -114 264 -263c0 -148 -117 -263 -264 -263zM299 92c88 0 156 67 156 158s-68 158 -156 158s-156 -67 -156 -158s68 -158 156 -158z" />
    <glyph glyph-name="omacron" unicode="&#x14d;" horiz-adv-x="598" 
d="M159 575v89h280v-89h-280zM299 -13c-146 0 -264 115 -264 263c0 149 118 263 264 263c147 0 264 -114 264 -263c0 -148 -117 -263 -264 -263zM299 92c88 0 156 67 156 158s-68 158 -156 158s-156 -67 -156 -158s68 -158 156 -158z" />
    <glyph glyph-name="oslash" unicode="&#xf8;" horiz-adv-x="598" 
d="M493 431c43 -47 70 -110 70 -181c0 -148 -117 -263 -264 -263c-55 0 -106 16 -149 45l-34 -40l-51 29l41 48c-44 47 -71 110 -71 181c0 149 118 263 264 263c56 0 107 -16 150 -45l34 40l51 -29zM143 250c0 -39 12 -73 33 -100l203 237c-23 13 -50 21 -80 21
c-88 0 -156 -67 -156 -158zM299 92c88 0 156 67 156 158c0 38 -12 72 -33 99l-202 -236c23 -14 50 -21 79 -21z" />
    <glyph glyph-name="otilde" unicode="&#xf5;" horiz-adv-x="598" 
d="M139 572c0 147 89 164 169 110c43 -31 62 -36 62 23h89c0 -147 -88 -164 -168 -110c-44 31 -63 36 -63 -23h-89zM299 -13c-146 0 -264 115 -264 263c0 149 118 263 264 263c147 0 264 -114 264 -263c0 -148 -117 -263 -264 -263zM299 92c88 0 156 67 156 158
s-68 158 -156 158s-156 -67 -156 -158s68 -158 156 -158z" />
    <glyph glyph-name="oe" unicode="&#x153;" horiz-adv-x="1002" 
d="M568 204c18 -80 84 -118 158 -118c62 0 107 27 131 62l89 -52c-46 -68 -121 -109 -218 -109c-103 0 -179 48 -220 123c-41 -75 -116 -123 -211 -123c-150 0 -262 115 -262 263c0 149 112 263 262 263c95 0 170 -48 211 -122c40 74 115 122 215 122
c149 0 247 -120 247 -264c0 -15 -2 -31 -4 -45h-398zM567 293h294c-15 85 -77 122 -142 122c-80 0 -137 -47 -152 -122zM299 92c88 0 156 67 156 158s-68 158 -156 158c-91 0 -156 -67 -156 -158s65 -158 156 -158z" />
    <glyph glyph-name="p" unicode="p" 
d="M346 513c136 0 249 -115 249 -263c0 -149 -113 -263 -249 -263c-78 0 -137 32 -175 84v-271h-108v700h108v-72c38 53 97 85 175 85zM329 90c90 0 158 67 158 160s-68 160 -158 160s-158 -67 -158 -160s68 -160 158 -160z" />
    <glyph glyph-name="thorn" unicode="&#xfe;" 
d="M346 513c136 0 249 -114 249 -263c0 -148 -113 -263 -249 -263c-78 0 -137 32 -175 85v-272h-108v900h108v-271c38 52 97 84 175 84zM329 90c90 0 158 67 158 160s-68 160 -158 160s-158 -67 -158 -160s68 -160 158 -160z" />
    <glyph glyph-name="q" unicode="q" 
d="M459 500h108v-700h-108v271c-38 -52 -97 -84 -175 -84c-136 0 -249 114 -249 263c0 148 113 263 249 263c78 0 137 -32 175 -85v72zM301 90c90 0 158 67 158 160s-68 160 -158 160s-158 -67 -158 -160s68 -160 158 -160z" />
    <glyph glyph-name="r" unicode="r" horiz-adv-x="342" 
d="M171 416c30 68 91 93 154 93v-117c-71 5 -154 -28 -154 -140v-252h-108v500h108v-84z" />
    <glyph glyph-name="racute" unicode="&#x155;" horiz-adv-x="342" 
d="M330 700l-106 -135h-104l80 135h130zM171 416c30 68 91 93 154 93v-117c-71 5 -154 -28 -154 -140v-252h-108v500h108v-84z" />
    <glyph glyph-name="rcaron" unicode="&#x159;" horiz-adv-x="342" 
d="M131 560l-106 140h110l53 -73l52 73h110l-106 -140h-113zM171 416c30 68 91 93 154 93v-117c-71 5 -154 -28 -154 -140v-252h-108v500h108v-84z" />
    <glyph glyph-name="rcommaaccent" unicode="&#x157;" horiz-adv-x="342" 
d="M171 416c30 68 91 93 154 93v-117c-71 5 -154 -28 -154 -140v-252h-108v500h108v-84zM58 -255l10 190h103l-30 -190h-83z" />
    <glyph glyph-name="s" unicode="s" horiz-adv-x="461" 
d="M160 362c0 -91 269 -36 269 -221c0 -100 -87 -154 -195 -154c-100 0 -172 45 -204 117l93 54c16 -45 56 -72 111 -72c48 0 85 16 85 56c0 89 -269 39 -269 218c0 94 81 153 183 153c82 0 150 -38 185 -104l-91 -51c-18 39 -53 57 -94 57c-39 0 -73 -17 -73 -53z" />
    <glyph glyph-name="sacute" unicode="&#x15b;" horiz-adv-x="461" 
d="M371 705l-106 -135h-104l80 135h130zM160 362c0 -91 269 -36 269 -221c0 -100 -87 -154 -195 -154c-100 0 -172 45 -204 117l93 54c16 -45 56 -72 111 -72c48 0 85 16 85 56c0 89 -269 39 -269 218c0 94 81 153 183 153c82 0 150 -38 185 -104l-91 -51
c-18 39 -53 57 -94 57c-39 0 -73 -17 -73 -53z" />
    <glyph glyph-name="scaron" unicode="&#x161;" horiz-adv-x="461" 
d="M172 565l-106 140h110l53 -73l52 73h110l-106 -140h-113zM160 362c0 -91 269 -36 269 -221c0 -100 -87 -154 -195 -154c-100 0 -172 45 -204 117l93 54c16 -45 56 -72 111 -72c48 0 85 16 85 56c0 89 -269 39 -269 218c0 94 81 153 183 153c82 0 150 -38 185 -104
l-91 -51c-18 39 -53 57 -94 57c-39 0 -73 -17 -73 -53z" />
    <glyph glyph-name="scedilla" unicode="&#x15f;" horiz-adv-x="461" 
d="M429 141c0 -84 -62 -136 -146 -150v-37c42 -8 78 -34 78 -79c0 -56 -47 -101 -215 -91v79c82 -7 121 4 121 25c0 20 -28 28 -73 30v72c-79 10 -136 52 -164 114l93 54c16 -45 56 -72 111 -72c48 0 85 16 85 56c0 89 -269 39 -269 218c0 94 81 153 183 153
c82 0 150 -38 185 -104l-91 -51c-18 39 -53 57 -94 57c-39 0 -73 -17 -73 -53c0 -91 269 -36 269 -221z" />
    <glyph glyph-name="scommaaccent" unicode="&#x219;" horiz-adv-x="461" 
d="M160 362c0 -91 269 -36 269 -221c0 -100 -87 -154 -195 -154c-100 0 -172 45 -204 117l93 54c16 -45 56 -72 111 -72c48 0 85 16 85 56c0 89 -269 39 -269 218c0 94 81 153 183 153c82 0 150 -38 185 -104l-91 -51c-18 39 -53 57 -94 57c-39 0 -73 -17 -73 -53zM187 -255
l10 190h103l-30 -190h-83z" />
    <glyph glyph-name="germandbls" unicode="&#xdf;" horiz-adv-x="530" 
d="M283 -5v96c84 -7 122 18 122 68c0 77 -127 158 -127 233c0 56 71 90 71 148c0 43 -32 73 -82 73s-96 -28 -96 -102v-511h-108v510c0 126 84 203 208 203c117 0 186 -74 186 -160c0 -81 -69 -114 -69 -156c0 -62 125 -131 125 -253c0 -92 -63 -164 -230 -149z" />
    <glyph glyph-name="t" unicode="t" horiz-adv-x="382" 
d="M342 396h-124v-240c0 -64 42 -63 124 -59v-97c-166 -20 -232 26 -232 156v240h-92v104h92v108l108 32v-140h124v-104z" />
    <glyph glyph-name="tbar" unicode="&#x167;" horiz-adv-x="382" 
d="M342 396h-124v-98h86v-87h-86v-55c0 -64 42 -63 124 -59v-97c-166 -20 -232 26 -232 156v55h-61v87h61v98h-92v104h92v108l108 32v-140h124v-104z" />
    <glyph glyph-name="tcaron" unicode="&#x165;" horiz-adv-x="396" 
d="M276 723h103l-30 -175h-83zM218 640v-140h124v-104h-124v-240c0 -64 42 -63 124 -59v-97c-166 -20 -232 26 -232 156v240h-92v104h92v108z" />
    <glyph glyph-name="uni0163" unicode="&#x163;" horiz-adv-x="382" 
d="M342 396h-124v-240c0 -64 42 -63 124 -59v-97c-166 -20 -232 26 -232 156v240h-92v104h92v108l108 32v-140h124v-104zM173 -255l10 190h103l-30 -190h-83z" />
    <glyph glyph-name="uni021B" unicode="&#x21b;" horiz-adv-x="382" 
d="M342 396h-124v-240c0 -64 42 -63 124 -59v-97c-166 -20 -232 26 -232 156v240h-92v104h92v108l108 32v-140h124v-104zM173 -255l10 190h103l-30 -190h-83z" />
    <glyph glyph-name="u" unicode="u" horiz-adv-x="571" 
d="M400 500h108v-500h-108v64c-33 -52 -87 -77 -155 -77c-112 0 -192 76 -192 206v307h108v-296c0 -76 44 -116 112 -116c71 0 127 42 127 144v268z" />
    <glyph glyph-name="uacute" unicode="&#xfa;" horiz-adv-x="571" 
d="M420 700l-106 -135h-104l80 135h130zM400 500h108v-500h-108v64c-33 -52 -87 -77 -155 -77c-112 0 -192 76 -192 206v307h108v-296c0 -76 44 -116 112 -116c71 0 127 42 127 144v268z" />
    <glyph glyph-name="ucircumflex" unicode="&#xfb;" horiz-adv-x="571" 
d="M278 634l-53 -74h-110l106 140h113l106 -140h-110zM400 500h108v-500h-108v64c-33 -52 -87 -77 -155 -77c-112 0 -192 76 -192 206v307h108v-296c0 -76 44 -116 112 -116c71 0 127 42 127 144v268z" />
    <glyph glyph-name="udieresis" unicode="&#xfc;" horiz-adv-x="571" 
d="M185 558c-33 0 -60 27 -60 60s27 60 60 60s60 -27 60 -60s-27 -60 -60 -60zM375 558c-33 0 -60 27 -60 60s27 60 60 60s60 -27 60 -60s-27 -60 -60 -60zM400 500h108v-500h-108v64c-33 -52 -87 -77 -155 -77c-112 0 -192 76 -192 206v307h108v-296
c0 -76 44 -116 112 -116c71 0 127 42 127 144v268z" />
    <glyph glyph-name="ugrave" unicode="&#xf9;" horiz-adv-x="571" 
d="M355 565h-104l-106 135h130zM400 500h108v-500h-108v64c-33 -52 -87 -77 -155 -77c-112 0 -192 76 -192 206v307h108v-296c0 -76 44 -116 112 -116c71 0 127 42 127 144v268z" />
    <glyph glyph-name="uhungarumlaut" unicode="&#x171;" horiz-adv-x="571" 
d="M309 695l-81 -135h-108l75 135h114zM391 560h-108l85 135h114zM400 500h108v-500h-108v64c-33 -52 -87 -77 -155 -77c-112 0 -192 76 -192 206v307h108v-296c0 -76 44 -116 112 -116c71 0 127 42 127 144v268z" />
    <glyph glyph-name="umacron" unicode="&#x16b;" horiz-adv-x="571" 
d="M420 659v-89h-280v89h280zM400 500h108v-500h-108v64c-33 -52 -87 -77 -155 -77c-112 0 -192 76 -192 206v307h108v-296c0 -76 44 -116 112 -116c71 0 127 42 127 144v268z" />
    <glyph glyph-name="uogonek" unicode="&#x173;" horiz-adv-x="571" 
d="M508 0c-37 -37 -60 -78 -60 -105c-1 -19 10 -28 28 -28c10 -1 21 2 32 6v-72c-22 -9 -44 -14 -73 -14c-55 0 -91 30 -91 83c0 37 22 81 64 130h-8v64c-33 -52 -87 -77 -155 -77c-112 0 -192 76 -192 206v307h108v-296c0 -76 44 -116 112 -116c71 0 127 42 127 144v268
h108v-500z" />
    <glyph glyph-name="uring" unicode="&#x16f;" horiz-adv-x="571" 
d="M280 543c-70 0 -119 48 -119 112s49 113 119 113c72 0 120 -49 120 -113s-48 -112 -120 -112zM280 697c-28 0 -43 -18 -43 -42c0 -23 15 -41 43 -41c29 0 44 18 44 41c0 24 -15 42 -44 42zM400 500h108v-500h-108v64c-33 -52 -87 -77 -155 -77c-112 0 -192 76 -192 206
v307h108v-296c0 -76 44 -116 112 -116c71 0 127 42 127 144v268z" />
    <glyph glyph-name="v" unicode="v" horiz-adv-x="525" 
d="M402 500h118l-195 -500h-125l-195 500h118l140 -380z" />
    <glyph glyph-name="w" unicode="w" horiz-adv-x="770" 
d="M639 500h114l-157 -500h-106l-104 337l-105 -337h-106l-157 500h114l97 -345l105 345h103l104 -345z" />
    <glyph glyph-name="wacute" unicode="&#x1e83;" horiz-adv-x="770" 
d="M525 700l-106 -135h-104l80 135h130zM639 500h114l-157 -500h-106l-104 337l-105 -337h-106l-157 500h114l97 -345l105 345h103l104 -345z" />
    <glyph glyph-name="wcircumflex" unicode="&#x175;" horiz-adv-x="770" 
d="M383 634l-53 -74h-110l106 140h113l106 -140h-110zM639 500h114l-157 -500h-106l-104 337l-105 -337h-106l-157 500h114l97 -345l105 345h103l104 -345z" />
    <glyph glyph-name="wdieresis" unicode="&#x1e85;" horiz-adv-x="770" 
d="M290 558c-33 0 -60 27 -60 60s27 60 60 60s60 -27 60 -60s-27 -60 -60 -60zM480 558c-33 0 -60 27 -60 60s27 60 60 60s60 -27 60 -60s-27 -60 -60 -60zM639 500h114l-157 -500h-106l-104 337l-105 -337h-106l-157 500h114l97 -345l105 345h103l104 -345z" />
    <glyph glyph-name="wgrave" unicode="&#x1e81;" horiz-adv-x="770" 
d="M460 565h-104l-106 135h130zM639 500h114l-157 -500h-106l-104 337l-105 -337h-106l-157 500h114l97 -345l105 345h103l104 -345z" />
    <glyph glyph-name="x" unicode="x" horiz-adv-x="520" 
d="M510 0h-125l-124 171l-125 -171h-126l188 257l-178 243h125l115 -158l115 158h126l-178 -244z" />
    <glyph glyph-name="y" unicode="y" horiz-adv-x="520" 
d="M400 500h115l-192 -516c-47 -127 -129 -191 -244 -184v101c70 -4 108 32 133 98l5 10l-212 491h118l149 -363z" />
    <glyph glyph-name="yacute" unicode="&#xfd;" horiz-adv-x="520" 
d="M400 700l-106 -135h-104l80 135h130zM400 500h115l-192 -516c-47 -127 -129 -191 -244 -184v101c70 -4 108 32 133 98l5 10l-212 491h118l149 -363z" />
    <glyph glyph-name="ycircumflex" unicode="&#x177;" horiz-adv-x="520" 
d="M258 634l-53 -74h-110l106 140h113l106 -140h-110zM400 500h115l-192 -516c-47 -127 -129 -191 -244 -184v101c70 -4 108 32 133 98l5 10l-212 491h118l149 -363z" />
    <glyph glyph-name="ydieresis" unicode="&#xff;" horiz-adv-x="520" 
d="M165 558c-33 0 -60 27 -60 60s27 60 60 60s60 -27 60 -60s-27 -60 -60 -60zM355 558c-33 0 -60 27 -60 60s27 60 60 60s60 -27 60 -60s-27 -60 -60 -60zM400 500h115l-192 -516c-47 -127 -129 -191 -244 -184v101c70 -4 108 32 133 98l5 10l-212 491h118l149 -363z" />
    <glyph glyph-name="ygrave" unicode="&#x1ef3;" horiz-adv-x="520" 
d="M335 565h-104l-106 135h130zM400 500h115l-192 -516c-47 -127 -129 -191 -244 -184v101c70 -4 108 32 133 98l5 10l-212 491h118l149 -363z" />
    <glyph glyph-name="z" unicode="z" horiz-adv-x="473" 
d="M192 102h243v-102h-390v72l234 326h-224v102h370v-72z" />
    <glyph glyph-name="zacute" unicode="&#x17a;" horiz-adv-x="473" 
d="M381 700l-106 -135h-104l80 135h130zM192 102h243v-102h-390v72l234 326h-224v102h370v-72z" />
    <glyph glyph-name="zcaron" unicode="&#x17e;" horiz-adv-x="473" 
d="M182 560l-106 140h110l53 -73l52 73h110l-106 -140h-113zM192 102h243v-102h-390v72l234 326h-224v102h370v-72z" />
    <glyph glyph-name="zdotaccent" unicode="&#x17c;" horiz-adv-x="473" 
d="M241 558c-38 0 -70 31 -70 70c0 38 32 70 70 70c39 0 70 -32 70 -70c0 -39 -31 -70 -70 -70zM192 102h243v-102h-390v72l234 326h-224v102h370v-72z" />
    <glyph glyph-name="f_f_j" horiz-adv-x="818" 
d="M756 500v-520c0 -138 -69 -203 -205 -193v104c66 -6 97 19 97 89v416h-166v-396h-108v396h-167v-396h-108v396h-76v104h76v10c0 135 76 213 226 203v-104c-76 7 -118 -22 -118 -99v-10h167v20c0 135 76 203 226 203c36 0 71 -4 111 -13v-99c-40 6 -76 8 -111 8
c-76 0 -118 -22 -118 -99v-20h274z" />
    <glyph glyph-name="f_j" horiz-adv-x="543" 
d="M481 500v-520c0 -138 -69 -203 -205 -193v104c66 -6 97 19 97 89v416h-166v-396h-108v396h-76v104h76v10c0 135 76 203 226 203c36 0 71 -4 111 -13v-99c-40 6 -76 8 -111 8c-76 0 -118 -22 -118 -99v-10h274z" />
    <glyph glyph-name="uni0410" unicode="&#x410;" horiz-adv-x="655" 
d="M526 0l-49 141h-298l-49 -141h-125l254 700h138l253 -700h-124zM217 249h222l-111 316z" />
    <glyph glyph-name="uni0411" unicode="&#x411;" horiz-adv-x="585" 
d="M335 430c130 0 225 -91 225 -215s-95 -215 -225 -215h-265v700h430v-110h-315v-160h150zM335 108c61 0 110 42 110 107s-49 107 -110 107h-150v-214h150z" />
    <glyph glyph-name="uni0412" unicode="&#x412;" horiz-adv-x="610" 
d="M482 363c59 -31 98 -88 98 -163c0 -116 -94 -200 -210 -200h-300v700h278c113 0 205 -82 205 -194c0 -61 -27 -111 -71 -143zM348 592h-163v-184h163c51 0 90 40 90 92s-39 92 -90 92zM370 108c54 0 95 43 95 98s-41 98 -95 98h-185v-196h185z" />
    <glyph glyph-name="uni0413" unicode="&#x413;" horiz-adv-x="480" 
d="M465 700v-110h-280v-590h-115v700h395z" />
    <glyph glyph-name="uni0403" unicode="&#x403;" horiz-adv-x="480" 
d="M411 899l-106 -135h-104l80 135h130zM465 700v-110h-280v-590h-115v700h395z" />
    <glyph glyph-name="uni0490" unicode="&#x490;" horiz-adv-x="480" 
d="M350 820h115v-230h-280v-590h-115v700h280v120z" />
    <glyph glyph-name="uni0414" unicode="&#x414;" horiz-adv-x="700" 
d="M595 110h75v-244h-115v134h-425v-134h-115v244h65c35 46 61 114 61 241v349h454v-590zM206 110h274v482h-224v-243c0 -123 -23 -194 -50 -239z" />
    <glyph glyph-name="uni0415" unicode="&#x415;" horiz-adv-x="530" 
d="M185 110h310v-110h-425v700h420v-110h-305v-182h280v-109h-280v-189z" />
    <glyph glyph-name="uni0401" unicode="&#x401;" horiz-adv-x="530" 
d="M186 758c-33 0 -60 27 -60 60s27 60 60 60s60 -27 60 -60s-27 -60 -60 -60zM376 758c-33 0 -60 27 -60 60s27 60 60 60s60 -27 60 -60s-27 -60 -60 -60zM185 110h310v-110h-425v700h420v-110h-305v-182h280v-109h-280v-189z" />
    <glyph glyph-name="uni0416" unicode="&#x416;" horiz-adv-x="886" 
d="M871 0h-129l-241 328v-328h-115v328l-241 -328h-130l262 358l-252 342h130l231 -318v318h115v-318l231 318h129l-251 -342z" />
    <glyph glyph-name="uni0417" unicode="&#x417;" horiz-adv-x="563" 
d="M426 363c67 -32 107 -91 107 -169c0 -123 -102 -207 -251 -207c-144 0 -220 73 -254 162l99 57c16 -57 57 -111 155 -111c90 0 136 43 136 105c0 61 -45 104 -128 104h-85v104h62c80 0 125 40 125 99c0 58 -39 98 -116 98c-81 0 -121 -45 -140 -95l-98 57
c38 81 110 146 238 146c137 0 231 -82 231 -200c0 -66 -30 -118 -81 -150z" />
    <glyph glyph-name="uni0418" unicode="&#x418;" horiz-adv-x="675" 
d="M490 0v475l-330 -475h-90v700h115v-475l330 475h90v-700h-115z" />
    <glyph glyph-name="uni0419" unicode="&#x419;" horiz-adv-x="675" 
d="M198 770v94h280v-94h-280zM490 0v475l-330 -475h-90v700h115v-475l330 475h90v-700h-115z" />
    <glyph glyph-name="uni041A" unicode="&#x41a;" horiz-adv-x="603" 
d="M598 0h-137l-276 333v-333h-115v700h115v-314l266 314h137l-283 -341z" />
    <glyph glyph-name="uni040C" unicode="&#x40c;" horiz-adv-x="603" 
d="M441 899l-106 -135h-104l80 135h130zM598 0h-137l-276 333v-333h-115v700h115v-314l266 314h137l-283 -341z" />
    <glyph glyph-name="uni041B" unicode="&#x41b;" horiz-adv-x="683" 
d="M13 0v106c82 -11 131 27 131 189v405h469v-700h-115v590h-239v-293c0 -255 -116 -310 -246 -297z" />
    <glyph glyph-name="uni041C" unicode="&#x41c;" horiz-adv-x="810" 
d="M740 700v-700h-115v499l-213 -352h-14l-213 353v-500h-115v700h124l211 -350l212 350h123z" />
    <glyph glyph-name="uni041D" unicode="&#x41d;" horiz-adv-x="670" 
d="M485 700h115v-700h-115v303h-300v-303h-115v700h115v-287h300v287z" />
    <glyph glyph-name="uni041E" unicode="&#x41e;" horiz-adv-x="796" 
d="M398 -13c-202 0 -363 160 -363 363s161 363 363 363c203 0 363 -160 363 -363s-160 -363 -363 -363zM398 99c140 0 248 107 248 251s-108 251 -248 251s-248 -107 -248 -251s108 -251 248 -251z" />
    <glyph glyph-name="uni041F" unicode="&#x41f;" horiz-adv-x="655" 
d="M585 700v-700h-115v590h-285v-590h-115v700h515z" />
    <glyph glyph-name="uni0420" unicode="&#x420;" horiz-adv-x="590" 
d="M328 700c132 0 232 -100 232 -230c0 -129 -100 -230 -232 -230h-143v-240h-115v700h258zM328 348c68 0 117 52 117 122c0 71 -49 122 -117 122h-143v-244h143z" />
    <glyph glyph-name="uni0421" unicode="&#x421;" horiz-adv-x="732" 
d="M401 -13c-213 0 -366 160 -366 363s153 363 366 363c128 0 242 -65 301 -167l-100 -58c-37 69 -113 113 -201 113c-151 0 -251 -107 -251 -251s100 -251 251 -251c88 0 165 44 201 113l100 -57c-58 -102 -172 -168 -301 -168z" />
    <glyph glyph-name="uni0422" unicode="&#x422;" horiz-adv-x="540" 
d="M525 700v-110h-197v-590h-115v590h-198v110h510z" />
    <glyph glyph-name="uni0423" unicode="&#x423;" horiz-adv-x="590" 
d="M464 700h116l-217 -520c-55 -131 -140 -187 -259 -180v107c81 -8 125 26 154 98l-233 495h116l170 -369z" />
    <glyph glyph-name="uni040E" unicode="&#x40e;" horiz-adv-x="590" 
d="M439 863v-94h-280v94h280zM464 700h116l-217 -520c-55 -131 -140 -187 -259 -180v107c81 -8 125 26 154 98l-233 495h116l170 -369z" />
    <glyph glyph-name="uni0424" unicode="&#x424;" horiz-adv-x="814" 
d="M789 350c0 -164 -132 -264 -325 -280v-80h-113v80c-194 16 -326 115 -326 280s132 264 326 280v80h113v-80c193 -16 325 -116 325 -280zM140 350c0 -106 78 -163 211 -175v350c-133 -12 -211 -68 -211 -175zM464 175c132 13 210 69 210 175c0 107 -78 163 -210 175v-350z
" />
    <glyph glyph-name="uni0425" unicode="&#x425;" horiz-adv-x="600" 
d="M585 0h-131l-154 253l-154 -253h-131l220 360l-207 340h130l142 -233l142 233h131l-207 -340z" />
    <glyph glyph-name="uni0427" unicode="&#x427;" 
d="M445 700h115v-700h-115v269c-51 -23 -99 -33 -154 -33c-138 0 -236 83 -236 214v250h115v-238c0 -72 47 -116 123 -116c56 0 103 10 152 34v320z" />
    <glyph glyph-name="uni0426" unicode="&#x426;" horiz-adv-x="690" 
d="M585 110h75v-244h-115v134h-475v700h115v-590h285v590h115v-590z" />
    <glyph glyph-name="uni0428" unicode="&#x428;" horiz-adv-x="945" 
d="M760 700h115v-700h-805v700h115v-590h230v590h115v-590h230v590z" />
    <glyph glyph-name="uni0429" unicode="&#x429;" horiz-adv-x="980" 
d="M875 110h75v-244h-115v134h-765v700h115v-590h230v590h115v-590h230v590h115v-590z" />
    <glyph glyph-name="uni040F" unicode="&#x40f;" horiz-adv-x="655" 
d="M470 700h115v-700h-200v-134h-115v134h-200v700h115v-590h285v590z" />
    <glyph glyph-name="uni042C" unicode="&#x42c;" horiz-adv-x="590" 
d="M328 460c132 0 232 -101 232 -230c0 -130 -100 -230 -232 -230h-258v700h115v-240h143zM328 108c68 0 117 51 117 122c0 70 -49 122 -117 122h-143v-244h143z" />
    <glyph glyph-name="uni042A" unicode="&#x42a;" horiz-adv-x="695" 
d="M175 0v590h-175v110h290v-240h143c132 0 232 -101 232 -230s-100 -230 -232 -230h-258zM290 108h143c68 0 117 52 117 122s-49 122 -117 122h-143v-244z" />
    <glyph glyph-name="uni042B" unicode="&#x42b;" horiz-adv-x="813" 
d="M70 0v700h115v-240h143c132 0 232 -101 232 -230s-100 -230 -232 -230h-258zM628 0v700h115v-700h-115zM185 108h143c68 0 117 52 117 122s-49 122 -117 122h-143v-244z" />
    <glyph glyph-name="uni0409" unicode="&#x409;" horiz-adv-x="973" 
d="M715 425c127 0 228 -88 228 -212c0 -125 -101 -213 -228 -213h-237v590h-219v-293c0 -255 -116 -310 -246 -299v107c82 -11 131 28 131 190v405h449v-275h122zM715 108c63 0 113 39 113 105c0 65 -50 104 -113 104h-122v-209h122z" />
    <glyph glyph-name="uni040A" unicode="&#x40a;" horiz-adv-x="965" 
d="M708 425c127 0 227 -88 227 -212c0 -125 -100 -213 -227 -213h-238v317h-285v-317h-115v700h115v-275h285v275h115v-275h123zM708 108c63 0 112 39 112 105c0 65 -49 104 -112 104h-123v-209h123z" />
    <glyph glyph-name="uni0405" unicode="&#x405;" horiz-adv-x="581" 
d="M303 -13c-138 0 -233 68 -270 172l99 58c25 -71 79 -118 174 -118c91 0 130 41 130 92c0 62 -55 83 -159 115c-109 33 -215 73 -215 205c0 129 107 202 225 202c115 0 200 -61 244 -154l-97 -56c-25 56 -69 98 -147 98c-67 0 -110 -34 -110 -87c0 -54 39 -77 141 -109
c116 -37 233 -73 233 -212c0 -128 -102 -206 -248 -206z" />
    <glyph glyph-name="uni0404" unicode="&#x404;" horiz-adv-x="730" 
d="M398 99c88 0 165 44 202 113l100 -57c-59 -102 -172 -168 -302 -168c-213 0 -363 160 -363 363s150 363 363 363c129 0 242 -65 302 -167l-100 -58c-37 69 -114 113 -202 113c-131 0 -222 -81 -243 -197h336v-108h-336c21 -116 112 -197 243 -197z" />
    <glyph glyph-name="uni042D" unicode="&#x42d;" horiz-adv-x="730" 
d="M332 713c213 0 363 -160 363 -363s-150 -363 -363 -363c-130 0 -243 66 -302 168l100 57c37 -69 114 -113 202 -113c131 0 222 81 243 197h-336v108h336c-21 116 -112 197 -243 197c-88 0 -165 -44 -202 -113l-100 58c60 102 173 167 302 167z" />
    <glyph glyph-name="uni0406" unicode="&#x406;" horiz-adv-x="255" 
d="M70 700h115v-700h-115v700z" />
    <glyph glyph-name="uni0407" unicode="&#x407;" horiz-adv-x="255" 
d="M33 758c-33 0 -60 27 -60 60s27 60 60 60s60 -27 60 -60s-27 -60 -60 -60zM223 758c-33 0 -60 27 -60 60s27 60 60 60s60 -27 60 -60s-27 -60 -60 -60zM70 700h115v-700h-115v700z" />
    <glyph glyph-name="uni0408" unicode="&#x408;" horiz-adv-x="564" 
d="M260 -13c-102 0 -184 43 -225 128l99 58c23 -50 63 -74 127 -74c80 0 125 41 125 113v488h115v-488c0 -149 -107 -225 -241 -225z" />
    <glyph glyph-name="uni040B" unicode="&#x40b;" horiz-adv-x="707" 
d="M458 468c111 0 189 -64 189 -193v-275h-115v266c0 70 -38 98 -93 98c-47 0 -86 -8 -126 -24v-340h-115v590h-183v110h505v-110h-207v-148c48 17 92 26 145 26z" />
    <glyph glyph-name="uni042E" unicode="&#x42e;" horiz-adv-x="1050" 
d="M652 713c203 0 363 -160 363 -363c0 -202 -160 -363 -363 -363c-187 0 -335 137 -356 318h-111v-305h-115v700h115v-285h114c29 171 173 298 353 298zM652 99c140 0 248 107 248 251s-108 251 -248 251s-248 -105 -248 -251c0 -144 108 -251 248 -251z" />
    <glyph glyph-name="uni042F" unicode="&#x42f;" horiz-adv-x="623" 
d="M553 700v-700h-115v255h-111l-169 -255h-130l178 265c-92 28 -158 113 -158 210c0 125 100 225 225 225h280zM273 358h165v234h-165c-61 0 -110 -51 -110 -117c0 -65 49 -117 110 -117z" />
    <glyph glyph-name="uni0402" unicode="&#x402;" horiz-adv-x="702" 
d="M458 468c111 0 189 -64 189 -193v-91c0 -138 -69 -203 -205 -193v107c66 -6 90 19 90 86v82c0 70 -38 98 -93 98c-47 0 -86 -8 -126 -24v-340h-115v590h-183v110h505v-110h-207v-148c48 17 92 26 145 26z" />
    <glyph glyph-name="uni0414.loclBGR" horiz-adv-x="720" 
d="M625 110h75v-244h-115v134h-450v-134h-115v244h75l196 590h138zM216 110h289l-145 457z" />
    <glyph glyph-name="uni041B.loclBGR" horiz-adv-x="634" 
d="M248 700h138l243 -700h-125l-187 561l-186 -561h-126z" />
    <glyph glyph-name="uni0424.loclBGR" horiz-adv-x="854" 
d="M819 350c0 -202 -134 -339 -337 -359v-91h-110v91c-203 20 -337 157 -337 359s134 339 337 359v91h110v-91c203 -20 337 -157 337 -359zM150 350c0 -143 79 -235 222 -254v508c-143 -19 -222 -111 -222 -254zM482 96c143 19 222 111 222 254s-79 235 -222 254v-508z" />
    <glyph glyph-name="uni0414.ss01" horiz-adv-x="700" 
d="M595 110h75v-110h-655v110h65c35 46 61 114 61 241v349h454v-590zM206 110h274v482h-224v-243c0 -123 -23 -194 -50 -239z" />
    <glyph glyph-name="uni0426.ss01" horiz-adv-x="690" 
d="M585 110h75v-110h-590v700h115v-590h285v590h115v-590z" />
    <glyph glyph-name="uni0429.ss01" horiz-adv-x="980" 
d="M875 110h75v-110h-880v700h115v-590h230v590h115v-590h230v590h115v-590z" />
    <glyph glyph-name="uni0414.loclBGR.ss01" horiz-adv-x="720" 
d="M625 110h75v-110h-680v110h75l196 590h138zM216 110h289l-145 457z" />
    <glyph glyph-name="uni0430" unicode="&#x430;" 
d="M459 500h108v-500h-108v72c-38 -53 -97 -85 -175 -85c-136 0 -249 115 -249 263c0 149 113 263 249 263c78 0 137 -32 175 -84v71zM301 90c90 0 158 67 158 160s-68 160 -158 160s-158 -67 -158 -160s68 -160 158 -160z" />
    <glyph glyph-name="uni0431" unicode="&#x431;" horiz-adv-x="567" 
d="M295 -13c-154 0 -260 111 -260 265c0 161 31 244 192 323c105 51 170 65 190 143l88 -51c-18 -92 -101 -124 -203 -166c-91 -36 -123 -69 -139 -122c43 49 108 68 163 68c112 0 219 -87 219 -226c0 -135 -101 -234 -250 -234zM294 88c84 0 143 56 143 133
c0 78 -57 135 -142 135c-69 0 -146 -46 -146 -130c0 -81 64 -138 145 -138z" />
    <glyph glyph-name="uni0432" unicode="&#x432;" horiz-adv-x="508" 
d="M409 257c48 -22 74 -63 74 -115c0 -80 -55 -142 -164 -142h-256v500h236c106 0 162 -59 162 -138c0 -45 -17 -82 -52 -105zM291 408h-125v-111h125c43 0 66 19 66 56c0 36 -24 55 -66 55zM309 94c43 0 68 21 68 59c0 35 -25 55 -68 55h-143v-114h143z" />
    <glyph glyph-name="uni0433" unicode="&#x433;" horiz-adv-x="408" 
d="M398 500v-104h-227v-396h-108v500h335z" />
    <glyph glyph-name="uni0453" unicode="&#x453;" horiz-adv-x="408" 
d="M351 700l-106 -135h-104l80 135h130zM398 500v-104h-227v-396h-108v500h335z" />
    <glyph glyph-name="uni0491" unicode="&#x491;" horiz-adv-x="408" 
d="M292 602h106v-206h-227v-396h-108v500h229v102z" />
    <glyph glyph-name="uni0434" unicode="&#x434;" horiz-adv-x="595" 
d="M503 102h67v-236h-106v134h-343v-134h-106v236h61c29 41 46 89 46 181v217h381v-398zM195 102h202v299h-169v-118c0 -78 -12 -134 -33 -181z" />
    <glyph glyph-name="uni0435" unicode="&#x435;" horiz-adv-x="582" 
d="M148 204c17 -78 80 -118 160 -118c60 0 105 27 129 62l89 -52c-46 -68 -121 -109 -219 -109c-165 0 -272 113 -272 263c0 148 107 263 264 263c149 0 251 -120 251 -264c0 -15 -2 -31 -4 -45h-398zM147 292h294c-15 86 -78 123 -143 123c-81 0 -136 -48 -151 -123z" />
    <glyph glyph-name="uni0451" unicode="&#x451;" horiz-adv-x="582" 
d="M198 561c-33 0 -60 27 -60 60s27 60 60 60s60 -27 60 -60s-27 -60 -60 -60zM388 561c-33 0 -60 27 -60 60s27 60 60 60s60 -27 60 -60s-27 -60 -60 -60zM148 204c17 -78 80 -118 160 -118c60 0 105 27 129 62l89 -52c-46 -68 -121 -109 -219 -109
c-165 0 -272 113 -272 263c0 148 107 263 264 263c149 0 251 -120 251 -264c0 -15 -2 -31 -4 -45h-398zM147 292h294c-15 86 -78 123 -143 123c-81 0 -136 -48 -151 -123z" />
    <glyph glyph-name="uni0436" unicode="&#x436;" horiz-adv-x="722" 
d="M707 0h-123l-170 231v-231h-106v229l-170 -229h-123l195 255l-185 245h123l160 -219v219h106v-220l160 220h123l-185 -245z" />
    <glyph glyph-name="uni0437" unicode="&#x437;" horiz-adv-x="449" 
d="M344 256c51 -23 80 -67 80 -119c0 -80 -67 -150 -197 -150c-108 0 -172 47 -204 120l88 52c16 -45 53 -75 117 -75c58 0 90 27 90 64c0 34 -26 57 -72 57h-71v95h53c45 0 70 22 70 58c0 35 -30 59 -77 59c-48 0 -84 -21 -104 -66l-88 50c36 72 101 112 190 112
c116 0 183 -69 183 -146c0 -47 -19 -87 -58 -111z" />
    <glyph glyph-name="uni0438" unicode="&#x438;" horiz-adv-x="570" 
d="M425 500h83v-500h-106v318l-256 -318h-83v500h106v-317z" />
    <glyph glyph-name="uni0439" unicode="&#x439;" horiz-adv-x="570" 
d="M145 570v94h280v-94h-280zM425 500h83v-500h-106v318l-256 -318h-83v500h106v-317z" />
    <glyph glyph-name="uni043A" unicode="&#x43a;" horiz-adv-x="515" 
d="M505 0h-129l-205 231v-231h-108v500h108v-221l194 221h132l-220 -245z" />
    <glyph glyph-name="uni045C" unicode="&#x45c;" horiz-adv-x="515" 
d="M401 700l-106 -135h-104l80 135h130zM505 0h-129l-205 231v-231h-108v500h108v-221l194 221h132l-220 -245z" />
    <glyph glyph-name="uni043B" unicode="&#x43b;" horiz-adv-x="548" 
d="M485 500v-500h-108v396h-167v-186c0 -164 -77 -222 -200 -210v101c59 -10 92 20 92 114v285h383z" />
    <glyph glyph-name="uni043C" unicode="&#x43c;" horiz-adv-x="635" 
d="M573 500v-500h-105v329l-144 -229h-13l-143 228v-328h-105v500h110l145 -231l145 231h110z" />
    <glyph glyph-name="uni043D" unicode="&#x43d;" horiz-adv-x="570" 
d="M400 500h108v-500h-108v199h-229v-199h-108v500h108v-199h229v199z" />
    <glyph glyph-name="uni043E" unicode="&#x43e;" horiz-adv-x="598" 
d="M299 -13c-146 0 -264 115 -264 263c0 149 118 263 264 263c147 0 264 -114 264 -263c0 -148 -117 -263 -264 -263zM299 92c88 0 156 67 156 158s-68 158 -156 158s-156 -67 -156 -158s68 -158 156 -158z" />
    <glyph glyph-name="uni043F" unicode="&#x43f;" horiz-adv-x="570" 
d="M508 500v-500h-108v398h-229v-398h-108v500h445z" />
    <glyph glyph-name="uni0440" unicode="&#x440;" 
d="M346 513c136 0 249 -115 249 -263c0 -149 -113 -263 -249 -263c-78 0 -137 32 -175 84v-271h-108v700h108v-72c38 53 97 85 175 85zM329 90c90 0 158 67 158 160s-68 160 -158 160s-158 -67 -158 -160s68 -160 158 -160z" />
    <glyph glyph-name="uni0441" unicode="&#x441;" horiz-adv-x="542" 
d="M299 -13c-151 0 -264 115 -264 263c0 149 113 263 264 263c98 0 183 -51 223 -129l-93 -54c-22 47 -71 77 -131 77c-88 0 -155 -67 -155 -157s67 -157 155 -157c60 0 109 31 133 77l93 -53c-42 -79 -127 -130 -225 -130z" />
    <glyph glyph-name="uni0442" unicode="&#x442;" horiz-adv-x="455" 
d="M445 500v-104h-163v-396h-108v396h-164v104h435z" />
    <glyph glyph-name="uni0443" unicode="&#x443;" horiz-adv-x="520" 
d="M400 500h115l-192 -516c-47 -127 -134 -191 -244 -184v101c70 -4 108 29 133 96l3 7l-210 496h115l152 -364z" />
    <glyph glyph-name="uni045E" unicode="&#x45e;" horiz-adv-x="520" 
d="M400 664v-94h-280v94h280zM400 500h115l-192 -516c-47 -127 -134 -191 -244 -184v101c70 -4 108 29 133 96l3 7l-210 496h115l152 -364z" />
    <glyph glyph-name="uni0444" unicode="&#x444;" horiz-adv-x="680" 
d="M645 250c0 -134 -95 -239 -252 -259v-191h-106v191c-157 20 -252 125 -252 259s95 239 252 259v191h106v-191c157 -20 252 -125 252 -259zM393 94c94 17 145 78 145 156s-51 139 -145 156v-312zM142 250c0 -78 52 -139 145 -156v312c-93 -17 -145 -78 -145 -156z" />
    <glyph glyph-name="uni0445" unicode="&#x445;" horiz-adv-x="520" 
d="M510 0h-125l-124 171l-125 -171h-126l188 257l-178 243h125l115 -158l115 158h126l-178 -244z" />
    <glyph glyph-name="uni0447" unicode="&#x447;" horiz-adv-x="538" 
d="M367 500h108v-500h-108v169c-38 -14 -80 -22 -126 -22c-121 0 -201 59 -201 181v172h108v-162c0 -68 43 -90 107 -90c41 0 80 8 112 23v229z" />
    <glyph glyph-name="uni0446" unicode="&#x446;" horiz-adv-x="600" 
d="M493 102h82v-236h-106v134h-406v500h108v-398h214v398h108v-398z" />
    <glyph glyph-name="uni0448" unicode="&#x448;" horiz-adv-x="825" 
d="M655 500h108v-500h-700v500h108v-398h188v398h108v-398h188v398z" />
    <glyph glyph-name="uni0449" unicode="&#x449;" horiz-adv-x="845" 
d="M753 102h67v-236h-106v134h-651v500h108v-398h183v398h108v-398h183v398h108v-398z" />
    <glyph glyph-name="uni045F" unicode="&#x45f;" horiz-adv-x="570" 
d="M400 500h108v-500h-170v-134h-106v134h-169v500h108v-398h229v398z" />
    <glyph glyph-name="uni044C" unicode="&#x44c;" horiz-adv-x="488" 
d="M281 330c106 0 182 -66 182 -165c0 -98 -76 -165 -182 -165h-218v500h108v-170h110zM282 97c42 0 75 27 75 68c0 42 -33 68 -75 68h-111v-136h111z" />
    <glyph glyph-name="uni044A" unicode="&#x44a;" horiz-adv-x="563" 
d="M356 330c106 0 182 -66 182 -165c0 -98 -76 -165 -182 -165h-218v396h-138v104h246v-170h110zM357 97c42 0 75 27 75 68c0 42 -33 68 -75 68h-111v-136h111z" />
    <glyph glyph-name="uni044B" unicode="&#x44b;" horiz-adv-x="693" 
d="M281 330c106 0 182 -66 182 -165c0 -98 -76 -165 -182 -165h-218v500h108v-170h110zM523 500h108v-500h-108v500zM282 97c42 0 75 27 75 68c0 42 -33 68 -75 68h-111v-136h111z" />
    <glyph glyph-name="uni0459" unicode="&#x459;" horiz-adv-x="772" 
d="M581 315c98 0 166 -59 166 -157c0 -99 -69 -158 -166 -158h-214v396h-157v-186c0 -164 -77 -222 -200 -214v101c59 -6 92 24 92 118v285h373v-185h106zM581 97c35 0 65 19 65 61c0 41 -30 60 -65 60h-106v-121h106z" />
    <glyph glyph-name="uni045A" unicode="&#x45a;" horiz-adv-x="790" 
d="M593 315c99 0 172 -59 172 -157c0 -99 -75 -158 -172 -158h-213v213h-214v-213h-108v500h108v-185h214v185h108v-185h105zM594 97c34 0 65 19 65 61c0 41 -31 60 -65 60h-106v-121h106z" />
    <glyph glyph-name="uni0455" unicode="&#x455;" horiz-adv-x="461" 
d="M160 362c0 -91 269 -36 269 -221c0 -100 -87 -154 -195 -154c-100 0 -172 45 -204 117l93 54c16 -45 56 -72 111 -72c48 0 85 16 85 56c0 89 -269 39 -269 218c0 94 81 153 183 153c82 0 150 -38 185 -104l-91 -51c-18 39 -53 57 -94 57c-39 0 -73 -17 -73 -53z" />
    <glyph glyph-name="uni0454" unicode="&#x454;" horiz-adv-x="538" 
d="M431 170l92 -52c-39 -79 -122 -131 -229 -131c-153 0 -259 110 -259 263c0 154 105 263 258 263c102 0 186 -50 228 -129l-93 -53c-22 46 -70 79 -136 79c-72 0 -125 -45 -143 -110h198v-99h-198c18 -64 72 -110 144 -110s119 33 138 79z" />
    <glyph glyph-name="uni044D" unicode="&#x44d;" horiz-adv-x="538" 
d="M245 513c153 0 258 -109 258 -263c0 -153 -106 -263 -259 -263c-107 0 -190 52 -229 131l92 52c19 -46 66 -79 138 -79s126 46 144 110h-198v99h198c-18 65 -71 110 -143 110c-66 0 -114 -33 -136 -79l-93 53c42 79 126 129 228 129z" />
    <glyph glyph-name="uni0456" unicode="&#x456;" horiz-adv-x="233" 
d="M117 575c-38 0 -69 32 -69 69c0 38 31 69 69 69s69 -31 69 -69c0 -37 -31 -69 -69 -69zM63 0v500h108v-500h-108z" />
    <glyph glyph-name="uni0457" unicode="&#x457;" horiz-adv-x="233" 
d="M22 558c-33 0 -60 27 -60 60s27 60 60 60s60 -27 60 -60s-27 -60 -60 -60zM212 558c-33 0 -60 27 -60 60s27 60 60 60s60 -27 60 -60s-27 -60 -60 -60zM63 0v500h108v-500h-108z" />
    <glyph glyph-name="uni0458" unicode="&#x458;" horiz-adv-x="253" 
d="M136 575c-38 0 -69 32 -69 69c0 38 31 69 69 69s69 -31 69 -69c0 -37 -31 -69 -69 -69zM82 -20v520h108v-520c0 -138 -68 -203 -205 -193v104c66 -6 97 19 97 89z" />
    <glyph glyph-name="uni045B" unicode="&#x45b;" horiz-adv-x="578" 
d="M334 513c111 0 191 -76 191 -206v-307h-108v296c0 76 -44 116 -111 116c-72 0 -128 -42 -128 -144v-268h-108v561h-65v74h65v65h108v-65h142v-74h-142v-125c34 52 88 77 156 77z" />
    <glyph glyph-name="uni044E" unicode="&#x44e;" horiz-adv-x="808" 
d="M509 513c146 0 264 -114 264 -263c0 -148 -118 -263 -264 -263c-130 0 -233 89 -255 212h-83v-199h-108v500h108v-199h83c22 123 125 212 255 212zM509 92c88 0 156 67 156 158s-68 158 -156 158s-156 -67 -156 -158s68 -158 156 -158z" />
    <glyph glyph-name="uni044F" unicode="&#x44f;" horiz-adv-x="513" 
d="M450 500v-500h-106v168h-60l-127 -168h-127l135 178c-70 23 -115 85 -115 156c0 90 71 166 177 166h223zM233 261h111v141h-111c-43 0 -77 -26 -77 -71c0 -44 34 -70 77 -70z" />
    <glyph glyph-name="uni0452" unicode="&#x452;" horiz-adv-x="578" 
d="M334 513c111 0 191 -76 191 -206v-327c0 -138 -68 -203 -205 -193v104c66 -6 97 19 97 89v316c0 76 -44 116 -111 116c-72 0 -128 -42 -128 -144v-268h-108v561h-65v74h65v65h108v-65h142v-74h-142v-125c34 52 88 77 156 77z" />
    <glyph glyph-name="uni0432.loclBGR" horiz-adv-x="568" 
d="M413 406c75 -29 120 -97 120 -197c0 -139 -87 -222 -235 -222c-145 0 -235 94 -235 242v237c0 150 87 247 224 247c114 0 191 -67 191 -172c0 -48 -22 -92 -65 -135zM287 611c-72 0 -116 -57 -116 -145v-66l66 14c24 5 46 8 68 8c47 37 67 73 67 109c0 47 -31 80 -85 80z
M298 91c80 0 127 44 127 118c0 90 -75 130 -188 106l-66 -14v-72c0 -85 48 -138 127 -138z" />
    <glyph glyph-name="uni0433.loclBGR" horiz-adv-x="461" 
d="M343 160l93 -53c-32 -73 -104 -120 -204 -120c-107 0 -194 54 -194 154c0 185 264 130 264 221c0 36 -35 53 -71 53c-43 0 -79 -21 -96 -59l-92 50c36 67 104 107 188 107c99 0 181 -59 181 -153c0 -181 -264 -125 -264 -217c0 -39 37 -57 84 -57c56 0 96 30 111 74z" />
    <glyph glyph-name="uni0434.loclBGR" 
d="M461 500h106v-477c0 -161 -126 -236 -257 -236c-110 0 -195 41 -237 121l93 54c22 -43 59 -77 146 -77c93 0 149 51 149 138v61c-38 -54 -97 -87 -174 -87c-141 0 -252 115 -252 258s111 258 252 258c77 0 136 -33 174 -87v74zM302 98c91 0 159 67 159 157
s-68 157 -159 157s-159 -67 -159 -157s68 -157 159 -157z" />
    <glyph glyph-name="uni0436.loclBGR" horiz-adv-x="722" 
d="M707 0h-123l-170 229v-229h-106v229l-170 -229h-123l195 255l-185 245h123l160 -218v418h106v-418l160 218h123l-185 -245z" />
    <glyph glyph-name="uni0438.loclBGR" horiz-adv-x="571" 
d="M400 500h108v-500h-108v64c-33 -52 -87 -77 -155 -77c-112 0 -192 76 -192 206v307h108v-296c0 -76 44 -116 112 -116c71 0 127 42 127 144v268z" />
    <glyph glyph-name="uni0439.loclBGR" horiz-adv-x="571" 
d="M420 664v-94h-280v94h280zM400 500h108v-500h-108v64c-33 -52 -87 -77 -155 -77c-112 0 -192 76 -192 206v307h108v-296c0 -76 44 -116 112 -116c71 0 127 42 127 144v268z" />
    <glyph glyph-name="uni043A.loclBGR" horiz-adv-x="515" 
d="M505 0h-129l-205 231v-231h-108v700h108v-421l194 221h132l-220 -245z" />
    <glyph glyph-name="uni043B.loclBGR" horiz-adv-x="525" 
d="M520 0h-118l-139 380l-140 -380h-118l195 500h125z" />
    <glyph glyph-name="uni043F.loclBGR" horiz-adv-x="571" 
d="M326 513c112 0 192 -76 192 -206v-307h-108v296c0 76 -44 116 -112 116c-71 0 -127 -42 -127 -144v-268h-108v500h108v-64c33 52 87 77 155 77z" />
    <glyph glyph-name="uni0442.loclBGR" horiz-adv-x="851" 
d="M609 513c113 0 189 -78 189 -203v-310h-108v303c0 70 -38 109 -97 109c-64 0 -109 -41 -109 -132v-280h-108v303c0 70 -35 109 -94 109c-61 0 -111 -41 -111 -132v-280h-108v500h108v-60c32 49 81 73 143 73c65 0 113 -29 142 -79c33 52 86 79 153 79z" />
    <glyph glyph-name="uni0446.loclBGR" horiz-adv-x="609" 
d="M542 102h42v-236h-106v141c-32 10 -56 32 -68 62c-36 -55 -91 -82 -165 -82c-112 0 -192 76 -192 206v307h108v-296c0 -75 44 -116 112 -116c71 0 127 42 127 145v267h108v-365c0 -20 13 -33 34 -33z" />
    <glyph glyph-name="uni0448.loclBGR" horiz-adv-x="851" 
d="M680 500h108v-500h-108v60c-32 -49 -81 -73 -143 -73c-65 0 -113 29 -142 79c-33 -52 -86 -79 -153 -79c-113 0 -189 78 -189 203v310h108v-303c0 -70 38 -109 97 -109c64 0 109 41 109 132v280h108v-303c0 -70 35 -109 94 -109c61 0 111 41 111 132v280z" />
    <glyph glyph-name="uni0449.loclBGR" horiz-adv-x="889" 
d="M822 102h42v-236h-106v141c-30 9 -53 29 -66 57c-34 -52 -85 -77 -150 -77c-68 0 -118 29 -147 79c-33 -51 -86 -79 -153 -79c-113 0 -189 79 -189 204v309h108v-303c0 -69 38 -109 97 -109c64 0 109 41 109 133v279h108v-303c0 -69 35 -109 94 -109c61 0 111 41 111 133
v279h108v-365c0 -20 13 -33 34 -33z" />
    <glyph glyph-name="uni044C.loclBGR" horiz-adv-x="488" 
d="M263 353c129 0 200 -66 200 -178c0 -104 -82 -188 -205 -188c-129 0 -205 79 -205 193v320h106v-147h104zM258 89c59 0 99 44 99 87c0 49 -33 80 -94 80h-104v-76c0 -49 37 -91 99 -91z" />
    <glyph glyph-name="uni044A.loclBGR" horiz-adv-x="574" 
d="M348 353c129 0 200 -66 200 -178c0 -104 -82 -188 -205 -188c-129 0 -205 79 -205 193v218h-138v102h244v-147h104zM343 89c59 0 99 44 99 87c0 49 -34 80 -94 80h-104v-76c0 -49 37 -91 99 -91z" />
    <glyph glyph-name="uni044E.loclBGR" horiz-adv-x="808" 
d="M509 513c146 0 264 -114 264 -263c0 -148 -118 -263 -264 -263c-130 0 -233 89 -255 212h-83v-199h-108v700h108v-399h83c22 123 125 212 255 212zM509 92c88 0 156 67 156 158s-68 158 -156 158s-156 -67 -156 -158s68 -158 156 -158z" />
    <glyph glyph-name="uni0394" unicode="&#x394;" horiz-adv-x="645" 
d="M392 700l248 -700h-635l249 700h138zM167 108h312l-156 461z" />
    <glyph glyph-name="uni03A9" unicode="&#x3a9;" horiz-adv-x="786" 
d="M756 360c0 -103 -47 -192 -121 -250h108v-110h-275v110c102 30 173 123 173 240c0 144 -108 251 -248 251s-248 -107 -248 -251c0 -117 71 -210 174 -240v-110h-276v110h108c-75 58 -121 147 -121 250c0 198 161 353 363 353c203 0 363 -155 363 -353z" />
    <glyph glyph-name="pi" unicode="&#x3c0;" horiz-adv-x="660" 
d="M635 500v-102h-80v-398h-108v398h-229v-398h-108v398h-85v102h610z" />
    <glyph glyph-name="zero" unicode="0" 
d="M315 -13c-176 0 -275 147 -275 363s99 363 275 363s275 -147 275 -363s-99 -363 -275 -363zM315 99c104 0 160 90 160 251s-56 251 -160 251c-103 0 -160 -90 -160 -251s57 -251 160 -251z" />
    <glyph glyph-name="one" unicode="1" horiz-adv-x="372" 
d="M197 700h100v-700h-115v577l-141 -40l-28 98z" />
    <glyph glyph-name="two" unicode="2" horiz-adv-x="529" 
d="M31 0v90l244 249c50 50 89 101 89 154c0 70 -48 108 -108 108c-58 0 -103 -31 -130 -87l-97 57c45 96 133 142 226 142c115 0 224 -77 224 -216c0 -87 -52 -160 -119 -228l-158 -158h290v-111h-461z" />
    <glyph glyph-name="three" unicode="3" horiz-adv-x="540" 
d="M334 414c96 -23 171 -93 171 -202c0 -147 -116 -225 -245 -225c-103 0 -196 47 -235 145l98 57c20 -59 67 -90 137 -90c79 0 130 43 130 113s-51 112 -130 112h-26l-46 69l151 199h-293v108h430v-98z" />
    <glyph glyph-name="four" unicode="4" horiz-adv-x="580" 
d="M563 233v-107h-80v-126h-116v126h-344v107l241 467h125l-241 -467h219v182h116v-182h80z" />
    <glyph glyph-name="five" unicode="5" horiz-adv-x="545" 
d="M275 436c127 0 238 -78 238 -224c0 -147 -116 -225 -245 -225c-106 0 -201 49 -238 150l99 57c18 -62 66 -95 139 -95c78 0 130 43 130 113s-52 112 -128 112h-204l27 376h390v-108h-284l-12 -156h88z" />
    <glyph glyph-name="six" unicode="6" horiz-adv-x="545" 
d="M273 465c145 0 247 -98 247 -239s-102 -239 -247 -239c-146 0 -248 98 -248 239c0 54 15 102 42 141l222 333h131l-160 -235h13zM273 96c76 0 132 51 132 130c0 80 -56 130 -132 130c-77 0 -133 -50 -133 -130s56 -130 133 -130z" />
    <glyph glyph-name="seven" unicode="7" horiz-adv-x="490" 
d="M15 700h445v-100l-246 -600h-121l242 590h-320v110z" />
    <glyph glyph-name="eight" unicode="8" horiz-adv-x="561" 
d="M423 364c65 -36 103 -96 103 -170c0 -130 -99 -207 -245 -207s-246 77 -246 207c0 73 39 134 103 170c-47 31 -79 81 -79 148c0 135 105 201 222 201c116 0 222 -66 222 -201c0 -67 -32 -117 -80 -148zM281 604c-59 0 -107 -32 -107 -97c0 -62 48 -97 107 -97
c58 0 107 35 107 97c0 65 -49 97 -107 97zM281 96c75 0 130 38 130 109c0 72 -55 109 -130 109c-76 0 -131 -37 -131 -109c0 -71 55 -109 131 -109z" />
    <glyph glyph-name="nine" unicode="9" horiz-adv-x="545" 
d="M520 474c0 -54 -15 -102 -42 -141l-221 -333h-132l160 235h-12c-145 0 -248 98 -248 239s103 239 248 239s247 -98 247 -239zM140 474c0 -79 57 -130 133 -130s132 50 132 130s-56 130 -132 130s-133 -50 -133 -130z" />
    <glyph glyph-name="zero.sinf" horiz-adv-x="409" 
d="M205 -173c-111 0 -180 83 -180 213s69 213 180 213s179 -83 179 -213s-68 -213 -179 -213zM205 -82c53 0 85 42 85 122s-32 122 -85 122c-54 0 -86 -42 -86 -122s32 -122 86 -122z" />
    <glyph glyph-name="one.sinf" horiz-adv-x="257" 
d="M124 240h80v-400h-92v306l-85 -25l-22 76z" />
    <glyph glyph-name="two.sinf" horiz-adv-x="347" 
d="M26 -160v64l157 151c24 23 37 47 37 69c0 27 -20 44 -52 44c-35 0 -56 -20 -70 -54l-75 42c24 59 74 97 146 97c84 0 143 -53 143 -124c0 -50 -26 -90 -66 -128l-82 -76h155v-85h-293z" />
    <glyph glyph-name="three.sinf" horiz-adv-x="346" 
d="M223 75c61 -15 96 -57 96 -116c0 -83 -59 -132 -152 -132c-77 0 -127 33 -152 87l78 45c14 -35 37 -50 74 -50c39 0 59 20 59 50c0 31 -24 50 -62 50h-14l-36 55l75 91h-158v85h270v-72z" />
    <glyph glyph-name="four.sinf" horiz-adv-x="356" 
d="M339 -8v-84h-44v-68h-89v68h-193v84l135 248h99l-132 -248h91v79h89v-79h44z" />
    <glyph glyph-name="five.sinf" horiz-adv-x="334" 
d="M172 90c83 0 142 -45 142 -133c0 -84 -60 -130 -146 -130c-77 0 -126 33 -150 87l76 43c14 -33 37 -49 72 -49c41 0 61 21 61 50c0 32 -20 53 -61 53h-126l16 229h239v-84h-161l-4 -66h42z" />
    <glyph glyph-name="six.sinf" horiz-adv-x="339" 
d="M175 110c87 -3 146 -62 146 -142c0 -81 -62 -141 -152 -141c-89 0 -151 60 -151 141c0 27 7 52 19 73l126 199h98zM169 -93c40 0 65 24 65 61c0 38 -25 61 -65 61c-39 0 -64 -23 -64 -61c0 -37 25 -61 64 -61z" />
    <glyph glyph-name="seven.sinf" horiz-adv-x="296" 
d="M5 240h273v-71l-133 -329h-96l130 315h-174v85z" />
    <glyph glyph-name="eight.sinf" horiz-adv-x="345" 
d="M262 50c38 -21 61 -57 61 -102c0 -74 -58 -121 -150 -121c-93 0 -151 47 -151 121c0 45 23 81 61 102c-29 19 -47 48 -47 85c0 75 60 118 137 118c76 0 136 -43 136 -118c0 -37 -18 -66 -47 -85zM173 174c-35 0 -55 -17 -55 -45s20 -45 55 -45c33 0 54 17 54 45
s-21 45 -54 45zM173 -92c39 0 62 21 62 52c0 32 -25 52 -62 52c-40 0 -63 -20 -63 -52c0 -31 23 -52 63 -52z" />
    <glyph glyph-name="nine.sinf" horiz-adv-x="339" 
d="M321 112c0 -31 -9 -59 -25 -81l-120 -191h-98l86 130c-87 3 -146 63 -146 142c0 81 62 141 152 141c89 0 151 -60 151 -141zM105 112c0 -38 25 -61 65 -61c39 0 64 23 64 61c0 37 -25 61 -64 61c-40 0 -65 -24 -65 -61z" />
    <glyph glyph-name="zero.tf" horiz-adv-x="575" 
d="M288 -13c-176 0 -275 147 -275 363s99 363 275 363s275 -147 275 -363s-99 -363 -275 -363zM288 99c103 0 160 90 160 251s-57 251 -160 251c-104 0 -160 -90 -160 -251s56 -251 160 -251z" />
    <glyph glyph-name="one.tf" horiz-adv-x="575" 
d="M358 110h195v-110h-520v110h210v467l-141 -40l-28 98l184 65h100v-590z" />
    <glyph glyph-name="two.tf" horiz-adv-x="575" 
d="M38 0v90l254 226c65 57 116 110 116 170c0 65 -44 115 -125 115c-66 0 -114 -36 -145 -99l-96 56c47 102 138 155 242 155c138 0 239 -90 239 -222c0 -95 -62 -170 -152 -248l-155 -132h319v-111h-497z" />
    <glyph glyph-name="three.tf" horiz-adv-x="575" 
d="M361 420c105 -23 182 -92 182 -206c0 -146 -114 -227 -258 -227c-123 0 -222 56 -262 162l99 57c20 -66 77 -107 158 -107c94 0 148 43 148 115c0 73 -54 115 -148 115h-25l-47 70l160 193h-322v108h465v-98z" />
    <glyph glyph-name="four.tf" horiz-adv-x="575" 
d="M558 233v-107h-80v-126h-116v126h-349v107l241 467h124l-241 -467h225v172h116v-172h80z" />
    <glyph glyph-name="five.tf" horiz-adv-x="575" 
d="M293 436c139 0 250 -78 250 -224c0 -147 -116 -225 -253 -225c-123 0 -222 56 -262 162l99 57c20 -66 77 -107 161 -107c88 0 140 43 140 113s-52 112 -140 112h-220l27 376h418v-108h-313l-12 -156h105z" />
    <glyph glyph-name="six.tf" horiz-adv-x="575" 
d="M283 470c162 0 265 -98 265 -241c0 -144 -103 -242 -265 -242c-163 0 -265 98 -265 242c0 56 16 105 44 144l235 327h133l-165 -230h18zM283 96c93 0 150 51 150 133s-57 132 -150 132c-94 0 -150 -50 -150 -132c0 -83 56 -133 150 -133z" />
    <glyph glyph-name="seven.tf" horiz-adv-x="575" 
d="M30 700h510v-100l-271 -600h-121l265 590h-383v110z" />
    <glyph glyph-name="eight.tf" horiz-adv-x="575" 
d="M444 363c68 -36 107 -96 107 -169c0 -129 -102 -207 -263 -207c-162 0 -264 78 -264 207c0 73 39 134 108 169c-51 33 -84 83 -84 149c0 133 108 201 240 201s239 -68 239 -201c0 -66 -32 -116 -83 -149zM288 604c-77 0 -125 -34 -125 -97c0 -60 48 -97 125 -97
c76 0 124 37 124 97c0 63 -48 97 -124 97zM288 96c96 0 148 40 148 109s-52 109 -148 109s-149 -40 -149 -109s53 -109 149 -109z" />
    <glyph glyph-name="nine.tf" horiz-adv-x="575" 
d="M558 472c0 -60 -18 -112 -51 -153l-228 -319h-134l165 230h-17c-163 0 -265 98 -265 242c0 143 102 241 265 241s265 -98 265 -241zM143 472c0 -82 56 -133 150 -133s150 50 150 133c0 82 -56 132 -150 132s-150 -50 -150 -132z" />
    <glyph glyph-name="zero.dnom" horiz-adv-x="409" 
d="M205 -13c-111 0 -180 83 -180 213s69 213 180 213s179 -83 179 -213s-68 -213 -179 -213zM205 78c53 0 85 42 85 122s-32 122 -85 122c-54 0 -86 -42 -86 -122s32 -122 86 -122z" />
    <glyph glyph-name="one.dnom" horiz-adv-x="261" 
d="M124 400h80v-400h-92v306l-85 -25l-22 76z" />
    <glyph glyph-name="two.dnom" horiz-adv-x="351" 
d="M26 0v64l157 151c24 23 37 47 37 69c0 27 -20 44 -52 44c-35 0 -56 -20 -70 -54l-75 42c24 59 74 97 146 97c84 0 143 -53 143 -124c0 -50 -26 -90 -66 -128l-82 -76h155v-85h-293z" />
    <glyph glyph-name="three.dnom" horiz-adv-x="349" 
d="M223 235c61 -15 96 -57 96 -116c0 -83 -59 -132 -152 -132c-77 0 -127 33 -152 87l78 45c14 -35 37 -50 74 -50c39 0 59 20 59 50c0 31 -24 50 -62 50h-14l-36 55l75 91h-158v85h270v-72z" />
    <glyph glyph-name="four.dnom" horiz-adv-x="356" 
d="M339 152v-84h-44v-68h-89v68h-193v84l135 248h99l-132 -248h91v79h89v-79h44z" />
    <glyph glyph-name="five.dnom" horiz-adv-x="337" 
d="M169 250c83 0 142 -45 142 -133c0 -84 -60 -130 -146 -130c-77 0 -126 33 -150 87l76 43c14 -33 37 -49 72 -49c41 0 61 21 61 50c0 32 -20 53 -61 53h-126l16 229h239v-84h-161l-4 -66h42z" />
    <glyph glyph-name="six.dnom" horiz-adv-x="339" 
d="M175 270c87 -3 146 -62 146 -142c0 -81 -62 -141 -152 -141c-89 0 -151 60 -151 141c0 27 7 52 19 73l126 199h98zM169 67c40 0 65 24 65 61c0 38 -25 61 -65 61c-39 0 -64 -23 -64 -61c0 -37 25 -61 64 -61z" />
    <glyph glyph-name="seven.dnom" horiz-adv-x="296" 
d="M5 400h273v-71l-133 -329h-96l130 315h-174v85z" />
    <glyph glyph-name="eight.dnom" horiz-adv-x="345" 
d="M262 210c38 -21 61 -57 61 -102c0 -74 -58 -121 -150 -121c-93 0 -151 47 -151 121c0 45 23 81 61 102c-29 19 -47 48 -47 85c0 75 60 118 137 118c76 0 136 -43 136 -118c0 -37 -18 -66 -47 -85zM173 334c-35 0 -55 -17 -55 -45s20 -45 55 -45c33 0 54 17 54 45
s-21 45 -54 45zM173 68c39 0 62 21 62 52c0 32 -25 52 -62 52c-40 0 -63 -20 -63 -52c0 -31 23 -52 63 -52z" />
    <glyph glyph-name="nine.dnom" horiz-adv-x="339" 
d="M321 272c0 -31 -9 -59 -25 -81l-120 -191h-98l86 130c-87 3 -146 63 -146 142c0 81 62 141 152 141c89 0 151 -60 151 -141zM105 272c0 -38 25 -61 65 -61c39 0 64 23 64 61c0 37 -25 61 -64 61c-40 0 -65 -24 -65 -61z" />
    <glyph glyph-name="zero.numr" horiz-adv-x="409" 
d="M205 287c-111 0 -180 83 -180 213s69 213 180 213s179 -83 179 -213s-68 -213 -179 -213zM205 378c53 0 85 42 85 122s-32 122 -85 122c-54 0 -86 -42 -86 -122s32 -122 86 -122z" />
    <glyph glyph-name="one.numr" horiz-adv-x="261" 
d="M124 700h80v-400h-92v306l-85 -25l-22 76z" />
    <glyph glyph-name="two.numr" horiz-adv-x="351" 
d="M26 300v64l157 151c24 23 37 47 37 69c0 27 -20 44 -52 44c-35 0 -56 -20 -70 -54l-75 42c24 59 74 97 146 97c84 0 143 -53 143 -124c0 -50 -26 -90 -66 -128l-82 -76h155v-85h-293z" />
    <glyph glyph-name="three.numr" horiz-adv-x="349" 
d="M223 535c61 -15 96 -57 96 -116c0 -83 -59 -132 -152 -132c-77 0 -127 33 -152 87l78 45c14 -35 37 -50 74 -50c39 0 59 20 59 50c0 31 -24 50 -62 50h-14l-36 55l75 91h-158v85h270v-72z" />
    <glyph glyph-name="four.numr" horiz-adv-x="356" 
d="M339 452v-84h-44v-68h-89v68h-193v84l135 248h99l-132 -248h91v79h89v-79h44z" />
    <glyph glyph-name="five.numr" horiz-adv-x="337" 
d="M169 550c83 0 142 -45 142 -133c0 -84 -60 -130 -146 -130c-77 0 -126 33 -150 87l76 43c14 -33 37 -49 72 -49c41 0 61 21 61 50c0 32 -20 53 -61 53h-126l16 229h239v-84h-161l-4 -66h42z" />
    <glyph glyph-name="six.numr" horiz-adv-x="339" 
d="M175 570c87 -3 146 -62 146 -142c0 -81 -62 -141 -152 -141c-89 0 -151 60 -151 141c0 27 7 52 19 73l126 199h98zM169 367c40 0 65 24 65 61c0 38 -25 61 -65 61c-39 0 -64 -23 -64 -61c0 -37 25 -61 64 -61z" />
    <glyph glyph-name="seven.numr" horiz-adv-x="296" 
d="M5 700h273v-71l-133 -329h-96l130 315h-174v85z" />
    <glyph glyph-name="eight.numr" horiz-adv-x="345" 
d="M262 510c38 -21 61 -57 61 -102c0 -74 -58 -121 -150 -121c-93 0 -151 47 -151 121c0 45 23 81 61 102c-29 19 -47 48 -47 85c0 75 60 118 137 118c76 0 136 -43 136 -118c0 -37 -18 -66 -47 -85zM173 634c-35 0 -55 -17 -55 -45s20 -45 55 -45c33 0 54 17 54 45
s-21 45 -54 45zM173 368c39 0 62 21 62 52c0 32 -25 52 -62 52c-40 0 -63 -20 -63 -52c0 -31 23 -52 63 -52z" />
    <glyph glyph-name="nine.numr" horiz-adv-x="339" 
d="M321 572c0 -31 -9 -59 -25 -81l-120 -191h-98l86 130c-87 3 -146 63 -146 142c0 81 62 141 152 141c89 0 151 -60 151 -141zM105 572c0 -38 25 -61 65 -61c39 0 64 23 64 61c0 37 -25 61 -64 61c-40 0 -65 -24 -65 -61z" />
    <glyph glyph-name="zero.sups" horiz-adv-x="409" 
d="M205 447c-111 0 -180 83 -180 213s69 213 180 213s179 -83 179 -213s-68 -213 -179 -213zM205 538c53 0 85 42 85 122s-32 122 -85 122c-54 0 -86 -42 -86 -122s32 -122 86 -122z" />
    <glyph glyph-name="one.sups" horiz-adv-x="261" 
d="M124 860h80v-400h-92v306l-85 -25l-22 76z" />
    <glyph glyph-name="two.sups" horiz-adv-x="351" 
d="M26 460v64l157 151c24 23 37 47 37 69c0 27 -20 44 -52 44c-35 0 -56 -20 -70 -54l-75 42c24 59 74 97 146 97c84 0 143 -53 143 -124c0 -50 -26 -90 -66 -128l-82 -76h155v-85h-293z" />
    <glyph glyph-name="three.sups" horiz-adv-x="349" 
d="M223 695c61 -15 96 -57 96 -116c0 -83 -59 -132 -152 -132c-77 0 -127 33 -152 87l78 45c14 -35 37 -50 74 -50c39 0 59 20 59 50c0 31 -24 50 -62 50h-14l-36 55l75 91h-158v85h270v-72z" />
    <glyph glyph-name="four.sups" horiz-adv-x="356" 
d="M339 612v-84h-44v-68h-89v68h-193v84l135 248h99l-132 -248h91v79h89v-79h44z" />
    <glyph glyph-name="five.sups" horiz-adv-x="337" 
d="M169 710c83 0 142 -45 142 -133c0 -84 -60 -130 -146 -130c-77 0 -126 33 -150 87l76 43c14 -33 37 -49 72 -49c41 0 61 21 61 50c0 32 -20 53 -61 53h-126l16 229h239v-84h-161l-4 -66h42z" />
    <glyph glyph-name="six.sups" horiz-adv-x="339" 
d="M175 730c87 -3 146 -62 146 -142c0 -81 -62 -141 -152 -141c-89 0 -151 60 -151 141c0 27 7 52 19 73l126 199h98zM169 527c40 0 65 24 65 61c0 38 -25 61 -65 61c-39 0 -64 -23 -64 -61c0 -37 25 -61 64 -61z" />
    <glyph glyph-name="seven.sups" horiz-adv-x="296" 
d="M5 860h273v-71l-133 -329h-96l130 315h-174v85z" />
    <glyph glyph-name="eight.sups" horiz-adv-x="345" 
d="M262 670c38 -21 61 -57 61 -102c0 -74 -58 -121 -150 -121c-93 0 -151 47 -151 121c0 45 23 81 61 102c-29 19 -47 48 -47 85c0 75 60 118 137 118c76 0 136 -43 136 -118c0 -37 -18 -66 -47 -85zM173 794c-35 0 -55 -17 -55 -45s20 -45 55 -45c33 0 54 17 54 45
s-21 45 -54 45zM173 528c39 0 62 21 62 52c0 32 -25 52 -62 52c-40 0 -63 -20 -63 -52c0 -31 23 -52 63 -52z" />
    <glyph glyph-name="nine.sups" horiz-adv-x="339" 
d="M321 732c0 -31 -9 -59 -25 -81l-120 -191h-98l86 130c-87 3 -146 63 -146 142c0 81 62 141 152 141c89 0 151 -60 151 -141zM105 732c0 -38 25 -61 65 -61c39 0 64 23 64 61c0 37 -25 61 -64 61c-40 0 -65 -24 -65 -61z" />
    <glyph glyph-name="fraction" unicode="&#x2044;" horiz-adv-x="200" 
d="M-60 0h-80l400 700h80z" />
    <glyph glyph-name="onehalf" unicode="&#xbd;" horiz-adv-x="812" 
d="M204 300h-92v306l-85 -25l-22 76l119 43h80v-400zM521 700h80l-400 -700h-80zM625 85h155v-85h-293v64l157 151c24 23 37 47 37 69c0 27 -20 44 -52 44c-35 0 -56 -20 -70 -54l-75 42c24 59 74 97 146 97c84 0 143 -53 143 -124c0 -50 -26 -90 -66 -128z" />
    <glyph glyph-name="onequarter" unicode="&#xbc;" horiz-adv-x="817" 
d="M204 300h-92v306l-85 -25l-22 76l119 43h80v-400zM521 700h80l-400 -700h-80zM800 152v-84h-44v-68h-89v68h-193v84l135 248h99l-132 -248h91v79h89v-79h44z" />
    <glyph glyph-name="threequarters" unicode="&#xbe;" horiz-adv-x="905" 
d="M319 419c0 -83 -59 -132 -152 -132c-77 0 -127 33 -152 87l78 45c14 -35 37 -50 74 -50c39 0 59 20 59 50c0 31 -24 50 -62 50h-14l-36 55l75 91h-158v85h270v-72l-78 -93c61 -15 96 -57 96 -116zM609 700h80l-400 -700h-80zM888 152v-84h-44v-68h-89v68h-193v84l135 248
h99l-132 -248h91v79h89v-79h44z" />
    <glyph glyph-name="oneeighth" unicode="&#x215b;" horiz-adv-x="806" 
d="M204 300h-92v306l-85 -25l-22 76l119 43h80v-400zM521 700h80l-400 -700h-80zM723 210c38 -21 61 -57 61 -102c0 -74 -58 -121 -150 -121c-93 0 -151 47 -151 121c0 45 23 81 61 102c-29 19 -47 48 -47 85c0 75 60 118 137 118c76 0 136 -43 136 -118
c0 -37 -18 -66 -47 -85zM634 334c-35 0 -55 -17 -55 -45s20 -45 55 -45c33 0 54 17 54 45s-21 45 -54 45zM634 68c39 0 62 21 62 52c0 32 -25 52 -62 52c-40 0 -63 -20 -63 -52c0 -31 23 -52 63 -52z" />
    <glyph glyph-name="threeeighths" unicode="&#x215c;" horiz-adv-x="894" 
d="M319 419c0 -83 -59 -132 -152 -132c-77 0 -127 33 -152 87l78 45c14 -35 37 -50 74 -50c39 0 59 20 59 50c0 31 -24 50 -62 50h-14l-36 55l75 91h-158v85h270v-72l-78 -93c61 -15 96 -57 96 -116zM609 700h80l-400 -700h-80zM811 210c38 -21 61 -57 61 -102
c0 -74 -58 -121 -150 -121c-93 0 -151 47 -151 121c0 45 23 81 61 102c-29 19 -47 48 -47 85c0 75 60 118 137 118c76 0 136 -43 136 -118c0 -37 -18 -66 -47 -85zM722 334c-35 0 -55 -17 -55 -45s20 -45 55 -45c33 0 54 17 54 45s-21 45 -54 45zM722 68c39 0 62 21 62 52
c0 32 -25 52 -62 52c-40 0 -63 -20 -63 -52c0 -31 23 -52 63 -52z" />
    <glyph glyph-name="fiveeighths" unicode="&#x215d;" horiz-adv-x="882" 
d="M311 417c0 -84 -60 -130 -146 -130c-77 0 -126 33 -150 87l76 43c14 -33 37 -49 72 -49c41 0 61 21 61 50c0 32 -20 53 -61 53h-126l16 229h239v-84h-161l-4 -66h42c83 0 142 -45 142 -133zM597 700h80l-400 -700h-80zM799 210c38 -21 61 -57 61 -102
c0 -74 -58 -121 -150 -121c-93 0 -151 47 -151 121c0 45 23 81 61 102c-29 19 -47 48 -47 85c0 75 60 118 137 118c76 0 136 -43 136 -118c0 -37 -18 -66 -47 -85zM710 334c-35 0 -55 -17 -55 -45s20 -45 55 -45c33 0 54 17 54 45s-21 45 -54 45zM710 68c39 0 62 21 62 52
c0 32 -25 52 -62 52c-40 0 -63 -20 -63 -52c0 -31 23 -52 63 -52z" />
    <glyph glyph-name="seveneighths" unicode="&#x215e;" horiz-adv-x="841" 
d="M278 700v-71l-133 -329h-96l130 315h-174v85h273zM556 700h80l-400 -700h-80zM758 210c38 -21 61 -57 61 -102c0 -74 -58 -121 -150 -121c-93 0 -151 47 -151 121c0 45 23 81 61 102c-29 19 -47 48 -47 85c0 75 60 118 137 118c76 0 136 -43 136 -118
c0 -37 -18 -66 -47 -85zM669 334c-35 0 -55 -17 -55 -45s20 -45 55 -45c33 0 54 17 54 45s-21 45 -54 45zM669 68c39 0 62 21 62 52c0 32 -25 52 -62 52c-40 0 -63 -20 -63 -52c0 -31 23 -52 63 -52z" />
    <glyph glyph-name="asterisk" unicode="*" horiz-adv-x="396" 
d="M341 609v-72l-90 6l53 -72l-62 -38l-44 83l-44 -83l-62 38l54 72l-91 -6v72l91 -6l-54 72l62 38l44 -83l44 83l62 -38l-53 -72z" />
    <glyph glyph-name="backslash" unicode="\" horiz-adv-x="525" 
d="M435 -100l-400 900h55l400 -900h-55z" />
    <glyph glyph-name="periodcentered" unicode="&#xb7;" horiz-adv-x="255" 
d="M128 273c-42 0 -75 34 -75 75c0 42 33 75 75 75c41 0 75 -33 75 -75c0 -41 -34 -75 -75 -75z" />
    <glyph glyph-name="bullet" unicode="&#x2022;" horiz-adv-x="340" 
d="M172 225c-70 0 -127 57 -127 127c0 68 57 123 127 123c68 0 123 -55 123 -123c0 -70 -55 -127 -123 -127z" />
    <glyph glyph-name="colon" unicode=":" horiz-adv-x="255" 
d="M128 363c-42 0 -75 34 -75 75c0 42 33 75 75 75c41 0 75 -33 75 -75c0 -41 -34 -75 -75 -75zM128 -12c-42 0 -75 34 -75 75c0 42 33 75 75 75c41 0 75 -33 75 -75c0 -41 -34 -75 -75 -75z" />
    <glyph glyph-name="comma" unicode="," horiz-adv-x="265" 
d="M213 120l-70 -260h-90l40 260h120z" />
    <glyph glyph-name="ellipsis" unicode="&#x2026;" horiz-adv-x="685" 
d="M128 -12c-42 0 -75 34 -75 75c0 42 33 75 75 75c41 0 75 -33 75 -75c0 -41 -34 -75 -75 -75zM343 -12c-42 0 -75 34 -75 75c0 42 33 75 75 75c41 0 75 -33 75 -75c0 -41 -34 -75 -75 -75zM558 -12c-42 0 -75 34 -75 75c0 42 33 75 75 75c41 0 75 -33 75 -75
c0 -41 -34 -75 -75 -75z" />
    <glyph glyph-name="exclam" unicode="!" horiz-adv-x="255" 
d="M85 220l-22 280v200h130v-200l-23 -280h-85zM128 -12c-42 0 -75 34 -75 75c0 42 33 75 75 75c41 0 75 -33 75 -75c0 -41 -34 -75 -75 -75z" />
    <glyph glyph-name="exclamdown" unicode="&#xa1;" horiz-adv-x="255" 
d="M128 512c41 0 75 -34 75 -75c0 -42 -34 -75 -75 -75c-42 0 -75 33 -75 75c0 41 33 75 75 75zM85 280h85l23 -280v-200h-130v200z" />
    <glyph glyph-name="numbersign" unicode="#" horiz-adv-x="610" 
d="M571 400h-112l-16 -100h112l-13 -85h-113l-28 -165h-89l28 165h-112l-28 -165h-89l28 165h-114l14 85h114l16 100h-114l14 85h115l27 165h89l-27 -165h112l27 165h89l-27 -165h111zM354 300l16 100h-112l-16 -100h112z" />
    <glyph glyph-name="period" unicode="." horiz-adv-x="255" 
d="M128 -12c-42 0 -75 34 -75 75c0 42 33 75 75 75c41 0 75 -33 75 -75c0 -41 -34 -75 -75 -75z" />
    <glyph glyph-name="question" unicode="?" horiz-adv-x="546" 
d="M200 220c0 147 176 185 176 294c0 58 -43 87 -107 87c-63 0 -110 -33 -130 -92l-99 56c38 98 130 148 232 148c111 0 219 -66 219 -192c0 -152 -176 -193 -176 -301h-115zM258 -12c-42 0 -75 34 -75 75c0 42 33 75 75 75c41 0 75 -33 75 -75c0 -41 -34 -75 -75 -75z" />
    <glyph glyph-name="questiondown" unicode="&#xbf;" horiz-adv-x="546" 
d="M288 512c42 0 75 -34 75 -75c0 -42 -33 -75 -75 -75c-41 0 -75 33 -75 75c0 41 34 75 75 75zM346 280c0 -147 -176 -185 -176 -294c0 -58 43 -87 107 -87c63 0 110 33 130 92l99 -56c-38 -98 -130 -148 -232 -148c-111 0 -219 66 -219 192c0 152 176 193 176 301h115z
" />
    <glyph glyph-name="quotedbl" unicode="&#x22;" horiz-adv-x="355" 
d="M60 480l-15 220h105l-15 -220h-75zM220 480l-15 220h105l-15 -220h-75z" />
    <glyph glyph-name="quotesingle" unicode="'" horiz-adv-x="195" 
d="M60 480l-15 220h105l-15 -220h-75z" />
    <glyph glyph-name="semicolon" unicode=";" horiz-adv-x="268" 
d="M141 363c-42 0 -75 34 -75 75c0 42 33 75 75 75c41 0 75 -33 75 -75c0 -41 -34 -75 -75 -75zM213 120l-70 -260h-90l40 260h120z" />
    <glyph glyph-name="slash" unicode="/" horiz-adv-x="525" 
d="M90 -100h-55l400 900h55z" />
    <glyph glyph-name="underscore" unicode="_" horiz-adv-x="520" 
d="M35 -161v104h450v-104h-450z" />
    <glyph glyph-name="braceleft" unicode="{" horiz-adv-x="357" 
d="M337 -108c-134 -10 -200 53 -200 179v154c0 67 -32 77 -87 74v105c55 -3 87 7 87 74v154c0 125 66 188 200 178v-104c-60 7 -92 -7 -92 -74v-154c0 -67 -22 -106 -65 -126c43 -21 65 -60 65 -127v-154c0 -67 32 -81 92 -75v-104z" />
    <glyph glyph-name="braceright" unicode="}" horiz-adv-x="357" 
d="M20 -108v104c60 -6 92 8 92 75v154c0 67 22 106 65 127c-43 20 -65 59 -65 126v154c0 67 -32 81 -92 74v104c134 10 200 -53 200 -178v-154c0 -67 32 -77 87 -74v-105c-55 3 -87 -7 -87 -74v-154c0 -126 -66 -189 -200 -179z" />
    <glyph glyph-name="bracketleft" unicode="[" horiz-adv-x="300" 
d="M280 696h-117v-692h117v-104h-225v900h225v-104z" />
    <glyph glyph-name="bracketright" unicode="]" horiz-adv-x="300" 
d="M245 800v-900h-225v104h117v692h-117v104h225z" />
    <glyph glyph-name="parenleft" unicode="(" horiz-adv-x="293" 
d="M165 -100c-70 140 -110 290 -110 450s40 310 110 450h108c-70 -140 -110 -290 -110 -450s40 -310 110 -450h-108z" />
    <glyph glyph-name="parenright" unicode=")" horiz-adv-x="293" 
d="M128 -100h-108c70 140 110 290 110 450s-40 310 -110 450h108c70 -140 110 -290 110 -450s-40 -310 -110 -450z" />
    <glyph glyph-name="emdash" unicode="&#x2014;" horiz-adv-x="750" 
d="M70 252v104h610v-104h-610z" />
    <glyph glyph-name="endash" unicode="&#x2013;" horiz-adv-x="650" 
d="M70 252v104h510v-104h-510z" />
    <glyph glyph-name="hyphen" unicode="-" horiz-adv-x="510" 
d="M70 252v104h370v-104h-370z" />
    <glyph glyph-name="guillemotleft" unicode="&#xab;" horiz-adv-x="527" 
d="M282 494l-110 -185l110 -185h-107l-110 185l110 185h107zM462 494l-110 -185l110 -185h-107l-110 185l110 185h107z" />
    <glyph glyph-name="guillemotright" unicode="&#xbb;" horiz-adv-x="527" 
d="M172 494l110 -185l-110 -185h-107l110 185l-110 185h107zM352 494l110 -185l-110 -185h-107l110 185l-110 185h107z" />
    <glyph glyph-name="guilsinglleft" unicode="&#x2039;" horiz-adv-x="347" 
d="M282 494l-110 -185l110 -185h-107l-110 185l110 185h107z" />
    <glyph glyph-name="guilsinglright" unicode="&#x203a;" horiz-adv-x="347" 
d="M172 494l110 -185l-110 -185h-107l110 185l-110 185h107z" />
    <glyph glyph-name="quotedblbase" unicode="&#x201e;" horiz-adv-x="435" 
d="M213 120l-70 -260h-90l40 260h120zM383 120l-70 -260h-90l40 260h120z" />
    <glyph glyph-name="quotedblleft" unicode="&#x201c;" horiz-adv-x="435" 
d="M52 440l70 260h90l-40 -260h-120zM222 440l70 260h90l-40 -260h-120z" />
    <glyph glyph-name="quotedblright" unicode="&#x201d;" horiz-adv-x="435" 
d="M213 700l-70 -260h-90l40 260h120zM383 700l-70 -260h-90l40 260h120z" />
    <glyph glyph-name="quoteleft" unicode="&#x2018;" horiz-adv-x="265" 
d="M52 440l70 260h90l-40 -260h-120z" />
    <glyph glyph-name="quoteright" unicode="&#x2019;" horiz-adv-x="265" 
d="M213 700l-70 -260h-90l40 260h120z" />
    <glyph glyph-name="quotesinglbase" unicode="&#x201a;" horiz-adv-x="265" 
d="M213 120l-70 -260h-90l40 260h120z" />
    <glyph glyph-name="space" unicode=" " horiz-adv-x="250" 
 />
    <glyph glyph-name="cent" unicode="&#xa2;" horiz-adv-x="542" 
d="M431 270l93 -53c-42 -79 -127 -130 -225 -130c-22 0 -43 2 -64 7l-30 -94h-55l36 111c-91 41 -151 131 -151 239c0 149 113 263 264 263c16 0 32 -1 48 -4l29 91h55l-34 -105c55 -22 99 -61 125 -111l-93 -54c-13 28 -36 50 -65 63l-96 -297c10 -2 20 -3 30 -3
c60 0 109 31 133 77zM143 350c0 -60 30 -110 76 -136l94 292c-5 1 -10 1 -15 1c-88 0 -155 -67 -155 -157z" />
    <glyph glyph-name="currency" unicode="&#xa4;" horiz-adv-x="546" 
d="M487 350c0 -50 -17 -96 -46 -132l70 -70l-36 -36l-70 71c-36 -28 -82 -44 -132 -44s-95 16 -131 44l-71 -71l-36 36l70 70c-29 36 -46 81 -46 132s17 97 46 133l-70 69l36 36l71 -70c36 27 81 43 131 43s96 -16 132 -43l70 70l36 -36l-69 -70c28 -36 45 -81 45 -132z
M273 242c62 0 107 46 107 108s-45 108 -107 108s-107 -46 -107 -108s45 -108 107 -108z" />
    <glyph glyph-name="dollar" unicode="$" horiz-adv-x="549" 
d="M519 192c0 -116 -83 -189 -197 -203v-89h-65v88c-111 7 -192 63 -227 154l99 57c22 -56 63 -91 128 -98v208c-97 36 -195 79 -195 207c0 118 91 186 195 196v88h65v-89c81 -11 150 -55 186 -137l-97 -56c-18 45 -48 70 -89 79v-198c95 -36 197 -74 197 -207zM177 516
c0 -42 24 -65 80 -91v174c-49 -8 -80 -38 -80 -83zM322 102c55 11 82 46 82 89c0 47 -31 70 -82 93v-182z" />
    <glyph glyph-name="Euro" unicode="&#x20ac;" horiz-adv-x="605" 
d="M487 189l96 -55c-42 -94 -120 -147 -223 -147c-150 0 -246 107 -271 273h-71v71h65v19c0 9 0 18 1 27h-66v71h73c26 161 121 265 269 265c101 0 178 -51 220 -142l-95 -55c-26 57 -67 85 -125 85c-80 0 -133 -54 -153 -153h221v-71h-229c-1 -9 -1 -18 -1 -27v-19h230v-71
h-223c19 -104 73 -161 155 -161c60 0 101 30 127 90z" />
    <glyph glyph-name="florin" unicode="&#x192;" horiz-adv-x="441" 
d="M441 597c-53 23 -106 4 -116 -60l-23 -133h99v-104h-116l-60 -351c-24 -138 -116 -180 -225 -150v107c53 -23 106 -4 116 60l57 334h-93v104h110l26 150c24 138 116 180 225 150v-107z" />
    <glyph glyph-name="uni20BD" unicode="&#x20bd;" horiz-adv-x="598" 
d="M353 255h-143v-67h235v-78h-235v-110h-115v110h-80v78h80v67h-80v103h80v342h258c127 0 227 -100 227 -225c0 -124 -100 -220 -227 -220zM210 592v-234h143c63 0 112 52 112 117c0 66 -49 117 -112 117h-143z" />
    <glyph glyph-name="sterling" unicode="&#xa3;" horiz-adv-x="583" 
d="M230 111h340v-111h-535v111h80v168h-65v101h65v118c0 148 110 215 215 215c100 0 173 -53 209 -141l-98 -56c-19 55 -51 85 -108 85c-55 0 -103 -33 -103 -107v-114h213v-101h-213v-168z" />
    <glyph glyph-name="yen" unicode="&#xa5;" horiz-adv-x="593" 
d="M608 700l-198 -343h112v-73h-155l-3 -6v-44h158v-73h-158v-161h-115v161h-177v73h177v44l-3 6h-174v73h131l-198 343h131l171 -310l170 310h131z" />
    <glyph glyph-name="cent.tf" horiz-adv-x="575" 
d="M447 270l93 -53c-42 -79 -127 -130 -225 -130c-22 0 -43 2 -64 7l-30 -94h-55l36 111c-91 41 -151 131 -151 239c0 149 113 263 264 263c16 0 32 -1 48 -4l29 91h55l-34 -105c55 -22 99 -61 125 -111l-93 -54c-13 28 -36 50 -65 63l-96 -297c10 -2 20 -3 30 -3
c60 0 109 31 133 77zM159 350c0 -60 30 -110 76 -136l94 292c-5 1 -10 1 -15 1c-88 0 -155 -67 -155 -157z" />
    <glyph glyph-name="dollar.tf" horiz-adv-x="575" 
d="M545 191c0 -116 -84 -190 -209 -202v-89h-65v88c-121 8 -204 68 -241 164l99 57c23 -62 65 -103 142 -111v208c-108 37 -209 79 -209 211c0 119 94 187 209 195v88h65v-89c88 -11 158 -57 194 -145l-97 -56c-18 49 -48 79 -97 90v-200c110 -37 209 -78 209 -209zM177 518
c0 -43 27 -68 94 -95v180c-62 -7 -94 -40 -94 -85zM336 99c65 9 94 43 94 88c0 47 -30 70 -94 96v-184z" />
    <glyph glyph-name="Euro.tf" horiz-adv-x="575" 
d="M459 196l95 -54c-35 -96 -112 -155 -211 -155c-142 0 -231 107 -254 273h-66v71h60v19c0 9 0 18 1 27h-61v71h67c25 161 114 265 253 265c96 0 171 -55 206 -145l-96 -55c-18 56 -60 88 -110 88c-73 0 -120 -54 -137 -153h196v-71h-203c-1 -9 -1 -18 -1 -27v-19h204v-71
h-198c17 -104 64 -161 139 -161c52 0 96 36 116 97z" />
    <glyph glyph-name="florin.tf" horiz-adv-x="575" 
d="M550 597c-68 23 -115 2 -131 -60l-35 -133h131v-104h-158l-93 -351c-36 -137 -125 -180 -239 -150v107c68 -23 115 -2 131 60l88 334h-129v104h156l40 150c36 137 125 180 239 150v-107z" />
    <glyph glyph-name="uni20BD.tf" horiz-adv-x="575" 
d="M323 255h-118v-67h210v-78h-210v-110h-115v110h-80v78h80v67h-80v103h80v342h233c127 0 227 -100 227 -225c0 -124 -100 -220 -227 -220zM205 592v-234h118c63 0 112 52 112 117c0 66 -49 117 -112 117h-118z" />
    <glyph glyph-name="sterling.tf" horiz-adv-x="575" 
d="M225 111h340v-111h-535v111h80v168h-65v101h65v118c0 148 110 215 215 215c100 0 173 -53 209 -141l-98 -56c-19 55 -51 85 -108 85c-55 0 -103 -33 -103 -107v-114h218v-101h-218v-168z" />
    <glyph glyph-name="yen.tf" horiz-adv-x="575" 
d="M572 700l-203 -343h144v-73h-168v-50h168v-73h-168v-161h-115v161h-167v73h167v50h-167v73h144l-203 343h130l154 -273l154 273h130z" />
    <glyph glyph-name="plus" unicode="+" horiz-adv-x="550" 
d="M495 401v-102h-169v-169h-102v169h-169v102h169v169h102v-169h169z" />
    <glyph glyph-name="minus" unicode="&#x2212;" horiz-adv-x="550" 
d="M55 299v102h440v-102h-440z" />
    <glyph glyph-name="multiply" unicode="&#xd7;" horiz-adv-x="498" 
d="M448 478l-128 -128l128 -128l-72 -70l-127 127l-127 -127l-72 70l128 128l-128 128l72 70l127 -127l127 127z" />
    <glyph glyph-name="divide" unicode="&#xf7;" horiz-adv-x="570" 
d="M285 470c-41 0 -72 31 -72 72s31 73 72 73s73 -32 73 -73s-32 -72 -73 -72zM50 299v102h470v-102h-470zM285 86c-41 0 -72 31 -72 72s31 73 72 73s73 -32 73 -73s-32 -72 -73 -72z" />
    <glyph glyph-name="equal" unicode="=" horiz-adv-x="530" 
d="M50 402v102h430v-102h-430zM50 197v102h430v-102h-430z" />
    <glyph glyph-name="notequal" unicode="&#x2260;" horiz-adv-x="530" 
d="M480 402h-157l-46 -103h203v-102h-249l-61 -137h-70l61 137h-111v102h157l46 103h-203v102h249l61 136h70l-61 -136h111v-102z" />
    <glyph glyph-name="greater" unicode="&#x3e;" horiz-adv-x="525" 
d="M50 585l425 -185v-100l-425 -185v114l303 121l-303 121v114z" />
    <glyph glyph-name="less" unicode="&#x3c;" horiz-adv-x="525" 
d="M475 585v-114l-303 -121l303 -121v-114l-425 185v100z" />
    <glyph glyph-name="greaterequal" unicode="&#x2265;" horiz-adv-x="525" 
d="M50 635l425 -163v-98l-425 -163v114l299 98l-299 98v114zM50 70v102h425v-102h-425z" />
    <glyph glyph-name="lessequal" unicode="&#x2264;" horiz-adv-x="525" 
d="M475 635v-114l-299 -98l299 -98v-114l-425 163v98zM50 70v102h425v-102h-425z" />
    <glyph glyph-name="plusminus" unicode="&#xb1;" horiz-adv-x="550" 
d="M326 484h169v-102h-169v-152h-102v152h-169v102h169v151h102v-151zM55 65v102h440v-102h-440z" />
    <glyph glyph-name="approxequal" unicode="&#x2248;" horiz-adv-x="577" 
d="M287 387c-101 52 -133 33 -162 -13l-75 28c35 125 120 159 241 97c92 -48 128 -39 146 28l90 -43c-30 -121 -119 -162 -240 -97zM140 174l-90 43c30 120 121 161 241 97c102 -53 133 -34 161 13l75 -28c-35 -126 -118 -160 -240 -97c-91 47 -129 39 -147 -28z" />
    <glyph glyph-name="asciitilde" unicode="~" horiz-adv-x="597" 
d="M457 433l90 -43c-35 -125 -129 -161 -250 -97c-101 53 -134 44 -157 -28l-90 43c35 126 131 161 251 97c102 -53 133 -43 156 28z" />
    <glyph glyph-name="logicalnot" unicode="&#xac;" horiz-adv-x="540" 
d="M50 401h440v-220h-108v118h-332v102z" />
    <glyph glyph-name="emptyset" unicode="&#x2205;" horiz-adv-x="804" 
d="M657 607c66 -66 107 -157 107 -257c0 -200 -162 -362 -362 -362c-73 0 -141 22 -198 59l-54 -67h-95l92 113c-66 66 -107 157 -107 257c0 200 162 362 362 362c73 0 141 -22 198 -59l54 67h95zM120 350c0 -76 29 -145 76 -195l354 437c-43 27 -93 42 -148 42
c-157 0 -282 -126 -282 -284zM402 66c157 0 282 126 282 284c0 76 -29 145 -76 195l-354 -437c43 -27 93 -42 148 -42z" />
    <glyph glyph-name="infinity" unicode="&#x221e;" horiz-adv-x="805" 
d="M578 520c100 0 175 -69 175 -170c0 -100 -75 -170 -175 -170c-73 0 -131 46 -175 93c-44 -47 -102 -93 -176 -93c-99 0 -174 70 -174 170c0 101 75 170 174 170c74 0 132 -46 176 -93c44 47 102 93 175 93zM232 278c41 0 76 31 107 72c-31 42 -66 73 -107 73
c-42 0 -72 -31 -72 -73c0 -41 30 -72 72 -72zM574 278c42 0 72 31 72 72c0 42 -30 73 -72 73c-41 0 -76 -31 -107 -73c31 -41 66 -72 107 -72z" />
    <glyph glyph-name="integral" unicode="&#x222b;" horiz-adv-x="441" 
d="M0 -203v107c53 -23 103 -4 113 60l100 588c24 138 113 180 228 150v-107c-59 23 -109 4 -119 -60l-100 -588c-24 -138 -113 -180 -222 -150z" />
    <glyph glyph-name="product" unicode="&#x220f;" horiz-adv-x="640" 
d="M70 -200v900h500v-900h-108v796h-284v-796h-108z" />
    <glyph glyph-name="summation" unicode="&#x2211;" horiz-adv-x="555" 
d="M40 -200v95l222 365l-207 344v96h450v-104h-323l202 -336l-216 -356h352v-104h-480z" />
    <glyph glyph-name="radical" unicode="&#x221a;" horiz-adv-x="665" 
d="M274 0l-127 211h-97v104h159l109 -188l226 673h111l-274 -800h-107z" />
    <glyph glyph-name="uni00B5" unicode="&#xb5;" horiz-adv-x="613" 
d="M551 102h37v-102h-56c-50 0 -87 21 -107 58c-34 -48 -86 -71 -151 -71c-40 0 -75 10 -103 29v-216h-108v700h108v-296c0 -75 44 -116 111 -116c72 0 128 42 128 145v267h108v-365c0 -20 13 -33 33 -33z" />
    <glyph glyph-name="partialdiff" unicode="&#x2202;" horiz-adv-x="581" 
d="M237 713c157 0 294 -142 294 -363c0 -239 -121 -363 -272 -363c-137 0 -214 95 -214 213c0 135 84 233 228 233c52 0 104 -15 148 -44c-11 128 -77 221 -194 222c-41 0 -81 -10 -121 -33v99c39 25 82 36 131 36zM262 89c91 0 147 79 159 203c-42 32 -91 44 -137 44
c-76 0 -131 -47 -131 -133c0 -67 40 -114 109 -114z" />
    <glyph glyph-name="percent" unicode="%" horiz-adv-x="747" 
d="M214 393c-94 0 -164 72 -164 160c0 89 70 160 164 160c93 0 163 -70 163 -160c0 -88 -69 -160 -163 -160zM213 481c43 0 72 33 72 72c0 41 -29 73 -72 73c-42 0 -71 -32 -71 -73c0 -40 29 -72 71 -72zM109 103l461 513l54 -31l-461 -514zM534 -12c-94 0 -164 72 -164 160
c0 89 70 160 164 160c93 0 163 -71 163 -160c0 -88 -70 -160 -163 -160zM533 76c43 0 72 33 72 72c0 41 -29 73 -72 73c-42 0 -71 -32 -71 -73c0 -40 29 -72 71 -72z" />
    <glyph glyph-name="perthousand" unicode="&#x2030;" horiz-adv-x="1114" 
d="M214 393c-94 0 -164 72 -164 160c0 89 70 160 164 160c93 0 163 -70 163 -160c0 -88 -69 -160 -163 -160zM213 481c43 0 72 33 72 72c0 41 -29 73 -72 73c-42 0 -71 -32 -71 -73c0 -40 29 -72 71 -72zM109 103l461 513l54 -31l-461 -514zM534 -12c-94 0 -164 72 -164 160
c0 89 70 160 164 160c93 0 163 -71 163 -160c0 -88 -70 -160 -163 -160zM901 -12c-94 0 -163 72 -163 160c0 89 69 160 163 160s163 -71 163 -160c0 -88 -69 -160 -163 -160zM533 76c43 0 72 33 72 72c0 41 -29 73 -72 73c-42 0 -71 -32 -71 -73c0 -40 29 -72 71 -72z
M901 76c42 0 71 33 71 72c0 41 -29 73 -71 73s-71 -32 -71 -73c0 -40 29 -72 71 -72z" />
    <glyph glyph-name="arrowup" unicode="&#x2191;" horiz-adv-x="700" 
d="M650 400v-144l-246 246v-502h-108v502l-246 -246v144l300 300z" />
    <glyph glyph-name="uni2197" unicode="&#x2197;" horiz-adv-x="642" 
d="M168 605h424v-424l-102 -102v349l-366 -365l-74 74l365 366h-349z" />
    <glyph glyph-name="arrowright" unicode="&#x2192;" horiz-adv-x="805" 
d="M455 650l300 -300l-300 -300h-144l248 248h-509v104h509l-248 248h144z" />
    <glyph glyph-name="uni2198" unicode="&#x2198;" horiz-adv-x="642" 
d="M490 604l102 -102v-424h-424l-102 102h349l-365 366l74 74l366 -365v349z" />
    <glyph glyph-name="arrowdown" unicode="&#x2193;" horiz-adv-x="700" 
d="M404 198l246 246v-144l-300 -300l-300 300v144l246 -246v502h108v-502z" />
    <glyph glyph-name="uni2199" unicode="&#x2199;" horiz-adv-x="642" 
d="M592 546l-365 -366h349l-102 -102h-424v424l102 102v-349l366 365z" />
    <glyph glyph-name="arrowleft" unicode="&#x2190;" horiz-adv-x="805" 
d="M755 402v-104h-509l248 -248h-144l-300 300l300 300h144l-248 -248h509z" />
    <glyph glyph-name="uni2196" unicode="&#x2196;" horiz-adv-x="642" 
d="M592 137l-74 -74l-366 365v-349l-102 102v424h424l102 -102h-349z" />
    <glyph glyph-name="arrowboth" unicode="&#x2194;" horiz-adv-x="1070" 
d="M756 615l264 -265l-264 -265h-142l211 213h-581l213 -213h-142l-265 265l265 265h142l-213 -213h582l-212 213h142z" />
    <glyph glyph-name="arrowupdn" unicode="&#x2195;" 
d="M580 429l-211 210v-578l211 211v-142l-265 -265l-265 265v142l211 -211v578l-211 -210v142l265 264l265 -264v-142z" />
    <glyph glyph-name="lozenge" unicode="&#x25ca;" horiz-adv-x="550" 
d="M231 0l-186 350l186 350h88l186 -350l-186 -350h-88zM275 137l114 213l-114 213l-113 -213z" />
    <glyph glyph-name="at" unicode="@" horiz-adv-x="784" 
d="M399 612c223 0 350 -177 350 -342c0 -148 -72 -215 -154 -215c-63 0 -108 29 -125 82c-24 -31 -60 -49 -103 -49c-88 0 -152 70 -152 162c0 93 64 163 152 163c39 0 72 -15 96 -40v30h92v-226c0 -44 15 -81 61 -81c53 0 98 51 98 174c0 176 -137 310 -315 310
c-182 0 -329 -142 -329 -330c0 -190 147 -330 347 -330c66 0 120 9 167 26v-34c-46 -15 -99 -24 -167 -24c-218 0 -382 152 -382 362c0 200 156 362 364 362zM386 172c43 0 77 31 77 78c0 48 -34 79 -77 79c-44 0 -78 -31 -78 -79c0 -47 34 -78 78 -78z" />
    <glyph glyph-name="ampersand" unicode="&#x26;" horiz-adv-x="668" 
d="M645 35l-93 -54l-67 72c-50 -40 -114 -66 -195 -66c-140 0 -240 77 -240 205c0 82 42 157 123 201c-24 33 -40 71 -40 122c0 120 95 198 213 198c94 0 178 -51 216 -146l-98 -56c-19 56 -62 90 -117 90s-99 -35 -99 -89c0 -45 27 -76 60 -112l170 -184
c17 34 29 75 36 122l98 -56c-11 -51 -30 -103 -58 -148zM296 94c46 0 84 13 116 37l-172 185c-54 -27 -74 -73 -74 -115c0 -64 46 -107 130 -107z" />
    <glyph glyph-name="paragraph" unicode="&#xb6;" horiz-adv-x="639" 
d="M595 700v-96h-61v-804h-102v804h-90v-804h-102v480c-116 0 -210 95 -210 210c0 117 94 210 210 210h355z" />
    <glyph glyph-name="section" unicode="&#xa7;" horiz-adv-x="531" 
d="M494 277c0 -52 -24 -96 -61 -127c23 -25 37 -58 37 -101c0 -101 -84 -161 -194 -161c-108 0 -182 43 -218 129l96 54c20 -61 64 -86 122 -86c52 0 86 24 86 64c0 52 -77 75 -155 108c-77 32 -154 77 -154 173c0 53 25 95 64 125c-20 25 -33 57 -33 99
c0 100 84 159 185 159c85 0 158 -42 193 -124l-89 -49c-22 51 -59 76 -104 76c-43 0 -77 -22 -77 -62c0 -51 69 -74 144 -106c77 -32 158 -76 158 -171zM161 335c0 -47 41 -71 93 -91c31 -12 67 -23 100 -39c21 16 32 36 32 62c0 48 -45 72 -100 93c-29 12 -61 23 -91 37
c-23 -15 -34 -36 -34 -62z" />
    <glyph glyph-name="copyright" unicode="&#xa9;" horiz-adv-x="794" 
d="M397 -12c-200 0 -362 162 -362 362s162 362 362 362s362 -162 362 -362s-162 -362 -362 -362zM397 20c181 0 327 148 327 330c0 183 -146 330 -327 330c-180 0 -327 -147 -327 -330c0 -182 147 -330 327 -330zM400 156c-109 0 -196 87 -196 194s87 195 196 195
c71 0 133 -37 167 -95l-83 -48c-14 29 -47 48 -85 48c-62 0 -100 -48 -100 -100c0 -51 38 -100 100 -100c39 0 71 20 86 49l82 -48c-33 -59 -96 -95 -167 -95z" />
    <glyph glyph-name="registered" unicode="&#xae;" horiz-adv-x="794" 
d="M397 712c200 0 362 -162 362 -362s-162 -362 -362 -362s-362 162 -362 362s162 362 362 362zM397 20c181 0 327 148 327 330c0 183 -146 330 -327 330c-180 0 -327 -147 -327 -330c0 -182 147 -330 327 -330zM549 414c0 -50 -22 -88 -59 -110l76 -139h-100l-59 117h-45
v-117h-92v370h137c83 0 142 -52 142 -121zM362 450v-88h40c35 0 55 18 55 44c0 29 -20 44 -55 44h-40z" />
    <glyph glyph-name="trademark" unicode="&#x2122;" horiz-adv-x="471" 
d="M201 700v-49h-56v-151h-53v151h-57v49h166zM384 700h52v-200h-52v116l-52 -80h-5l-52 79v-115h-52v200h52l54 -84z" />
    <glyph glyph-name="degree" unicode="&#xb0;" horiz-adv-x="396" 
d="M198 490c-94 0 -163 72 -163 160c0 89 69 160 163 160s163 -71 163 -160c0 -88 -67 -160 -163 -160zM198 580c42 0 69 30 69 70s-28 70 -69 70s-69 -30 -69 -70c0 -39 28 -70 69 -70z" />
    <glyph glyph-name="bar" unicode="|" horiz-adv-x="248" 
d="M70 -200v920h108v-920h-108z" />
    <glyph glyph-name="brokenbar" unicode="&#xa6;" horiz-adv-x="248" 
d="M70 350v370h108v-370h-108zM70 -200v370h108v-370h-108z" />
    <glyph glyph-name="dagger" unicode="&#x2020;" horiz-adv-x="480" 
d="M430 555v-104h-136v-451h-108v451h-136v104h136v145h108v-145h136z" />
    <glyph glyph-name="daggerdbl" unicode="&#x2021;" horiz-adv-x="480" 
d="M430 451h-136v-202h136v-104h-136v-145h-108v145h-136v104h136v202h-136v104h136v145h108v-145h136v-104z" />
    <glyph glyph-name="estimated" unicode="&#x212e;" horiz-adv-x="800" 
d="M400 710c221 0 370 -161 370 -360c0 -10 -5 -15 -15 -15h-560c-10 0 -15 -5 -15 -15v-192c0 -8 2 -13 7 -19c54 -57 128 -89 233 -89c99 0 177 36 231 97c5 6 10 9 18 9h37c13 0 18 -9 9 -19c-67 -72 -168 -117 -295 -117c-241 0 -390 161 -390 360s149 360 370 360z
M620 572c0 8 -2 13 -7 19c-54 57 -128 89 -213 89s-159 -32 -213 -89c-5 -6 -7 -11 -7 -19v-192c0 -10 5 -15 15 -15h410c10 0 15 5 15 15v192z" />
    <glyph glyph-name="uni2116" unicode="&#x2116;" horiz-adv-x="1031" 
d="M833 393c-94 0 -163 72 -163 160c0 89 69 160 163 160s163 -71 163 -160c0 -88 -67 -160 -163 -160zM490 700h115v-700h-90l-330 475v-475h-115v700h90l330 -475v475zM833 483c42 0 69 30 69 70s-28 70 -69 70s-69 -30 -69 -70c0 -39 28 -70 69 -70zM683 231v102h302
v-102h-302z" />
    <glyph glyph-name="asciicircum" unicode="^" horiz-adv-x="540" 
d="M314 700l186 -320h-118l-112 197l-111 -197h-119l186 320h88z" />
    <glyph glyph-name="uni0308" unicode="&#x308;" horiz-adv-x="0" 
d="M-270 558c-33 0 -60 27 -60 60s27 60 60 60s60 -27 60 -60s-27 -60 -60 -60zM-80 558c-33 0 -60 27 -60 60s27 60 60 60s60 -27 60 -60s-27 -60 -60 -60z" />
    <glyph glyph-name="uni0307" unicode="&#x307;" horiz-adv-x="0" 
d="M-90 558c-38 0 -70 31 -70 70c0 38 32 70 70 70c39 0 70 -32 70 -70c0 -39 -31 -70 -70 -70z" />
    <glyph glyph-name="gravecomb" unicode="&#x300;" horiz-adv-x="0" 
d="M-20 565l-80 135h-130l106 -135h104z" />
    <glyph glyph-name="acutecomb" unicode="&#x301;" horiz-adv-x="0" 
d="M-230 565h104l106 135h-130z" />
    <glyph glyph-name="uni030B" unicode="&#x30b;" horiz-adv-x="0" 
d="M-382 560h108l81 135h-114zM-219 560h108l91 135h-114z" />
    <glyph glyph-name="uni0302" unicode="&#x302;" horiz-adv-x="0" 
d="M-20 560h-110l-52 74l-53 -74h-110l106 140h113z" />
    <glyph glyph-name="uni030C" unicode="&#x30c;" horiz-adv-x="0" 
d="M-130 700h110l-106 -140h-113l-106 140h110l53 -73z" />
    <glyph glyph-name="uni0306" unicode="&#x306;" horiz-adv-x="0" 
d="M-177 552c-99 0 -158 51 -158 140h98c0 -40 21 -59 60 -59c38 0 59 19 59 59h98c0 -89 -58 -140 -157 -140z" />
    <glyph glyph-name="uni030A" unicode="&#x30a;" horiz-adv-x="0" 
d="M-142 543c-70 0 -119 48 -119 112s49 113 119 113c72 0 120 -49 120 -113s-48 -112 -120 -112zM-142 614c29 0 44 18 44 41c0 24 -15 42 -44 42c-28 0 -43 -18 -43 -42c0 -23 15 -41 43 -41z" />
    <glyph glyph-name="tildecomb" unicode="&#x303;" horiz-adv-x="0" 
d="M-335 567c0 147 89 164 169 110c43 -31 62 -36 62 23h89c0 -147 -88 -164 -168 -110c-44 31 -63 36 -63 -23h-89z" />
    <glyph glyph-name="uni0304" unicode="&#x304;" horiz-adv-x="0" 
d="M-300 570v89h280v-89h-280z" />
    <glyph glyph-name="uni0312" unicode="&#x312;" horiz-adv-x="0" 
d="M-103 970l-30 -190h103l10 190h-83z" />
    <glyph glyph-name="uni0326" unicode="&#x326;" horiz-adv-x="0" 
d="M-50 -255l30 190h-103l-10 -190h83z" />
    <glyph glyph-name="uni0327" unicode="&#x327;" horiz-adv-x="0" 
d="M-98 -46c42 -8 78 -34 78 -79c0 -56 -47 -101 -215 -91v79c82 -7 121 4 121 25c0 20 -28 28 -73 30v82h89v-46z" />
    <glyph glyph-name="uni0328" unicode="&#x328;" horiz-adv-x="0" 
d="M-99 -213c-54 0 -91 30 -91 83c0 39 26 87 68 130h97c-38 -37 -61 -78 -61 -105c0 -19 10 -28 28 -28c11 -1 21 2 33 6v-72c-22 -9 -44 -14 -74 -14z" />
    <glyph glyph-name="acute" unicode="&#xb4;" horiz-adv-x="250" 
d="M20 565h104l106 135h-130z" />
    <glyph glyph-name="breve" unicode="&#x2d8;" horiz-adv-x="355" 
d="M178 552c-99 0 -158 51 -158 140h98c0 -40 21 -59 60 -59c38 0 59 19 59 59h98c0 -89 -58 -140 -157 -140z" />
    <glyph glyph-name="caron" unicode="&#x2c7;" horiz-adv-x="365" 
d="M235 700h110l-106 -140h-113l-106 140h110l53 -73z" />
    <glyph glyph-name="cedilla" unicode="&#xb8;" horiz-adv-x="255" 
d="M157 -46c42 -8 78 -34 78 -79c0 -56 -47 -101 -215 -91v79c82 -7 121 4 121 25c0 20 -28 28 -73 30v82h89v-46z" />
    <glyph glyph-name="circumflex" unicode="&#x2c6;" horiz-adv-x="365" 
d="M345 560h-110l-52 74l-53 -74h-110l106 140h113z" />
    <glyph glyph-name="dieresis" unicode="&#xa8;" horiz-adv-x="350" 
d="M80 558c-33 0 -60 27 -60 60s27 60 60 60s60 -27 60 -60s-27 -60 -60 -60zM270 558c-33 0 -60 27 -60 60s27 60 60 60s60 -27 60 -60s-27 -60 -60 -60z" />
    <glyph glyph-name="dotaccent" unicode="&#x2d9;" horiz-adv-x="185" 
d="M90 558c-38 0 -70 31 -70 70c0 38 32 70 70 70c39 0 70 -32 70 -70c0 -39 -31 -70 -70 -70z" />
    <glyph glyph-name="grave" unicode="`" horiz-adv-x="250" 
d="M230 565l-80 135h-130l106 -135h104z" />
    <glyph glyph-name="hungarumlaut" unicode="&#x2dd;" horiz-adv-x="402" 
d="M20 560h108l81 135h-114zM183 560h108l91 135h-114z" />
    <glyph glyph-name="macron" unicode="&#xaf;" horiz-adv-x="320" 
d="M20 570v89h280v-89h-280z" />
    <glyph glyph-name="ogonek" unicode="&#x2db;" horiz-adv-x="205" 
d="M111 -213c-54 0 -91 30 -91 83c0 39 26 87 68 130h97c-38 -37 -61 -78 -61 -105c0 -19 10 -28 28 -28c11 -1 21 2 33 6v-72c-22 -9 -44 -14 -74 -14z" />
    <glyph glyph-name="ring" unicode="&#x2da;" horiz-adv-x="279" 
d="M139 543c-70 0 -119 48 -119 112s49 113 119 113c72 0 120 -49 120 -113s-48 -112 -120 -112zM139 614c29 0 44 18 44 41c0 24 -15 42 -44 42c-28 0 -43 -18 -43 -42c0 -23 15 -41 43 -41z" />
    <glyph glyph-name="tilde" unicode="&#x2dc;" horiz-adv-x="360" 
d="M20 567c0 147 89 164 169 110c43 -31 62 -36 62 23h89c0 -147 -88 -164 -168 -110c-44 31 -63 36 -63 -23h-89z" />
    <glyph glyph-name="brevecy" horiz-adv-x="340" 
d="M30 570v94h280v-94h-280z" />
    </font>
</defs>
</svg>
