<?xml version="1.0" standalone="no"?>
<!DOCTYPE svg PUBLIC "-//W3C//DTD SVG 1.1//EN" "http://www.w3.org/Graphics/SVG/1.1/DTD/svg11.dtd" >
<svg xmlns="http://www.w3.org/2000/svg" xmlns:xlink="http://www.w3.org/1999/xlink" version="1.1">
<metadata>
Created by FontForge 20161003 at Fri Aug 16 18:31:31 2019
 By www-data
Generated by Fontographer 4.1.4
</metadata>
<defs>
<font id="FAUBold" horiz-adv-x="271" >
  <font-face 
    font-family="FAU"
    font-weight="700"
    font-stretch="normal"
    units-per-em="1000"
    panose-1="0 0 7 0 0 0 0 0 0 0"
    ascent="800"
    descent="-200"
    x-height="471"
    cap-height="706"
    bbox="-142 -250 1214 905"
    underline-thickness="50"
    underline-position="-125"
    unicode-range="U+0020-F002"
  />
<missing-glyph horiz-adv-x="500" 
d="M63 0v769h375v-769h-375zM125 63h250v644h-250v-644z" />
    <glyph glyph-name=".notdef" horiz-adv-x="500" 
d="M63 0v769h375v-769h-375zM125 63h250v644h-250v-644z" />
    <glyph glyph-name="glyph1" horiz-adv-x="0" 
 />
    <glyph glyph-name="glyph2" 
 />
    <glyph glyph-name="space" unicode=" " 
 />
    <glyph glyph-name="exclam" unicode="!" horiz-adv-x="250" 
d="M100 214v492h85v-492h-85zM65 75q0 32 23 55t55 23t55 -23t23 -55t-23 -55t-55 -23t-55 23t-23 55z" />
    <glyph glyph-name="quotedbl" unicode="&#x22;" horiz-adv-x="396" 
d="M363 680v0l-47 -259h-27l-47 247q-2 11 -2 22q0 25 18.5 42t47.5 17q45 0 56 -38q2 -10 1 -31zM155 680v0l-47 -259h-27l-47 247q-2 11 -2 22q0 26 18.5 42.5t47.5 16.5q31 0 48 -23q11 -15 9 -46z" />
    <glyph glyph-name="numbersign" unicode="#" horiz-adv-x="667" 
d="M466 214l-31 -215h-101l31 215h-99l-30 -215h-102l30 215h-122v99h136l12 95h-126v100h139l27 199h104l-28 -199h98l27 199h101l-27 -199h118v-100h-131l-14 -95h123v-99h-135zM278 313h100l13 95h-99z" />
    <glyph glyph-name="dollar" unicode="$" horiz-adv-x="542" 
d="M208 706v124h131v-124h156v-175l-169 -45l-1 73h-108v-130h130q80 0 116 -24q53 -35 53 -125v-113q0 -53 -6 -75q-25 -92 -144 -92h-27v-129h-131v129h-173v189l182 53v-95h108v142h-141q-83 0 -121 37t-38 124v96q0 88 37 124t114 36h32z" />
    <glyph glyph-name="percent" unicode="%" horiz-adv-x="875" 
d="M247 0l284 706h96l-285 -706h-95zM217 358v256h-64v-256h64zM339 607v-239q0 -50 -17 -72q-24 -30 -91 -30h-92q-56 0 -80.5 23t-24.5 78v245q0 94 96 94h114q95 0 95 -99zM716 92v256h-64v-256h64zM838 341v-239q0 -50 -17 -72q-24 -30 -91 -30h-92q-56 0 -80.5 23
t-24.5 78v245q0 94 96 94h114q95 0 95 -99z" />
    <glyph glyph-name="ampersand" unicode="&#x26;" horiz-adv-x="625" 
d="M452 633v-125q0 -32 -28 -58l-75 -69l64 -63l92 85l78 -85l-90 -85l130 -136l-103 -101l-131 139l-111 -108q-34 -33 -64 -33q-32 0 -66 35l-100 103q-33 34 -33 67q0 38 44 79l101 94l-56 57q-18 18 -23 30t-5 37v137q0 45 20 61q16 12 60 12h213q45 0 62 -12
q21 -15 21 -61zM313 597h-97v-77l48 -48l49 48v77zM309 217l-63 65l-71 -66l63 -66z" />
    <glyph glyph-name="quotesingle" unicode="'" horiz-adv-x="208" 
d="M165 680v0l-47 -259h-27l-47 247q-1 5 -1 22q0 29 22 45q18 14 43 14q32 0 49 -23q10 -14 8 -46z" />
    <glyph glyph-name="parenleft" unicode="(" 
d="M66 147v236q0 100 6 145q9 71 38 119q46 77 159 89v-62q-36 -4 -55 -11q-35 -15 -55 -51q-31 -57 -31 -228v-238q0 -136 32.5 -189.5t108.5 -59.5v-61q-84 2 -137 57q-42 43 -56 116q-10 49 -10 138z" />
    <glyph glyph-name="parenright" unicode=")" 
d="M203 425v-236q0 -100 -6 -145q-9 -71 -38 -119q-46 -77 -159 -89v62q36 4 55 11q35 15 55 51q31 57 31 228v238q0 136 -32.5 189.5t-108.5 59.5v61q84 -2 137 -57q42 -43 56 -116q10 -49 10 -138z" />
    <glyph glyph-name="asterisk" unicode="*" horiz-adv-x="333" 
d="M130 611v95h71v-95l86 49l35 -60l-85 -50l85 -50l-35 -60l-86 50v-99h-71v99l-84 -50l-35 60l87 50l-87 50l35 60z" />
    <glyph glyph-name="plus" unicode="+" horiz-adv-x="667" 
d="M386 240v-240h-103v240h-241v102h241v241h103v-241h239v-102h-239z" />
    <glyph glyph-name="comma" unicode="," horiz-adv-x="208" 
d="M-9 -97l109 244h90l-110 -244h-89z" />
    <glyph glyph-name="hyphen" unicode="-" horiz-adv-x="354" 
d="M24 194v98h305v-98h-305z" />
    <glyph glyph-name="hyphen" unicode="&#x2010;" horiz-adv-x="354" 
d="M24 194v98h305v-98h-305z" />
    <glyph glyph-name="period" unicode="." horiz-adv-x="208" 
d="M28 74q0 32 22.5 54t54.5 22t54 -22t22 -54t-22 -54.5t-54 -22.5t-54.5 22.5t-22.5 54.5z" />
    <glyph glyph-name="slash" unicode="/" horiz-adv-x="396" 
d="M16 0l295 706h68l-293 -706h-70z" />
    <glyph glyph-name="zero" unicode="0" horiz-adv-x="583" 
d="M209 706h162q72 0 105 -21q59 -37 59 -139v-368q0 -86 -25 -122q-38 -56 -135 -56h-172q-70 0 -106 27q-50 37 -50 127v385q0 76 26 114q37 53 136 53zM346 559h-104v-412h104v412z" />
    <glyph glyph-name="one" unicode="1" horiz-adv-x="512" 
d="M74 582l138 124h192v-559h63v-147h-329v147h74v389l-74 -71z" />
    <glyph glyph-name="two" unicode="2" horiz-adv-x="569" 
d="M539 0h-492v191q1 24 5 44q9 50 35 77t72 40l181 49v157h-112v-87l-181 -51v116q0 98 43 135q39 34 121 34h139q55 0 82 -7q46 -11 71.5 -46.5t25.5 -106.5v-256l-292 -85v-57h302v-147z" />
    <glyph glyph-name="three" unicode="3" horiz-adv-x="563" 
d="M53 445v259h475v-130l-108 -142q24 -3 34 -5q17 -5 30 -16q31 -27 31 -85v-166q0 -67 -23 -102q-25 -39 -71 -51q-26 -8 -77 -8h-155q-67 0 -107 30q-45 34 -45 115v54l178 51v-103h112v164h-113v87l122 167h-124v-73z" />
    <glyph glyph-name="four" unicode="4" horiz-adv-x="583" 
d="M268 707h198v-351h56l47 -133h-103v-76h74v-147h-329v147h76v76h-261v156zM287 356v82q0 11 1 31.5t1 30.5q0 32 6 62q-5 -11 -18 -35.5t-28 -45.5l-87 -125h125z" />
    <glyph glyph-name="five" unicode="5" horiz-adv-x="583" 
d="M60 706h467v-147h-285v-72h131q72 0 104 -18q60 -34 60 -140v-169q0 -71 -25.5 -106.5t-72.5 -46.5q-28 -7 -83 -7h-141q-83 0 -122 34q-43 37 -43 135v43l183 55v-120h113v182h-286v377z" />
    <glyph glyph-name="six" unicode="6" horiz-adv-x="583" 
d="M529 555v-31l-178 -62v97h-107v-128h135q86 0 123 -33q41 -36 41 -123v-109q0 -78 -27 -115q-37 -51 -126 -51h-176q-51 0 -76 7q-45 13 -68 51q-21 34 -21 107v367q0 51 7 77q11 44 45 69q38 28 117 28h147q61 0 97 -17q67 -32 67 -134zM244 290v-143h107v143h-107z" />
    <glyph glyph-name="seven" unicode="7" horiz-adv-x="583" 
d="M37 417v289h516v-111l-213 -595h-209l216 559h-136v-88z" />
    <glyph glyph-name="eight" unicode="8" horiz-adv-x="583" 
d="M527 561v-60q0 -67 -25 -99q-18 -23 -63 -40q22 -9 31 -14q15 -8 28 -20q39 -38 39 -113v-56q0 -68 -24 -104t-69 -48q-27 -7 -82 -7h-151q-70 0 -105 19q-61 33 -61 131v61q0 68 20 98t77 53q-56 22 -76 63q-13 27 -13 72v58q0 67 23 100q35 51 131 51h172q83 0 119 -40
q29 -32 29 -105zM345 559h-107v-128h107v128zM345 291h-107v-144h107v144z" />
    <glyph glyph-name="nine" unicode="9" horiz-adv-x="583" 
d="M54 151v31l178 65v-100h107v128h-135q-86 0 -123 33q-41 37 -41 123v109q0 78 27 115q37 51 126 51h176q51 0 76 -7q45 -13 68 -51q21 -34 21 -107v-367q0 -82 -25 -119q-38 -55 -144 -55h-147q-61 0 -97 17q-67 32 -67 134zM339 416v143h-107v-143h107z" />
    <glyph glyph-name="colon" unicode=":" horiz-adv-x="250" 
d="M71 72q0 32 22.5 54t53.5 22q32 0 54 -22t22 -54q0 -31 -22 -53.5t-54 -22.5q-31 0 -53.5 22.5t-22.5 53.5zM71 398q0 32 22.5 54t53.5 22q32 0 54 -22t22 -54q0 -31 -22 -53.5t-54 -22.5q-31 0 -53.5 22.5t-22.5 53.5z" />
    <glyph glyph-name="semicolon" unicode=";" horiz-adv-x="313" 
d="M33 -95l110 242h90l-110 -242h-90zM152 275q0 32 23 55t55 23t55 -23t23 -55t-23 -55t-55 -23t-55 23t-23 55z" />
    <glyph glyph-name="less" unicode="&#x3c;" horiz-adv-x="667" 
d="M667 109v-112l-667 303v104l667 305v-113l-529 -244z" />
    <glyph glyph-name="equal" unicode="=" horiz-adv-x="667" 
d="M667 249v-103h-667v103h667zM667 437v-103h-667v103h667z" />
    <glyph glyph-name="greater" unicode="&#x3e;" horiz-adv-x="667" 
d="M667 300l-667 -303v112l528 243l-528 244v113l667 -305v-104z" />
    <glyph glyph-name="question" unicode="?" horiz-adv-x="460" 
d="M261 309v-98h-133v202l140 40v144h-92v-63l-123 -36v108q0 53 20.5 77t73.5 24h168q48 0 71 -17q28 -24 28 -93v-173q0 -51 -26 -71q-12 -9 -69 -26zM122 75q0 32 22 54t54 22q31 0 53 -22t22 -54q0 -31 -22 -53t-53 -22q-32 0 -54 22t-22 53z" />
    <glyph glyph-name="at" unicode="@" horiz-adv-x="896" 
d="M791 71l36 -46q-64 -67 -148 -105q-98 -44 -214 -44q-179 0 -288 99.5t-109 267.5q0 183 121 322q129 147 316 147q139 0 230 -94t91 -239q0 -123 -68.5 -218.5t-150.5 -95.5q-75 0 -85 79q-50 -76 -124 -76q-57 0 -95 44q-43 50 -43 134q0 113 72 200q69 83 151 83
q31 0 54 -12q32 -17 50 -61l11 46h75l-38 -174q-31 -142 -31 -169q0 -28 24 -28q39 0 83 68q51 79 51 184q0 117 -75 193.5t-184 76.5q-122 0 -213 -87q-61 -58 -97 -151q-35 -89 -35 -177q0 -132 84 -215q87 -87 236 -87q183 0 313 135zM555 402q-2 39 -24 59
q-17 15 -38 15q-55 0 -99 -99q-38 -86 -38 -161q0 -40 13 -59q17 -25 46 -25q63 0 107 112q37 93 33 158z" />
    <glyph glyph-name="A" unicode="A" horiz-adv-x="604" 
d="M52 147l97 559h307l99 -559h48v-147h-217l-25 172h-119l-24 -172h-218v147h52zM346 294l-44 296l-45 -296h89z" />
    <glyph glyph-name="B" unicode="B" horiz-adv-x="579" 
d="M12 559v147h351q61 0 90 -6q51 -9 74 -39q27 -34 27 -123q0 -85 -18 -119q-23 -41 -90 -53q69 -19 91 -56q17 -29 17 -98q0 -135 -34 -173q-23 -25 -67 -33q-26 -5 -88 -5h-353v147h47v149h-47l47 127v135h-47zM362 559h-112v-133h112v133zM362 297h-112v-149h112v149z
" />
    <glyph glyph-name="C" unicode="C" horiz-adv-x="514" 
d="M219 706h277v-218l-163 -46v117h-105v-412h105v93l171 48v-288h-290q-59 0 -85 7q-60 16 -81 68q-12 30 -12 86v374q0 85 30 122q26 32 70 43q28 6 83 6z" />
    <glyph glyph-name="D" unicode="D" horiz-adv-x="583" 
d="M14 559v147h358q78 0 110 -17q43 -23 57 -75q9 -31 9 -92v-330q0 -83 -17 -121q-21 -46 -67 -62q-29 -9 -87 -9h-363v147h45v412h-45zM356 147v412h-105v-412h105z" />
    <glyph glyph-name="E" unicode="E" horiz-adv-x="536" 
d="M14 560v147h499v-231h-162v84h-102v-134h164l-46 -130h-118v-149h102v91h173v-238h-510v147h46v150h-47l47 131v132h-46z" />
    <glyph glyph-name="F" unicode="F" horiz-adv-x="534" 
d="M12 558v148h515v-225h-169v77h-105v-133h165l-45 -128h-120v-152h45v-147h-286v147h47v150h-47l47 132v131h-47z" />
    <glyph glyph-name="G" unicode="G" horiz-adv-x="553" 
d="M341 280h-77l53 148h251l-45 -128v-300h-318q-78 0 -116 25q-34 22 -46 61q-7 26 -7 81v366q0 88 23 122.5t67 45.5q27 6 85 6h304v-206h-174v59h-110v-413h110v133z" />
    <glyph glyph-name="H" unicode="H" horiz-adv-x="623" 
d="M15 560v147h238v-274h100v274h240v-147h-46v-413h46v-147h-240v285h-100v-285h-238v147h46v150h-47l47 134v129h-46z" />
    <glyph glyph-name="I" unicode="I" horiz-adv-x="313" 
d="M13 559v147h286v-147h-47v-412h47v-147h-286v147h46v412h-46z" />
    <glyph glyph-name="J" unicode="J" horiz-adv-x="542" 
d="M241 706h286v-147h-46v-388q0 -76 -23.5 -113.5t-69.5 -49.5q-29 -8 -86 -8h-106q-73 0 -112 21q-42 23 -56 66q-9 25 -9 73v142l185 -49v-106h85v412h-48v147z" />
    <glyph glyph-name="K" unicode="K" horiz-adv-x="618" 
d="M391 707l-140 -269v269h-241v-147h46v-413h-46v-147h241v278l103 -30v-248h241v147h-52v205l-131 36l99 172h63v147h-183z" />
    <glyph glyph-name="L" unicode="L" horiz-adv-x="551" 
d="M20 560v147h283v-147h-46v-413h87v125l180 53v-325h-504v147h45v413h-45z" />
    <glyph glyph-name="M" unicode="M" horiz-adv-x="813" 
d="M13 706h225l141 -258q10 -19 28 -63q8 18 31 63l138 258h221v-147h-46v-412h46v-147h-228v327q0 32 2 54l-165 -303l-170 306q2 -42 2 -49v-335h-225v147h47v412h-47v147z" />
    <glyph glyph-name="N" unicode="N" horiz-adv-x="667" 
d="M436 706h216v-147h-46v-412h46v-147h-225l-144 275q-36 68 -57 135q4 -34 4 -66l4 -344h-219v147h46v412h-46v147h226l158 -310q26 -51 43 -103q-6 60 -6 130v283z" />
    <glyph glyph-name="O" unicode="O" horiz-adv-x="562" 
d="M205 706h138q63 0 94 -9q47 -13 68.5 -51t21.5 -143v-292q0 -83 -9 -117q-16 -61 -70 -82q-32 -12 -98 -12h-128q-101 0 -141 33q-29 24 -39 65q-5 24 -5 72v345q0 81 15 117q20 49 68 65q28 9 85 9zM335 147v412h-105v-412h105z" />
    <glyph glyph-name="P" unicode="P" horiz-adv-x="556" 
d="M10 560v147h353q93 0 132 -24q55 -33 55 -132v-92q0 -80 -18 -114q-22 -41 -70 -55q-28 -7 -85 -7h-126v-136h44v-147h-285v147h48v136h-44l44 125v152h-48zM360 560h-109v-154h109v154z" />
    <glyph glyph-name="Q" unicode="Q" horiz-adv-x="562" 
d="M205 706h138q63 0 91 -8q49 -12 72 -53q21 -37 21 -142v-292q0 -64 -4 -91q-6 -45 -27 -72q-25 -32 -71 -42q-27 -6 -83 -6v-72l-120 -40v112q-102 0 -141 33q-44 37 -44 137v345q0 81 15 117q20 49 68 65q28 9 85 9zM336 147v412h-108v-412h108z" />
    <glyph glyph-name="R" unicode="R" horiz-adv-x="605" 
d="M27 560v147h369q93 0 132 -36q26 -23 33 -59q5 -22 5 -68q0 -85 -13 -117q-20 -49 -88 -71q26 -6 37 -12q20 -9 34 -25q27 -33 27 -96v-76h47v-147h-133q-59 0 -78 12q-24 14 -24 61v215h-108v-288h-240v147h45v144h-45l45 128v141h-45zM375 560h-108v-140h108v140z" />
    <glyph glyph-name="S" unicode="S" horiz-adv-x="562" 
d="M194 706h311v-171l-171 -50v74h-108v-129h129q82 0 120 -25q51 -33 51 -128v-113q0 -51 -9 -78q-14 -45 -56 -68q-34 -18 -101 -18h-316v189l182 50v-92h108v142h-141q-84 0 -121.5 38.5t-37.5 114.5v117q0 73 34 108q38 39 126 39z" />
    <glyph glyph-name="T" unicode="T" horiz-adv-x="625" 
d="M9 706h606v-293l-136 45v101h-71v-412h46v-147h-284v147h46v412h-71v-99l-137 -44z" />
    <glyph glyph-name="U" unicode="U" horiz-adv-x="604" 
d="M15 559v147h239v-559h99v559h238v-147h-46v-368q0 -100 -26 -138q-36 -53 -138 -53h-165q-78 0 -115 32q-26 22 -34 58q-6 25 -6 80v389h-46z" />
    <glyph glyph-name="V" unicode="V" horiz-adv-x="604" 
d="M2 559v147h212l66 -374q19 -107 24 -175q6 76 21 160l44 242h-46v147h279v-147h-49l-118 -559h-271l-116 559h-46z" />
    <glyph glyph-name="W" unicode="W" horiz-adv-x="917" 
d="M2 559v147h283v-147h-59l38 -270q6 -45 12 -152q6 80 24 170l79 399h169l74 -391q15 -81 25 -167q5 80 14 146l36 265h-65v147h284v-147h-47l-89 -559h-240l-65 333q-5 25 -15 94q-7 -43 -19 -106l-62 -321h-238l-93 559h-46z" />
    <glyph glyph-name="X" unicode="X" horiz-adv-x="583" 
d="M341 597v109h240v-147h-52l-125 -192l132 -220h45v-147h-177l-77 132q-13 23 -37 75l-56 -96v-111h-234v147h50l134 208l-129 204h-46v147h180l57 -101q24 -42 45 -92q24 43 50 84z" />
    <glyph glyph-name="Y" unicode="Y" horiz-adv-x="542" 
d="M1 553v153h188l68 -186q8 -22 14 -58q4 20 19 68l70 176h180v-153h-53l-123 -266v-140h49v-147h-285v147h49v140l-126 266h-50z" />
    <glyph glyph-name="Z" unicode="Z" horiz-adv-x="521" 
d="M21 466v240h474v-139l-260 -420h114v76l154 43v-266h-491v147l260 412h-99v-46z" />
    <glyph glyph-name="bracketleft" unicode="[" horiz-adv-x="229" 
d="M212 -121v-52h-89q-29 0 -40 12t-11 43v807q0 53 51 53h89v-53h-77v-810h77z" />
    <glyph glyph-name="backslash" unicode="\" horiz-adv-x="396" 
d="M16 706h68l295 -706h-70z" />
    <glyph glyph-name="bracketright" unicode="]" horiz-adv-x="229" 
d="M18 690v52h89q29 0 40 -12t11 -43v-807q0 -53 -51 -53h-89v53h77v810h-77z" />
    <glyph glyph-name="asciicircum" unicode="^" horiz-adv-x="729" 
d="M414 706l187 -382h-118l-116 245l-122 -245h-117l195 382h91z" />
    <glyph glyph-name="underscore" unicode="_" horiz-adv-x="500" 
d="M510 -75v-50h-520v50h520z" />
    <glyph glyph-name="grave" unicode="`" 
d="M40 696h111l79 -159h-100z" />
    <glyph glyph-name="a" unicode="a" horiz-adv-x="500" 
d="M447 361v-234h45v-127h-212v54l-60 -54h-101q-51 0 -73 24t-22 80v68q0 57 25 79q22 18 76 18h155v87h-96v-67l-147 49v25q0 56 22 80q26 28 89 28h187q64 0 90 -30q22 -25 22 -80zM280 183h-96v-69h96v69z" />
    <glyph glyph-name="b" unicode="b" horiz-adv-x="486" 
d="M8 579v127h213v-287l55 52h94q56 0 78 -30q16 -22 16 -69v-249q0 -53 -12 -77q-23 -46 -100 -46h-71l-60 58v-58h-213v127h44v452h-44zM297 344h-76v-217h76v217z" />
    <glyph glyph-name="c" unicode="c" horiz-adv-x="438" 
d="M413 363v-41l-148 -52v73h-63v-216h63v42l148 54v-96q0 -73 -18 -97q-23 -30 -94 -30h-140q-40 0 -57 4q-46 11 -61 49q-9 21 -9 63v192q0 98 17 126q21 37 100 37h143q54 0 78 -14q41 -24 41 -94z" />
    <glyph glyph-name="d" unicode="d" horiz-adv-x="500" 
d="M237 706h211v-579h44v-127h-210v60l-62 -60h-69q-62 0 -87 22q-28 24 -28 81v260q0 56 21 80q24 28 81 28h88l56 -52v160h-45v127zM282 127v219h-77v-219h77z" />
    <glyph glyph-name="e" unicode="e" horiz-adv-x="472" 
d="M436 359v-157h-236v-88h76v69l160 -58v-15q0 -59 -25.5 -84.5t-79.5 -25.5h-184q-68 0 -92 23q-27 24 -27 94v223q0 62 12 86q22 45 97 45h174q72 0 98.5 -22.5t26.5 -89.5zM276 292v66h-76v-66h76z" />
    <glyph glyph-name="f" unicode="f" horiz-adv-x="313" 
d="M178 706h128v-127h-67v-108h73l-46 -128h-27v-216h46v-127h-262v127h48v216h-74l50 128h24v127q0 59 24.5 83.5t82.5 24.5z" />
    <glyph glyph-name="g" unicode="g" horiz-adv-x="500" 
d="M275 471h217v-128h-45v-409q0 -64 -18 -89q-23 -31 -100 -31h-174q-59 0 -79 13q-28 18 -28 76v20l154 51v-56h78v139l-62 -57h-83q-55 0 -77.5 20t-22.5 73v255q0 71 22 96q16 18 41 24q16 3 57 3h61l59 -53v53zM280 127v216h-78v-216h78z" />
    <glyph glyph-name="h" unicode="h" horiz-adv-x="521" 
d="M9 579v127h213v-287l56 52h93q56 0 78 -25q19 -22 19 -73v-246h43v-127h-211v343h-78v-343h-213v127h44v452h-44z" />
    <glyph glyph-name="i" unicode="i" 
d="M7 344v127h213v-344h45v-127h-258v127h45v217h-45zM52 606q0 30 21 51t52 21q30 0 51 -21t21 -51q0 -31 -21 -52t-51 -21q-31 0 -52 21t-21 52z" />
    <glyph glyph-name="j" unicode="j" 
d="M7 344v127h255v-127h-42v-414q0 -72 -28 -95q-22 -19 -88 -19h-105v123h53v405h-45zM62 606q0 31 21.5 52.5t52.5 21.5t52.5 -21.5t21.5 -52.5t-21.5 -52.5t-52.5 -21.5t-52.5 21.5t-21.5 52.5z" />
    <glyph glyph-name="k" unicode="k" horiz-adv-x="519" 
d="M10 701v-126h44v-449h-44v-126h210v178l76 -23v-155h212v126h-51v114l-93 27l42 74h83v127h-157l-112 -207v440h-210z" />
    <glyph glyph-name="l" unicode="l" 
d="M7 579v127h212v-579h46v-127h-258v127h45v452h-45z" />
    <glyph glyph-name="m" unicode="m" horiz-adv-x="750" 
d="M9 471h212v-66l69 66h68q49 0 68 -10q27 -14 33 -56l59 66h56q72 0 97.5 -22.5t25.5 -93.5v-228h44v-127h-213v345h-69v-345h-169v345h-69v-345h-169v345h-43v126z" />
    <glyph glyph-name="n" unicode="n" horiz-adv-x="521" 
d="M221 401l72 70h58q70 0 96 -32q21 -26 21 -92v-220h46v-127h-213v343h-80v-343h-168v343h-42v128h210v-70z" />
    <glyph glyph-name="o" unicode="o" horiz-adv-x="479" 
d="M153 471h162q75 0 104 -35q25 -30 25 -98v-182q0 -65 -13 -96q-26 -60 -116 -60h-161q-61 0 -89 27q-31 29 -31 98v212q0 71 27.5 102.5t91.5 31.5zM275 346h-73v-219h73v219z" />
    <glyph glyph-name="p" unicode="p" horiz-adv-x="486" 
d="M6 471h213v-63l69 63h75q61 0 84 -34q17 -25 17 -94v-214q0 -70 -19 -97q-23 -32 -85 -32h-79l-62 59v-125h51v-127h-264v127h45v409h-45v128zM294 343h-75v-216h75v216z" />
    <glyph glyph-name="q" unicode="q" horiz-adv-x="514" 
d="M278 471h214v-128h-45v-408h45v-126h-259v126h45v125l-61 -60h-71q-62 0 -87 24t-25 79v264q0 60 22.5 82t84.5 22h76l61 -57v57zM278 127v216h-76v-216h76z" />
    <glyph glyph-name="r" unicode="r" horiz-adv-x="424" 
d="M8 344v127h215v-52l51 52h41q53 0 74 -22.5t21 -65.5v-128l-131 40v49h-56v-217h46v-127h-261v127h44v217h-44z" />
    <glyph glyph-name="s" unicode="s" horiz-adv-x="451" 
d="M140 471h281v-94l-153 -57v38h-78v-43l240 -59v-144q0 -67 -26 -91q-22 -21 -80 -21h-299v100l165 55v-43h72v56l-237 57v132q0 66 23.5 90t91.5 24z" />
    <glyph glyph-name="t" unicode="t" horiz-adv-x="299" 
d="M59 622h167v-151h46v-127h-46v-217h46v-127h-213v344h-45v127h45v151z" />
    <glyph glyph-name="u" unicode="u" horiz-adv-x="521" 
d="M7 344v127h212v-344h80v344h168v-344h41v-127h-209v70l-72 -70h-53q-65 0 -90 20q-32 25 -32 92v232h-45z" />
    <glyph glyph-name="v" unicode="v" horiz-adv-x="458" 
d="M0 471h181l34 -197q11 -64 15 -152q3 42 17 149l34 200h176v-127h-42l-69 -344h-231l-71 344h-44v127z" />
    <glyph glyph-name="w" unicode="w" horiz-adv-x="708" 
d="M0 344v127h187l19 -175q5 -40 13 -144q4 46 14 93l47 226h150l41 -189q7 -31 22 -123q1 27 7 100l23 212h184v-127h-42l-57 -344h-196l-58 233l-55 -233h-198l-57 344h-44z" />
    <glyph glyph-name="x" unicode="x" horiz-adv-x="438" 
d="M278 471h156v-128h-49l-67 -105l72 -111h44v-127h-156l-38 71q-11 21 -21 45q-15 -38 -30 -65l-29 -51h-158v127h48l69 111l-69 105h-48v128h156l37 -66q14 -25 24 -56q12 36 29 67z" />
    <glyph glyph-name="y" unicode="y" horiz-adv-x="452" 
d="M-6 471h174l20 -109q15 -84 24 -178q6 65 18 133l26 154h175v-127h-43l-140 -530h-176v123h45l15 56l-95 351h-43v127z" />
    <glyph glyph-name="z" unicode="z" horiz-adv-x="458" 
d="M20 471h415v-112l-231 -245h101v37l130 47v-198h-423v114l234 245h-97v-39l-129 -47v198z" />
    <glyph glyph-name="braceleft" unicode="{" horiz-adv-x="354" 
d="M60 267v36q23 7 33 13q17 11 29 36.5t12 65.5v114q0 65 4 89q8 50 36 79q40 40 127 42v-35q-30 -8 -45 -15q-26 -13 -41 -36q-18 -28 -18 -117v-87q0 -91 -30 -128q-17 -21 -66 -39q49 -18 66 -39q30 -38 30 -130v-86q0 -89 18 -117q22 -35 86 -51v-35q-87 2 -127 42
q-28 29 -36 79q-4 24 -4 89v116q0 39 -13 66q-17 35 -61 48z" />
    <glyph glyph-name="bar" unicode="|" horiz-adv-x="229" 
d="M63 750h103v-1000h-103v1000z" />
    <glyph glyph-name="braceright" unicode="}" horiz-adv-x="354" 
d="M294 302v-36q-23 -7 -33 -13q-17 -11 -28 -35q-13 -27 -13 -66v-115q0 -65 -4 -89q-8 -50 -36 -79q-40 -40 -127 -42v35q30 8 45 15q26 13 41 36q18 28 18 117v86q0 91 30 129q17 21 66 39q-49 18 -66 39q-30 37 -30 128v88q0 89 -18 117q-22 35 -86 51v35q87 -2 127 -42
q28 -29 36 -79q4 -24 4 -89v-114q0 -41 13 -68q17 -35 61 -48z" />
    <glyph glyph-name="asciitilde" unicode="~" horiz-adv-x="729" 
d="M570 377v0l46 -89q-78 -81 -147 -81q-37 0 -103 32l-29 14q-48 23 -77 23q-28 0 -48 -15q-15 -11 -51 -53l-48 87q61 89 145 89q39 0 107 -32l34 -16q45 -21 73 -21q46 0 98 62z" />
    <glyph glyph-name="Adieresis" unicode="&#xc4;" horiz-adv-x="604" 
d="M52 147l97 559h307l99 -559h48v-147h-217l-25 172h-119l-24 -172h-218v147h52zM346 294l-44 296l-45 -296h89zM128 808q0 29 20.5 49t48.5 20q29 0 49 -20t20 -49q0 -28 -20 -48.5t-49 -20.5q-28 0 -48.5 20.5t-20.5 48.5zM339 808q0 29 20.5 49t48.5 20q29 0 49 -20
t20 -49q0 -28 -20 -48.5t-49 -20.5q-28 0 -48.5 20.5t-20.5 48.5z" />
    <glyph glyph-name="Aring" unicode="&#xc5;" horiz-adv-x="604" 
d="M52 147l97 559h307l99 -559h48v-147h-217l-25 172h-119l-24 -172h-218v147h52zM346 294l-44 296l-45 -296h89zM212 816q0 36 26 62.5t63 26.5t63 -26t26 -63t-26.5 -63t-62.5 -26q-37 0 -63 26t-26 63zM301 779q15 0 26 10.5t11 26.5q0 15 -11 26t-26 11t-26 -11t-11 -26
t11 -26t26 -11z" />
    <glyph glyph-name="Ccedilla" unicode="&#xc7;" horiz-adv-x="521" 
d="M504 0h-184v-35h73v-138h-189v49h94v26h-60v98h-24q-98 0 -136 33q-42 37 -42 128v374q0 85 30 122q26 32 71 43q28 6 82 6h277v-228h-163v81h-105v-412h105v113h171v-260z" />
    <glyph glyph-name="Eacute" unicode="&#xc9;" horiz-adv-x="542" 
d="M14 559v147h498v-231h-161v84h-102v-134h144v-130h-144v-148h102v91h172v-238h-509v147h46v412h-46zM165 742l165 111h138l-165 -111h-138z" />
    <glyph glyph-name="Ntilde" unicode="&#xd1;" horiz-adv-x="667" 
d="M436 706h216v-147h-46v-412h46v-147h-225l-144 275q-36 68 -57 135q4 -34 4 -66l4 -344h-219v147h46v412h-46v147h226l158 -310q26 -51 43 -103q-6 60 -6 130v283zM266 736h-91q6 120 90 120q24 0 58 -12q45 -16 55 -16q19 0 25 29h88q-12 -124 -93 -124q-28 0 -80 21
q-17 7 -26 7q-19 0 -26 -25z" />
    <glyph glyph-name="Odieresis" unicode="&#xd6;" horiz-adv-x="562" 
d="M205 706h138q63 0 94 -9q47 -13 68.5 -51t21.5 -143v-292q0 -83 -9 -117q-16 -61 -70 -82q-32 -12 -98 -12h-128q-101 0 -141 33q-29 24 -39 65q-5 24 -5 72v345q0 81 15 117q20 49 68 65q28 9 85 9zM335 147v412h-105v-412h105zM105 806q0 29 20.5 49t48.5 20
q29 0 49 -20t20 -49q0 -28 -20 -48.5t-49 -20.5q-28 0 -48.5 20.5t-20.5 48.5zM316 806q0 29 20.5 49t48.5 20q29 0 49 -20t20 -49q0 -28 -20 -48.5t-49 -20.5q-28 0 -48.5 20.5t-20.5 48.5z" />
    <glyph glyph-name="Udieresis" unicode="&#xdc;" horiz-adv-x="604" 
d="M15 559v147h239v-559h99v559h238v-147h-46v-368q0 -100 -26 -138q-36 -53 -138 -53h-165q-78 0 -115 32q-26 22 -34 58q-6 25 -6 80v389h-46zM129 808q0 29 20.5 49t48.5 20q29 0 49 -20t20 -49q0 -28 -20 -48.5t-49 -20.5q-28 0 -48.5 20.5t-20.5 48.5zM340 808
q0 29 20.5 49t48.5 20q29 0 49 -20t20 -49q0 -28 -20 -48.5t-49 -20.5q-28 0 -48.5 20.5t-20.5 48.5z" />
    <glyph glyph-name="aacute" unicode="&#xe1;" horiz-adv-x="500" 
d="M447 361v-234h45v-127h-212v54l-60 -54h-101q-51 0 -73 24t-22 80v68q0 57 25 79q22 18 76 18h155v87h-96v-67l-147 49v25q0 56 22 80q26 28 89 28h187q64 0 90 -30q22 -25 22 -80zM280 183h-96v-69h96v69zM196 536l80 158h110l-88 -158h-102z" />
    <glyph glyph-name="agrave" unicode="&#xe0;" horiz-adv-x="500" 
d="M447 361v-234h45v-127h-212v54l-60 -54h-101q-51 0 -73 24t-22 80v68q0 57 25 79q22 18 76 18h155v87h-96v-67l-147 49v25q0 56 22 80q26 28 89 28h187q64 0 90 -30q22 -25 22 -80zM280 183h-96v-69h96v69zM113 696h111l79 -159h-100z" />
    <glyph glyph-name="acircumflex" unicode="&#xe2;" horiz-adv-x="500" 
d="M447 361v-234h45v-127h-212v54l-60 -54h-101q-51 0 -73 24t-22 80v68q0 57 25 79q22 18 76 18h155v87h-96v-67l-147 49v25q0 56 22 80q26 28 89 28h187q64 0 90 -30q22 -25 22 -80zM280 183h-96v-69h96v69zM250 620l-41 -85h-94l79 159h109l81 -159h-93z" />
    <glyph glyph-name="adieresis" unicode="&#xe4;" horiz-adv-x="500" 
d="M447 361v-234h45v-127h-212v54l-60 -54h-101q-51 0 -73 24t-22 80v68q0 57 25 79q22 18 76 18h155v87h-96v-67l-147 49v25q0 56 22 80q26 28 89 28h187q64 0 90 -30q22 -25 22 -80zM280 183h-96v-69h96v69zM98 612q0 29 20.5 49t48.5 20q29 0 49 -20t20 -49
q0 -28 -20 -48.5t-49 -20.5q-28 0 -48.5 20.5t-20.5 48.5zM286 612q0 29 20.5 49t48.5 20q29 0 49 -20t20 -49q0 -28 -20 -48.5t-49 -20.5q-28 0 -48.5 20.5t-20.5 48.5z" />
    <glyph glyph-name="atilde" unicode="&#xe3;" horiz-adv-x="500" 
d="M447 361v-234h45v-127h-212v54l-60 -54h-101q-51 0 -73 24t-22 80v68q0 57 25 79q22 18 76 18h155v87h-96v-67l-147 49v25q0 56 22 80q26 28 89 28h187q64 0 90 -30q22 -25 22 -80zM280 183h-96v-69h96v69zM319 671v0h90q-12 -123 -94 -123q-25 0 -75 20q-23 9 -31 9
q-22 0 -25 -25h-92q7 119 89 119q25 0 81 -20q22 -8 33 -8q20 0 24 28z" />
    <glyph glyph-name="aring" unicode="&#xe5;" horiz-adv-x="500" 
d="M447 361v-234h45v-127h-212v54l-60 -54h-101q-51 0 -73 24t-22 80v68q0 57 25 79q22 18 76 18h155v87h-96v-67l-147 49v25q0 56 22 80q26 28 89 28h187q64 0 90 -30q22 -25 22 -80zM280 183h-96v-69h96v69zM161 613q0 36 26 62.5t63 26.5t63 -26t26 -63t-26.5 -63
t-62.5 -26q-37 0 -63 26t-26 63zM250 576q15 0 26 10.5t11 26.5q0 15 -11 26t-26 11t-26 -11t-11 -26t11 -26t26 -11z" />
    <glyph glyph-name="ccedilla" unicode="&#xe7;" horiz-adv-x="438" 
d="M301 0h-44v-35h73v-138h-190v49h95v26h-60v98h-13q-40 0 -58 4q-70 16 -70 111v193q0 98 17 126q21 37 100 37h143q54 0 78 -14q41 -24 41 -94v-69h-148v49h-63v-217h63v49h148v-49q0 -72 -18 -96q-23 -30 -94 -30z" />
    <glyph glyph-name="eacute" unicode="&#xe9;" horiz-adv-x="479" 
d="M436 359v-157h-236v-88h76v69l160 -58v-15q0 -59 -25.5 -84.5t-79.5 -25.5h-184q-68 0 -92 23q-27 24 -27 94v223q0 62 12 86q22 45 97 45h174q72 0 98.5 -22.5t26.5 -89.5zM276 292v66h-76v-66h76zM184 536l80 158h110l-88 -158h-102z" />
    <glyph glyph-name="egrave" unicode="&#xe8;" horiz-adv-x="479" 
d="M436 359v-157h-236v-88h76v69l160 -58v-15q0 -59 -25.5 -84.5t-79.5 -25.5h-184q-68 0 -92 23q-27 24 -27 94v223q0 62 12 86q22 45 97 45h174q72 0 98.5 -22.5t26.5 -89.5zM276 292v66h-76v-66h76zM101 696h111l79 -159h-100z" />
    <glyph glyph-name="ecircumflex" unicode="&#xea;" horiz-adv-x="479" 
d="M436 359v-157h-236v-88h76v69l160 -58v-15q0 -59 -25.5 -84.5t-79.5 -25.5h-184q-68 0 -92 23q-27 24 -27 94v223q0 62 12 86q22 45 97 45h174q72 0 98.5 -22.5t26.5 -89.5zM276 292v66h-76v-66h76zM238 620l-41 -85h-94l79 159h109l81 -159h-93z" />
    <glyph glyph-name="edieresis" unicode="&#xeb;" horiz-adv-x="479" 
d="M436 359v-157h-236v-88h76v69l160 -58v-15q0 -59 -25.5 -84.5t-79.5 -25.5h-184q-68 0 -92 23q-27 24 -27 94v223q0 62 12 86q22 45 97 45h174q72 0 98.5 -22.5t26.5 -89.5zM276 292v66h-76v-66h76zM74 614q0 29 20.5 49t48.5 20q29 0 49 -20t20 -49q0 -28 -20 -48.5
t-49 -20.5q-28 0 -48.5 20.5t-20.5 48.5zM262 614q0 29 20.5 49t48.5 20q29 0 49 -20t20 -49q0 -28 -20 -48.5t-49 -20.5q-28 0 -48.5 20.5t-20.5 48.5z" />
    <glyph glyph-name="iacute" unicode="&#xed;" 
d="M6 343v128h214v-344h44v-127h-258v127h45v216h-45zM80 536l80 158h110l-88 -158h-102z" />
    <glyph glyph-name="igrave" unicode="&#xec;" 
d="M6 343v128h214v-344h44v-127h-258v127h45v216h-45zM-3 696h111l79 -159h-100z" />
    <glyph glyph-name="icircumflex" unicode="&#xee;" 
d="M6 343v128h214v-344h44v-127h-258v127h45v216h-45zM134 620l-41 -85h-94l79 159h109l81 -159h-93z" />
    <glyph glyph-name="idieresis" unicode="&#xef;" 
d="M6 343v128h214v-344h44v-127h-258v127h45v216h-45zM-30 614q0 29 20.5 49t48.5 20q29 0 49 -20t20 -49q0 -28 -20 -48.5t-49 -20.5q-28 0 -48.5 20.5t-20.5 48.5zM158 614q0 29 20.5 49t48.5 20q29 0 49 -20t20 -49q0 -28 -20 -48.5t-49 -20.5q-28 0 -48.5 20.5
t-20.5 48.5z" />
    <glyph glyph-name="ntilde" unicode="&#xf1;" horiz-adv-x="521" 
d="M221 401l72 70h58q70 0 96 -32q21 -26 21 -92v-220h46v-127h-213v343h-80v-343h-168v343h-42v128h210v-70zM328 671v0h90q-12 -123 -94 -123q-25 0 -75 20q-23 9 -31 9q-22 0 -25 -25h-92q7 119 89 119q25 0 81 -20q22 -8 33 -8q20 0 24 28z" />
    <glyph glyph-name="oacute" unicode="&#xf3;" horiz-adv-x="479" 
d="M153 471h162q75 0 104 -35q25 -30 25 -98v-182q0 -65 -13 -96q-26 -60 -116 -60h-161q-61 0 -89 27q-31 29 -31 98v212q0 71 27.5 102.5t91.5 31.5zM275 346h-73v-219h73v219zM184 536l80 158h110l-88 -158h-102z" />
    <glyph glyph-name="ograve" unicode="&#xf2;" horiz-adv-x="479" 
d="M153 471h162q75 0 104 -35q25 -30 25 -98v-182q0 -65 -13 -96q-26 -60 -116 -60h-161q-61 0 -89 27q-31 29 -31 98v212q0 71 27.5 102.5t91.5 31.5zM275 346h-73v-219h73v219zM101 696h111l79 -159h-100z" />
    <glyph glyph-name="ocircumflex" unicode="&#xf4;" horiz-adv-x="479" 
d="M153 471h162q75 0 104 -35q25 -30 25 -98v-182q0 -65 -13 -96q-26 -60 -116 -60h-161q-61 0 -89 27q-31 29 -31 98v212q0 71 27.5 102.5t91.5 31.5zM275 346h-73v-219h73v219zM238 620l-41 -85h-94l79 159h109l81 -159h-93z" />
    <glyph glyph-name="odieresis" unicode="&#xf6;" horiz-adv-x="479" 
d="M153 471h162q75 0 104 -35q25 -30 25 -98v-182q0 -65 -13 -96q-26 -60 -116 -60h-161q-61 0 -89 27q-31 29 -31 98v212q0 71 27.5 102.5t91.5 31.5zM275 346h-73v-219h73v219zM75 613q0 29 20.5 49t48.5 20q29 0 49 -20t20 -49q0 -28 -20 -48.5t-49 -20.5
q-28 0 -48.5 20.5t-20.5 48.5zM263 613q0 29 20.5 49t48.5 20q29 0 49 -20t20 -49q0 -28 -20 -48.5t-49 -20.5q-28 0 -48.5 20.5t-20.5 48.5z" />
    <glyph glyph-name="otilde" unicode="&#xf5;" horiz-adv-x="479" 
d="M153 471h162q75 0 104 -35q25 -30 25 -98v-182q0 -65 -13 -96q-26 -60 -116 -60h-161q-61 0 -89 27q-31 29 -31 98v212q0 71 27.5 102.5t91.5 31.5zM275 346h-73v-219h73v219zM307 671v0h90q-12 -123 -94 -123q-25 0 -75 20q-23 9 -31 9q-22 0 -25 -25h-92q7 119 89 119
q25 0 81 -20q22 -8 33 -8q20 0 24 28z" />
    <glyph glyph-name="uacute" unicode="&#xfa;" horiz-adv-x="521" 
d="M7 344v127h212v-344h80v344h168v-344h41v-127h-209v70l-72 -70h-53q-65 0 -90 20q-32 25 -32 92v232h-45zM205 536l80 158h110l-88 -158h-102z" />
    <glyph glyph-name="ugrave" unicode="&#xf9;" horiz-adv-x="521" 
d="M7 344v127h212v-344h80v344h168v-344h41v-127h-209v70l-72 -70h-53q-65 0 -90 20q-32 25 -32 92v232h-45zM122 696h111l79 -159h-100z" />
    <glyph glyph-name="ucircumflex" unicode="&#xfb;" horiz-adv-x="521" 
d="M7 344v127h212v-344h80v344h168v-344h41v-127h-209v70l-72 -70h-53q-65 0 -90 20q-32 25 -32 92v232h-45zM259 620l-41 -85h-94l79 159h109l81 -159h-93z" />
    <glyph glyph-name="udieresis" unicode="&#xfc;" horiz-adv-x="521" 
d="M7 344v127h212v-344h80v344h168v-344h41v-127h-209v70l-72 -70h-53q-65 0 -90 20q-32 25 -32 92v232h-45zM95 614q0 29 20.5 49t48.5 20q29 0 49 -20t20 -49q0 -28 -20 -48.5t-49 -20.5q-28 0 -48.5 20.5t-20.5 48.5zM283 614q0 29 20.5 49t48.5 20q29 0 49 -20t20 -49
q0 -28 -20 -48.5t-49 -20.5q-28 0 -48.5 20.5t-20.5 48.5z" />
    <glyph glyph-name="dagger" unicode="&#x2020;" horiz-adv-x="562" 
d="M192 484v222h176v-222h171v-144h-171v-527h-176v527h-170v144h170z" />
    <glyph glyph-name="degree" unicode="&#xb0;" horiz-adv-x="354" 
d="M5 583q0 71 50.5 121.5t121.5 50.5t121.5 -50.5t50.5 -121.5t-50.5 -121.5t-121.5 -50.5t-121.5 50.5t-50.5 121.5zM106 583q0 -29 21 -50t50 -21t50 21t21 50t-21 50t-50 21t-50 -21t-21 -50z" />
    <glyph glyph-name="cent" unicode="&#xa2;" horiz-adv-x="438" 
d="M413 363v-69h-148v49h-63v-217h63v49h148v-49q0 -72 -18 -96q-23 -30 -94 -30h-6v-132h-127v132h-7q-39 0 -57 4q-70 16 -70 111v193q0 98 17 126q22 37 101 37h16v118h127v-118q53 0 77 -14q41 -23 41 -94z" />
    <glyph glyph-name="sterling" unicode="&#xa3;" horiz-adv-x="625" 
d="M594 562v-76h-179v73h-124v-158h143v-130h-143v-19q0 -44 -11.5 -66t-42.5 -39h190v77h180v-224h-589v156q45 8 64 28t19 66v21h-83v130h83v141q0 84 32 122q35 42 120 42h184q89 0 126 -40q31 -33 31 -104z" />
    <glyph glyph-name="section" unicode="&#xa7;" horiz-adv-x="500" 
d="M447 616v-74h-138v49h-120v-113h172q53 0 75.5 -21.5t22.5 -75.5v-165q0 -39 -12 -57q-16 -25 -61 -30q39 -8 53.5 -27t14.5 -60v-102q0 -54 -17.5 -74.5t-67.5 -20.5h-234q-47 0 -64.5 19t-17.5 65v86h136v-54h130v115h-180q-52 0 -76 21t-24 71v169q0 43 16.5 62.5
t66.5 25.5q-40 8 -54.5 26.5t-14.5 63.5v88q0 54 17 76q21 27 79 27h213q49 0 67 -22.5t18 -67.5zM321 361h-143v-166h143v166z" />
    <glyph glyph-name="bullet" unicode="&#x2022;" horiz-adv-x="333" 
d="M24 353q0 59 42 100.5t101 41.5t100.5 -41.5t41.5 -100.5t-41.5 -101t-100.5 -42t-101 42t-42 101z" />
    <glyph glyph-name="paragraph" unicode="&#xb6;" horiz-adv-x="667" 
d="M309 706h240v-66h-35v-807h-71v807h-131v-807h-71v473q-38 9 -56 18q-32 15 -56 43q-44 52 -44 132q0 79 45 134q59 73 179 73z" />
    <glyph glyph-name="germandbls" unicode="&#xdf;" horiz-adv-x="479" 
d="M151 707h167v-127h-101v-109h157q48 0 69 -25q17 -20 17 -70v-101q0 -62 -18.5 -86t-74.5 -34q42 -4 63 -22q30 -26 30 -91v-151q0 -48 -20 -67q-23 -21 -82 -21h-146v124h83v164h-78v-91h-210v127h48v477q0 60 28 84q22 19 68 19zM295 210v130h-78v-130h78z" />
    <glyph glyph-name="registered" unicode="&#xae;" horiz-adv-x="833" 
d="M773 352q-1 -149 -104 -252t-254 -103q-143 0 -247 99q-108 103 -108 257q0 152 105 254t251 102q153 0 255.5 -105t101.5 -252zM741 352q1 134 -92.5 229.5t-230.5 95.5t-231.5 -95t-94.5 -229q0 -136 95 -230t229 -94q137 0 230.5 93.5t94.5 229.5zM611 260l45 -7
q-13 -58 -27 -84q-25 -46 -71 -46q-42 0 -65 38q-15 24 -31 88q-14 56 -24 70q-14 23 -47 23h-16v-126q0 -25 13 -32q5 -2 38 -7v-50q-92 2 -94 2q-34 0 -100 -2v50q34 4 39.5 11t5.5 45v257q0 27 -6 33.5t-39 8.5v51l98 -2q8 0 58 1t60 1q69 0 103 -18q59 -31 59 -95
q0 -87 -105 -108q35 -16 50 -75l10 -38q11 -43 21 -43q16 0 25 54zM375 475v-70h22q38 0 55 3q57 10 57 61q0 59 -79 59q-40 0 -47.5 -8t-7.5 -45z" />
    <glyph glyph-name="copyright" unicode="&#xa9;" horiz-adv-x="833" 
d="M773 351q0 -147 -102 -249q-103 -105 -255 -105q-143 0 -247 99q-108 103 -108 256q0 151 104 254t253 103t252 -103.5t103 -254.5zM741 351q1 133 -90 228q-94 98 -233 98q-135 0 -230 -94.5t-95 -231.5q0 -132 94 -227t231 -95q131 0 225 89q97 93 98 233zM568 276h36
v-140l-97 -8q-73 -6 -87 -6q-131 0 -186 67q-48 58 -48 175q0 218 230 218q14 0 79 -5l26 -2l76 -1l6 -155h-36q-13 66 -30 94q-30 46 -93 46q-83 0 -106 -87q-10 -39 -10 -97q0 -55 9 -106q22 -124 121 -124q61 0 87 46q15 26 23 85z" />
    <glyph glyph-name="trademark" unicode="&#x2122;" horiz-adv-x="771" 
d="M509 375l-86 210v-128q0 -29 4 -35t26 -8l9 -1v-39q-21 1 -62 1q-43 0 -65 -1v38l14 3q15 3 18.5 10t3.5 32v203l-3 2q-12 6 -28 5v40q18 -1 52 -1q33 0 49 1l94 -231l96 231q49 -1 102 0v-40h-8q-23 0 -28 -12q-2 -5 -2 -36v-181q0 -21 24 -24l8 -1v-39q-44 2 -68 2
q-22 0 -66 -2v39l6 1q19 0 22.5 6.5t3.5 36.5v126l-86 -208h-30zM66 614h-40q3 36 4 93q96 -2 143 -2q46 0 142 2q1 -26 4 -93h-40q-11 35 -20 45q-8 7 -28 7h-22v-228q0 -22 25 -23l19 -1v-40q-48 2 -81 2q-30 0 -80 -2v40l16 1q19 1 23.5 7.5t4.5 34.5v209h-22
q-24 0 -34 -14q-4 -6 -14 -38z" />
    <glyph glyph-name="acute" unicode="&#xb4;" 
d="M40 536l80 158h110l-88 -158h-102z" />
    <glyph glyph-name="dieresis" unicode="&#xa8;" 
d="M-27 614q0 29 20.5 49t48.5 20q29 0 49 -20t20 -49q0 -28 -20 -48.5t-49 -20.5q-28 0 -48.5 20.5t-20.5 48.5zM161 614q0 29 20.5 49t48.5 20q29 0 49 -20t20 -49q0 -28 -20 -48.5t-49 -20.5q-28 0 -48.5 20.5t-20.5 48.5z" />
    <glyph glyph-name="AE" unicode="&#xc6;" horiz-adv-x="813" 
d="M55 147l127 559h601v-230h-161v83h-110l10 -133h142v-132h-131l12 -147h84v92h163v-239h-417l-15 173h-114l-33 -173h-208v147h50zM349 294l-27 288l-54 -288h81z" />
    <glyph glyph-name="Oslash" unicode="&#xd8;" horiz-adv-x="562" 
d="M478 677l33 45l50 -35l-46 -65q11 -40 11 -102v-307q0 -118 -27 -159q-23 -35 -68 -47q-27 -7 -80 -7h-144q-68 0 -115 24l-35 -48l-52 38l44 62q-13 37 -13 89v355q0 89 22 127.5t69 51.5q26 7 78 7h139q58 0 86 -7q23 -5 48 -22zM338 559h-114v-240l114 160v80z
M338 147v225l-114 -161v-64h114z" />
    <glyph glyph-name="plusminus" unicode="&#xb1;" horiz-adv-x="667" 
d="M386 374v-226h-103v226h-242v103h242v225h103v-225h239v-103h-239zM625 103v-103h-584v103h584z" />
    <glyph glyph-name="yen" unicode="&#xa5;" horiz-adv-x="542" 
d="M189 706l68 -218q6 -20 10 -47t6 -37q1 7 2 17q2 31 14 68l71 217h180v-150h-57l-57 -124h70v-88h-112l-12 -66h123v-88h-134v-42h51v-148h-284v148h51v42h-133v88h119l-15 66h-104v88h65l-55 124h-56v150h189z" />
    <glyph glyph-name="mu" unicode="&#xb5;" horiz-adv-x="521" 
d="M7 344v127h212v-344h80v344h168v-344h41v-127h-209v70l-80 -70v-193h-167v537h-45z" />
    <glyph glyph-name="mu" unicode="&#x3bc;" horiz-adv-x="521" 
d="M7 344v127h212v-344h80v344h168v-344h41v-127h-209v70l-80 -70v-193h-167v537h-45z" />
    <glyph glyph-name="ordfeminine" unicode="&#xaa;" horiz-adv-x="375" 
d="M335 624v-176h34v-95h-156v43l-48 -43h-76q-39 0 -55 18t-16 60v50q0 41 17.5 57t58.5 16h119v69h-78v-42h-107v44q0 47 21 65q18 16 62 16h140q46 0 65 -18.5t19 -63.5zM213 492h-78v-57h78v57z" />
    <glyph glyph-name="ordmasculine" unicode="&#xba;" horiz-adv-x="354" 
d="M112 706h122q56 0 78 -26q19 -22 19 -74v-136q0 -48 -10 -72q-18 -45 -87 -45h-121q-46 0 -68 21t-22 72v159q0 53 21 77t68 24zM207 615h-61v-170h61v170z" />
    <glyph glyph-name="ae" unicode="&#xe6;" horiz-adv-x="729" 
d="M143 471h107q54 0 72 -8q22 -10 36 -47q11 36 35 47q18 8 59 8h137q58 0 82 -28q21 -24 21 -81v-158h-248v-89h91v51h157v-47q0 -69 -22.5 -94t-88.5 -25h-109q-56 0 -75 8q-23 10 -39 47q-12 -33 -30.5 -44t-61.5 -11h-144q-53 0 -76 26q-21 23 -21 78v64
q0 57 22.5 79.5t81.5 22.5h146v88h-92v-50h-143v55q0 60 25 84t78 24zM535 291v67h-91v-67h91zM275 186h-92v-71h92v71z" />
    <glyph glyph-name="oslash" unicode="&#xf8;" horiz-adv-x="479" 
d="M405 449l31 33l39 -39l-39 -40q8 -29 8 -59v-203q0 -57 -14 -85q-28 -56 -121 -56h-145q-59 0 -90 23l-34 -36l-39 36l39 43q-6 23 -6 49v229q0 65 28 96t94 31h159q62 0 90 -22zM284 344h-90v-118l90 95v23zM284 127v116l-90 -95v-21h90z" />
    <glyph glyph-name="questiondown" unicode="&#xbf;" horiz-adv-x="458" 
d="M193 403v96h125v-238h-125v-150h76v62h124v-71q0 -53 -20.5 -77.5t-73.5 -24.5h-170q-58 0 -79 25t-21 86v175q0 65 16 87q21 30 87 30h61zM179 634q0 32 22.5 54t53.5 22q32 0 54 -22t22 -54q0 -31 -22 -53.5t-54 -22.5q-31 0 -53.5 22.5t-22.5 53.5z" />
    <glyph glyph-name="exclamdown" unicode="&#xa1;" horiz-adv-x="250" 
d="M64 0v493h85v-493h-85zM26 632q0 32 23 55t55 23t55 -23t23 -55t-23 -55t-55 -23t-55 23t-23 55z" />
    <glyph glyph-name="logicalnot" unicode="&#xac;" horiz-adv-x="667" 
d="M564 0v242h-564v103h667v-345h-103z" />
    <glyph glyph-name="florin" unicode="&#x192;" horiz-adv-x="375" 
d="M290 580l-14 -109h49l-16 -127h-49l-50 -397q-8 -60 -35 -81.5t-87 -21.5h-132l15 126h74l47 374h-47l16 127h47l17 132q8 60 36 83q26 20 86 20h132l-16 -126h-73z" />
    <glyph glyph-name="guillemotleft" unicode="&#xab;" horiz-adv-x="333" 
d="M129 406l53 -38l-93 -127l93 -132l-55 -37l-118 170zM266 406l53 -38l-97 -130l89 -129l-55 -37l-115 166z" />
    <glyph glyph-name="guillemotright" unicode="&#xbb;" horiz-adv-x="333" 
d="M151 368l53 38l120 -164l-118 -170l-55 37l93 132zM14 368l53 38l125 -168l-115 -166l-55 37l89 129z" />
    <glyph glyph-name="ellipsis" unicode="&#x2026;" horiz-adv-x="1000" 
d="M86 74q0 33 23.5 56.5t56.5 23.5t56.5 -23.5t23.5 -56.5t-23.5 -56.5t-56.5 -23.5t-56.5 23.5t-23.5 56.5zM420 74q0 33 23.5 56.5t56.5 23.5t56.5 -23.5t23.5 -56.5t-23.5 -56.5t-56.5 -23.5t-56.5 23.5t-23.5 56.5zM754 74q0 33 23.5 56.5t56.5 23.5t56.5 -23.5
t23.5 -56.5t-23.5 -56.5t-56.5 -23.5t-56.5 23.5t-23.5 56.5z" />
    <glyph glyph-name="nonbreakingspace" unicode="&#xa0;" 
 />
    <glyph glyph-name="Agrave" unicode="&#xc0;" horiz-adv-x="604" 
d="M52 147l97 559h307l99 -559h48v-147h-217l-25 172h-119l-24 -172h-218v147h52zM346 294l-44 296l-45 -296h89zM105 853h137l164 -111h-137z" />
    <glyph glyph-name="Atilde" unicode="&#xc3;" horiz-adv-x="604" 
d="M52 147l97 559h307l99 -559h48v-147h-217l-25 172h-119l-24 -172h-218v147h52zM346 294l-44 296l-45 -296h89zM235 736h-91q6 120 90 120q24 0 58 -12q45 -16 55 -16q19 0 25 29h88q-12 -124 -93 -124q-28 0 -80 21q-17 7 -26 7q-19 0 -26 -25z" />
    <glyph glyph-name="Otilde" unicode="&#xd5;" horiz-adv-x="562" 
d="M205 706h138q63 0 94 -9q47 -13 68.5 -51t21.5 -143v-292q0 -83 -9 -117q-16 -61 -70 -82q-32 -12 -98 -12h-128q-101 0 -141 33q-29 24 -39 65q-5 24 -5 72v345q0 81 15 117q20 49 68 65q28 9 85 9zM335 147v412h-105v-412h105zM214 736h-91q6 120 90 120q24 0 58 -12
q45 -16 55 -16q19 0 25 29h88q-12 -124 -93 -124q-28 0 -80 21q-17 7 -26 7q-19 0 -26 -25z" />
    <glyph glyph-name="OE" unicode="&#x152;" horiz-adv-x="813" 
d="M194 706h589v-230h-162v83h-97v-134h140v-130h-140v-148h97v92h172v-239h-541q-129 0 -169 29q-31 23 -42 66q-6 28 -6 85v328q0 86 13 122q18 49 65 66q28 10 81 10zM332 147v412h-102v-412h102z" />
    <glyph glyph-name="oe" unicode="&#x153;" horiz-adv-x="729" 
d="M153 471h112q40 0 57 -8q24 -11 37 -45q12 33 35 45q17 8 53 8h136q63 0 86 -26t23 -81v-160h-248v-90h89v53h159v-46q0 -60 -22 -88q-26 -33 -88 -33h-132q-39 0 -56.5 11t-26.5 42q-10 -33 -32 -45q-17 -8 -54 -8h-127q-63 0 -91.5 27.5t-28.5 89.5v234q0 66 31 95
q27 25 88 25zM533 291v68h-89v-68h89zM278 347h-80v-220h80v220z" />
    <glyph glyph-name="endash" unicode="&#x2013;" horiz-adv-x="583" 
d="M25 295h532v-99h-532v99z" />
    <glyph glyph-name="emdash" unicode="&#x2014;" horiz-adv-x="667" 
d="M25 196v99h615v-99h-615z" />
    <glyph glyph-name="quotedblleft" unicode="&#x201c;" horiz-adv-x="333" 
d="M20 461l107 245h71l-106 -245h-72zM147 461l104 245h72l-105 -245h-71z" />
    <glyph glyph-name="quotedblright" unicode="&#x201d;" horiz-adv-x="333" 
d="M20 461l107 245h71l-106 -245h-72zM147 461l104 245h72l-105 -245h-71z" />
    <glyph glyph-name="quoteleft" unicode="&#x2018;" horiz-adv-x="208" 
d="M1 463l101 243h88l-101 -243h-88z" />
    <glyph glyph-name="quoteright" unicode="&#x2019;" horiz-adv-x="208" 
d="M0 463l102 243h88l-101 -243h-89z" />
    <glyph glyph-name="divide" unicode="&#xf7;" horiz-adv-x="667" 
d="M667 354v-127h-667v127h667zM253 470q0 33 23.5 56.5t57.5 23.5q33 0 56.5 -23.5t23.5 -56.5q0 -34 -23.5 -57.5t-56.5 -23.5q-34 0 -57.5 23.5t-23.5 57.5zM253 111q0 33 23.5 57t57.5 24q33 0 56.5 -24t23.5 -57t-23.5 -56.5t-56.5 -23.5q-34 0 -57.5 23.5t-23.5 56.5z
" />
    <glyph glyph-name="ydieresis" unicode="&#xff;" horiz-adv-x="438" 
d="M-6 471h174l20 -109q15 -84 24 -178q6 65 18 133l26 154h175v-127h-43l-140 -530h-176v123h45l15 56l-95 351h-43v127zM55 614q0 29 20.5 49t48.5 20q29 0 49 -20t20 -49q0 -28 -20 -48.5t-49 -20.5q-28 0 -48.5 20.5t-20.5 48.5zM243 614q0 29 20.5 49t48.5 20
q29 0 49 -20t20 -49q0 -28 -20 -48.5t-49 -20.5q-28 0 -48.5 20.5t-20.5 48.5z" />
    <glyph glyph-name="Ydieresis" unicode="&#x178;" horiz-adv-x="542" 
d="M1 553v153h188l68 -186q8 -22 14 -58q4 20 19 68l70 176h180v-153h-53l-123 -266v-140h49v-147h-285v147h49v140l-126 266h-50zM96 805q0 29 20.5 49t48.5 20q29 0 49 -20t20 -49q0 -28 -20 -48.5t-49 -20.5q-28 0 -48.5 20.5t-20.5 48.5zM307 805q0 29 20.5 49t48.5 20
q29 0 49 -20t20 -49q0 -28 -20 -48.5t-49 -20.5q-28 0 -48.5 20.5t-20.5 48.5z" />
    <glyph glyph-name="currency" unicode="&#xa4;" horiz-adv-x="667" 
d="M642 569l-79 -77q47 -77 47 -150q0 -83 -48 -157l79 -79l-78 -77l-78 79q-79 -46 -151 -46q-82 0 -154 47l-79 -78l-77 77l80 78q-25 40 -34 64q-14 38 -14 90q0 50 14 88q8 23 33 64l-77 78l76 76l78 -77q79 47 156 47q49 0 87 -14q21 -8 63 -33l78 77zM508 339
q1 78 -54 129q-51 48 -120 48q-72 0 -122 -47q-54 -51 -54 -131q0 -76 52 -126t123 -50q74 0 124 50t51 127z" />
    <glyph glyph-name="guilsinglleft" unicode="&#x2039;" horiz-adv-x="208" 
d="M13 238l125 168l52 -38l-96 -130l88 -129l-54 -37z" />
    <glyph glyph-name="guilsinglright" unicode="&#x203a;" horiz-adv-x="208" 
d="M18 368l53 38l124 -168l-115 -166l-54 37l89 129z" />
    <glyph glyph-name="daggerdbl" unicode="&#x2021;" horiz-adv-x="562" 
d="M193 707h174v-182h172v-140h-172v-195h172v-139h-172v-239h-174v239h-172v139h172v195h-171v140h171v182z" />
    <glyph glyph-name="periodcentered" unicode="&#xb7;" horiz-adv-x="208" 
d="M28 245q0 32 22.5 54t54.5 22t54 -22t22 -54t-22 -54.5t-54 -22.5t-54.5 22.5t-22.5 54.5z" />
    <glyph glyph-name="periodcentered" unicode="&#x2219;" horiz-adv-x="208" 
d="M28 245q0 32 22.5 54t54.5 22t54 -22t22 -54t-22 -54.5t-54 -22.5t-54.5 22.5t-22.5 54.5z" />
    <glyph glyph-name="quotesinglbase" unicode="&#x201a;" horiz-adv-x="208" 
d="M0 -107l102 243h88l-101 -243h-89z" />
    <glyph glyph-name="quotedblbase" unicode="&#x201e;" horiz-adv-x="333" 
d="M0 -111l109 247h72l-108 -247h-73zM125 -111l108 247h73l-108 -247h-73z" />
    <glyph glyph-name="perthousand" unicode="&#x2030;" horiz-adv-x="1250" 
d="M1092 92v256h-64v-256h64zM1214 341v-239q0 -50 -17 -72q-24 -30 -91 -30h-92q-56 0 -80.5 23t-24.5 78v245q0 94 96 94h114q95 0 95 -99zM247 0l284 706h96l-285 -706h-95zM217 358v256h-64v-256h64zM339 607v-239q0 -50 -17 -72q-24 -30 -91 -30h-92q-56 0 -80.5 23
t-24.5 78v245q0 94 96 94h114q95 0 95 -99zM716 92v256h-64v-256h64zM838 341v-239q0 -50 -17 -72q-24 -30 -91 -30h-92q-56 0 -80.5 23t-24.5 78v245q0 94 96 94h114q95 0 95 -99z" />
    <glyph glyph-name="Acircumflex" unicode="&#xc2;" horiz-adv-x="604" 
d="M52 147l97 559h307l99 -559h48v-147h-217l-25 172h-119l-24 -172h-218v147h52zM346 294l-44 296l-45 -296h89zM133 737l95 114h151l95 -114h-115l-58 62l-58 -62h-110z" />
    <glyph glyph-name="Ecircumflex" unicode="&#xca;" horiz-adv-x="542" 
d="M14 559v147h498v-231h-161v84h-102v-134h144v-130h-144v-148h102v91h172v-238h-509v147h46v412h-46zM102 737l95 114h151l95 -114h-115l-58 62l-58 -62h-110z" />
    <glyph glyph-name="Aacute" unicode="&#xc1;" horiz-adv-x="604" 
d="M52 147l97 559h307l99 -559h48v-147h-217l-25 172h-119l-24 -172h-218v147h52zM346 294l-44 296l-45 -296h89zM196 742l165 111h138l-165 -111h-138z" />
    <glyph glyph-name="Edieresis" unicode="&#xcb;" horiz-adv-x="542" 
d="M14 559v147h498v-231h-161v84h-102v-134h144v-130h-144v-148h102v91h172v-238h-509v147h46v412h-46zM96 805q0 29 20.5 49t48.5 20q29 0 49 -20t20 -49q0 -28 -20 -48.5t-49 -20.5q-28 0 -48.5 20.5t-20.5 48.5zM307 805q0 29 20.5 49t48.5 20q29 0 49 -20t20 -49
q0 -28 -20 -48.5t-49 -20.5q-28 0 -48.5 20.5t-20.5 48.5z" />
    <glyph glyph-name="Egrave" unicode="&#xc8;" horiz-adv-x="542" 
d="M14 559v147h498v-231h-161v84h-102v-134h144v-130h-144v-148h102v91h172v-238h-509v147h46v412h-46zM74 853h137l164 -111h-137z" />
    <glyph glyph-name="Iacute" unicode="&#xcd;" horiz-adv-x="313" 
d="M13 559v147h286v-147h-47v-412h47v-147h-286v147h46v412h-46zM50 742l165 111h138l-165 -111h-138z" />
    <glyph glyph-name="Icircumflex" unicode="&#xce;" horiz-adv-x="313" 
d="M13 559v147h286v-147h-47v-412h47v-147h-286v147h46v412h-46zM-13 737l95 114h151l95 -114h-115l-58 62l-58 -62h-110z" />
    <glyph glyph-name="Idieresis" unicode="&#xcf;" horiz-adv-x="313" 
d="M13 559v147h286v-147h-47v-412h47v-147h-286v147h46v412h-46zM-19 805q0 29 20.5 49t48.5 20q29 0 49 -20t20 -49q0 -28 -20 -48.5t-49 -20.5q-28 0 -48.5 20.5t-20.5 48.5zM192 805q0 29 20.5 49t48.5 20q29 0 49 -20t20 -49q0 -28 -20 -48.5t-49 -20.5
q-28 0 -48.5 20.5t-20.5 48.5z" />
    <glyph glyph-name="Igrave" unicode="&#xcc;" horiz-adv-x="313" 
d="M13 559v147h286v-147h-47v-412h47v-147h-286v147h46v412h-46zM-41 853h137l164 -111h-137z" />
    <glyph glyph-name="Oacute" unicode="&#xd3;" horiz-adv-x="562" 
d="M205 706h138q63 0 94 -9q47 -13 68.5 -51t21.5 -143v-292q0 -83 -9 -117q-16 -61 -70 -82q-32 -12 -98 -12h-128q-101 0 -141 33q-29 24 -39 65q-5 24 -5 72v345q0 81 15 117q20 49 68 65q28 9 85 9zM335 147v412h-105v-412h105zM175 742l165 111h138l-165 -111h-138z
" />
    <glyph glyph-name="Ocircumflex" unicode="&#xd4;" horiz-adv-x="562" 
d="M205 706h138q63 0 94 -9q47 -13 68.5 -51t21.5 -143v-292q0 -83 -9 -117q-16 -61 -70 -82q-32 -12 -98 -12h-128q-101 0 -141 33q-29 24 -39 65q-5 24 -5 72v345q0 81 15 117q20 49 68 65q28 9 85 9zM335 147v412h-105v-412h105zM112 737l95 114h151l95 -114h-115l-58 62
l-58 -62h-110z" />
    <glyph glyph-name="Ograve" unicode="&#xd2;" horiz-adv-x="562" 
d="M205 706h138q63 0 94 -9q47 -13 68.5 -51t21.5 -143v-292q0 -83 -9 -117q-16 -61 -70 -82q-32 -12 -98 -12h-128q-101 0 -141 33q-29 24 -39 65q-5 24 -5 72v345q0 81 15 117q20 49 68 65q28 9 85 9zM335 147v412h-105v-412h105zM84 853h137l164 -111h-137z" />
    <glyph glyph-name="Uacute" unicode="&#xda;" horiz-adv-x="604" 
d="M15 559v147h239v-559h99v559h238v-147h-46v-368q0 -100 -26 -138q-36 -53 -138 -53h-165q-78 0 -115 32q-26 22 -34 58q-6 25 -6 80v389h-46zM196 742l165 111h138l-165 -111h-138z" />
    <glyph glyph-name="Ucircumflex" unicode="&#xdb;" horiz-adv-x="604" 
d="M15 559v147h239v-559h99v559h238v-147h-46v-368q0 -100 -26 -138q-36 -53 -138 -53h-165q-78 0 -115 32q-26 22 -34 58q-6 25 -6 80v389h-46zM133 737l95 114h151l95 -114h-115l-58 62l-58 -62h-110z" />
    <glyph glyph-name="Ugrave" unicode="&#xd9;" horiz-adv-x="604" 
d="M15 559v147h239v-559h99v559h238v-147h-46v-368q0 -100 -26 -138q-36 -53 -138 -53h-165q-78 0 -115 32q-26 22 -34 58q-6 25 -6 80v389h-46zM105 853h137l164 -111h-137z" />
    <glyph glyph-name="circumflex" unicode="&#x2c6;" 
d="M136 620l-41 -85h-94l79 159h109l81 -159h-93z" />
    <glyph glyph-name="tilde" unicode="&#x2dc;" 
d="M204 671v0h90q-12 -123 -94 -123q-25 0 -75 20q-23 9 -31 9q-22 0 -25 -25h-92q7 119 89 119q25 0 81 -20q22 -8 33 -8q20 0 24 28z" />
    <glyph glyph-name="macron" unicode="&#xaf;" 
d="M295 558h-318v77h318v-77z" />
    <glyph glyph-name="macron" unicode="&#x2c9;" 
d="M295 558h-318v77h318v-77z" />
    <glyph glyph-name="cedilla" unicode="&#xb8;" 
d="M76 -98v132h82v-69h72v-138h-189v49h95v26h-60z" />
    <glyph glyph-name="Scaron" unicode="&#x160;" 
d="M194 706h311v-170l-171 -52v75h-108v-129h129q82 0 120 -25q51 -33 51 -128v-113q0 -51 -9 -78q-14 -45 -56 -68q-34 -18 -101 -18h-316v182l182 54v-89h108v142h-141q-84 0 -121.5 38.5t-37.5 114.5v117q0 73 34 108q38 39 126 39zM283 792l57 62h111l-96 -114h-150
l-95 114h115z" />
    <glyph glyph-name="scaron" unicode="&#x161;" 
d="M229 610l41 85h94l-79 -159h-109l-81 159h93zM141 471q-68 0 -91.5 -24t-23.5 -90v-132l237 -57v-56h-72v48l-165 -53v-107h299q58 0 80 21q26 24 26 91v144l-240 59v43h78v-36l153 54v95h-281z" />
    <glyph glyph-name="brokenbar" unicode="&#xa6;" 
d="M63 675h103v-350h-103v350zM63 175h103v-350h-103v350z" />
    <glyph glyph-name="Eth" unicode="&#xd0;" 
d="M356 147v412h-105v-154h61v-86h-61v-172h105zM14 559v147h358q78 0 110 -17q43 -23 57 -75q9 -31 9 -92v-330q0 -83 -17 -121q-21 -46 -68 -62q-28 -9 -86 -9h-363v147h45v172h-45v86h45v154h-45z" />
    <glyph glyph-name="eth" unicode="&#xf0;" 
d="M293 706l49 -91h75l41 -79h-74l6 -11q32 -58 42 -91q12 -37 12 -87v-228q0 -51 -27 -83q-30 -36 -86 -36h-188q-48 0 -82 33q-25 24 -25 72v259q0 50 30 79t83 29h118l-34 64h-117l-42 79h118l-48 91h149zM276 126v223h-73v-223h73z" />
    <glyph glyph-name="Yacute" unicode="&#xdd;" 
d="M1 553v153h188l68 -186q8 -22 14 -58q4 20 19 68l70 176h180v-153h-53l-123 -266v-140h49v-147h-285v147h49v140l-126 266h-50zM165 742l165 111h138l-165 -111h-138z" />
    <glyph glyph-name="yacute" unicode="&#xfd;" 
d="M-6 471h174l20 -109q15 -84 24 -178q6 65 18 133l26 154h175v-127h-43l-140 -530h-176v123h45l15 56l-95 351h-43v127zM165 536l80 158h110l-88 -158h-102z" />
    <glyph glyph-name="Thorn" unicode="&#xde;" 
d="M13 559v147h284v-147h-44v-30h112q94 0 132 -19q55 -28 55 -107v-74q0 -64 -18 -92q-22 -33 -70 -44q-28 -6 -85 -6h-126v-40h44v-147h-284v147h48v412h-48zM391 412h-138v-108h138v108z" />
    <glyph glyph-name="thorn" unicode="&#xfe;" 
d="M7 578v128h217v-295l69 61h74q97 0 97 -100v-269q0 -48 -22.5 -75.5t-63.5 -27.5h-95l-59 55v-121h42v-127h-259v127h45v644h-45zM295 344h-71v-217h71v217z" />
    <glyph glyph-name="minus" unicode="&#xad;" 
d="M667 345v-103h-667v103h667z" />
    <glyph glyph-name="minus" unicode="&#x2212;" 
d="M667 345v-103h-667v103h667z" />
    <glyph glyph-name="multiply" unicode="&#xd7;" 
d="M599 100l-74 -74l-192 192l-191 -192l-74 74l191 192l-191 192l74 74l191 -192l192 192l74 -74l-192 -192z" />
    <glyph glyph-name="onesuperior" unicode="&#xb9;" 
d="M49 623l92 83h118v-350h39v-91h-209v91h46v239l-44 -44z" />
    <glyph glyph-name="twosuperior" unicode="&#xb2;" horiz-adv-x="275" 
d="M38 260h294v93h-181v37l175 54v163q0 45 -16 68q-22 34 -91 34h-84q-49 0 -73 -23t-24 -85v-74l108 33v55h67v-100l-108 -31q-14 -4 -20 -7q-13 -6 -24 -19q-23 -25 -23 -77v-121z" />
    <glyph glyph-name="threesuperior" unicode="&#xb3;" 
d="M36 538v169h298v-83l-66 -88q58 -7 58 -69v-116q-2 -24 -5 -34q-7 -19 -24 -33q-24 -19 -67 -19h-116q-86 0 -86 91v27l112 39v-65h68v101h-70v55l75 104h-77v-48z" />
    <glyph glyph-name="onehalf" unicode="&#xbd;" 
d="M232 0l284 706h96l-285 -706h-95zM49 623l92 83h118v-350h39v-91h-209v91h46v239l-44 -44zM536 0h295v94h-181v36l175 54v163q0 46 -16 68q-23 34 -91 34h-84q-49 0 -72 -21q-26 -24 -26 -86v-74l109 32v56h67v-100l-108 -32q-14 -4 -20 -7q-13 -6 -24 -19
q-23 -24 -24 -76v-122z" />
    <glyph glyph-name="onequarter" unicode="&#xbc;" 
d="M247 0l284 706h96l-286 -706h-94zM49 623l92 83h118v-350h39v-91h-209v91h46v239l-44 -44zM673 441h126v-218h32l31 -84h-62v-48h46v-91h-207v91h47v48h-163v99zM687 223v115q-11 -17 -33 -52l-45 -63h78z" />
    <glyph glyph-name="threequarters" unicode="&#xbe;" 
d="M249 0l285 706h96l-286 -706h-95zM673 441h126v-218h36l30 -84h-65v-48h46v-91h-207v91h47v48h-163v99zM687 223v115q-11 -17 -33 -52l-45 -63h78zM30 544v163h300v-82l-68 -89q15 -2 21 -4q11 -3 19 -10q19 -17 19 -53v-105q0 -42 -14 -64q-24 -37 -94 -37h-97
q-43 0 -68 19q-28 21 -28 72v34l112 32v-65h71v104h-72v54l77 106h-78v-46z" />
    <glyph glyph-name=".null" 
 />
    <glyph glyph-name="Lslash" unicode="&#x141;" 
d="M16 559v147h283v-147h-46v-110l114 55v-83l-114 -55v-219h86v123h180v-270h-504v147h46v124l-45 -22v83l45 22v205h-45z" />
    <glyph glyph-name="lslash" unicode="&#x142;" 
d="M6 579v127h212v-240l46 25v-91l-46 -24v-249h47v-127h-258v126h45v164l-45 -24v92l45 22v199h-46z" />
    <glyph glyph-name="HT" 
 />
    <glyph glyph-name="LF" 
 />
    <glyph glyph-name="nonmarkingreturn" 
 />
    <glyph glyph-name="Zcaron" unicode="&#x17d;" 
d="M21 460v246h474v-139l-260 -420h114v76l154 49v-272h-491v147l260 412h-99v-53zM262 792l57 62h111l-96 -114h-150l-95 114h115z" />
    <glyph glyph-name="zcaron" unicode="&#x17e;" 
d="M229 610l41 85h94l-79 -159h-109l-81 159h93zM19 473h417v-112l-232 -246h101v37l131 46v-198h-425v115l235 246h-97v-38l-130 -46v196z" />
    <glyph glyph-name="DLE" 
 />
    <glyph glyph-name="DC1" 
 />
    <glyph glyph-name="DC2" 
 />
    <glyph glyph-name="DC3" 
 />
    <glyph glyph-name="DC4" 
 />
    <glyph glyph-name="RS" 
 />
    <glyph glyph-name="US" 
 />
    <glyph glyph-name="DEL" 
 />
    <glyph glyph-name="notequal" unicode="&#x2260;" horiz-adv-x="549" 
 />
    <glyph glyph-name="infinity" unicode="&#x221e;" horiz-adv-x="713" 
 />
    <glyph glyph-name="lessequal" unicode="&#x2264;" horiz-adv-x="549" 
 />
    <glyph glyph-name="greaterequal" unicode="&#x2265;" horiz-adv-x="549" 
 />
    <glyph glyph-name="partialdiff" unicode="&#x2202;" horiz-adv-x="494" 
 />
    <glyph glyph-name="summation" unicode="&#x2211;" horiz-adv-x="713" 
 />
    <glyph glyph-name="product" unicode="&#x220f;" horiz-adv-x="823" 
 />
    <glyph glyph-name="pi" unicode="&#x3c0;" horiz-adv-x="549" 
 />
    <glyph glyph-name="integral" unicode="&#x222b;" horiz-adv-x="274" 
 />
    <glyph glyph-name="Omega" unicode="&#x3a9;" horiz-adv-x="768" 
 />
    <glyph glyph-name="Omega" unicode="&#x2126;" horiz-adv-x="768" 
 />
    <glyph glyph-name="radical" unicode="&#x221a;" horiz-adv-x="549" 
 />
    <glyph glyph-name="approxequal" unicode="&#x2248;" horiz-adv-x="549" 
 />
    <glyph glyph-name="approxequal" unicode="&#x22f2;" horiz-adv-x="549" 
 />
    <glyph glyph-name="Delta" unicode="&#x394;" horiz-adv-x="612" 
 />
    <glyph glyph-name="Delta" unicode="&#x2206;" horiz-adv-x="612" 
 />
    <glyph glyph-name="lozenge" unicode="&#x25ca;" horiz-adv-x="494" 
 />
    <glyph glyph-name="fraction" unicode="&#x2044;" horiz-adv-x="125" 
d="M-142 0l322 706h83l-321 -706h-84z" />
    <glyph glyph-name="fi" unicode="&#xf001;" horiz-adv-x="583" 
d="M177 706h123v-127h-62v-108h46v-128h-46v-216h46v-127h-262v127h48v216h-48v128h48v127q0 59 24.5 83.5t82.5 24.5zM319 344v127h214v-344h45v-127h-259v127h46v217h-46zM364 606q0 30 21 51t52 21q30 0 51 -21t21 -51q0 -31 -21 -52t-51 -21q-31 0 -52 21t-21 52z" />
    <glyph glyph-name="fl" unicode="&#xf002;" horiz-adv-x="583" 
d="M177 706h354v-579h46v-127h-258v127h45v452h-126v-108h46v-128h-46v-216h46v-127h-262v127h48v216h-48v128h48v127q0 59 24.5 83.5t82.5 24.5z" />
    <glyph glyph-name="apple" unicode="&#xf000;" horiz-adv-x="790" 
 />
    <glyph glyph-name="dotlessi" unicode="&#x131;" 
d="M6 343v128h214v-344h44v-127h-258v127h45v216h-45z" />
    <glyph glyph-name="breve" unicode="&#x2d8;" 
d="M181 680h75q1 -62 -16 -89q-26 -42 -107 -42q-76 0 -101 38q-18 26 -17 93h74q-2 -51 46 -51q46 0 46 51z" />
    <glyph glyph-name="dotaccent" unicode="&#x2d9;" 
d="M66 617q0 29 20.5 49t48.5 20q29 0 49 -20t20 -49q0 -28 -20 -48.5t-49 -20.5t-49 20t-20 49z" />
    <glyph glyph-name="ring" unicode="&#x2da;" 
d="M46 616q0 36 26 62.5t63 26.5t63 -26t26 -63t-26.5 -63t-62.5 -26q-37 0 -63 26t-26 63zM135 579q15 0 26 10.5t11 26.5q0 15 -11 26t-26 11t-26 -11t-11 -26t11 -26t26 -11z" />
    <glyph glyph-name="hungarumlaut" unicode="&#x2dd;" 
d="M-49 536l81 158h110l-89 -158h-102zM130 536l81 158h110l-88 -158h-103z" />
    <glyph glyph-name="ogonek" unicode="&#x2db;" 
d="M208 -182h-63q-52 0 -68 9q-24 12 -24 57q0 37 12.5 55t75.5 73h77v-7q-44 -34 -58 -50q-16 -19 -16 -39q0 -31 32 -31h32v-67z" />
    <glyph glyph-name="caron" unicode="&#x2c7;" 
d="M135 610l41 85h94l-79 -159h-109l-81 159h93z" />
    <glyph glyph-name="glyph259" 
 />
    </font>
</defs>
</svg>
