<?xml version="1.0" standalone="no"?>
<!DOCTYPE svg PUBLIC "-//W3C//DTD SVG 1.1//EN" "http://www.w3.org/Graphics/SVG/1.1/DTD/svg11.dtd" >
<svg xmlns="http://www.w3.org/2000/svg" xmlns:xlink="http://www.w3.org/1999/xlink" version="1.1">
<metadata></metadata>
<defs>
<font id="avenirlight" horiz-adv-x="1064" >
<font-face units-per-em="2048" ascent="1536" descent="-512" />
<missing-glyph horiz-adv-x="532" />
<glyph horiz-adv-x="0" />
<glyph horiz-adv-x="0" />
<glyph unicode="&#xd;" horiz-adv-x="512" />
<glyph unicode=" "  horiz-adv-x="532" />
<glyph unicode="&#x09;" horiz-adv-x="532" />
<glyph unicode="&#xa0;" horiz-adv-x="532" />
<glyph unicode="!" horiz-adv-x="757" d="M281 86q0 41 28.5 69.5t69.5 28.5t69.5 -28.5t28.5 -69.5t-28.5 -69.5t-69.5 -28.5t-69.5 28.5t-28.5 69.5zM317 381v1069h123v-1069h-123z" />
<glyph unicode="&#x22;" d="M330 983v467h123v-467h-123zM612 983v467h123v-467h-123z" />
<glyph unicode="#" d="M27 469v98h235l45 320h-221v98h236l61 465h106l-63 -465h285l63 465h107l-64 -465h221v-98h-235l-43 -320h221v-98h-236l-61 -469h-106l61 469h-285l-61 -469h-107l62 469h-221zM371 567h282l43 320h-282z" />
<glyph unicode="$" d="M68 190l116 80q49 -84 127 -132t166 -52v594l-145 53q-76 29 -122 73t-71.5 93t-34 97t-8.5 81q0 86 34 157t89 122t123 81.5t135 37.5v137h98v-137q102 0 200.5 -35t178.5 -148l-112 -82q-47 74 -120 114t-147 40v-578l144 -49q47 -16 93 -44.5t84 -73t61.5 -105.5 t23.5 -143q0 -88 -34 -159t-90 -122t-130 -80.5t-152 -34.5v-137h-98v137q-111 0 -224.5 54.5t-184.5 160.5zM231 1085q0 -109 57.5 -164t153.5 -90l35 -12v545q-49 -8 -93 -30.5t-78 -58.5t-54.5 -83t-20.5 -107zM575 86q57 2 106.5 25.5t86.5 62.5t57.5 91t20.5 114 q0 63 -36 126.5t-146 104.5l-89 33v-557z" />
<glyph unicode="%" horiz-adv-x="1669" d="M78 1122q0 74 27.5 137.5t75.5 111.5t111.5 76t137.5 28t137.5 -28t111.5 -76t75.5 -111.5t27.5 -137.5t-27.5 -137t-75.5 -111.5t-111.5 -76t-137.5 -27.5t-137.5 27.5t-111.5 76t-75.5 111.5t-27.5 137zM188 1122q0 -51 19.5 -95t52.5 -76.5t77 -51t93 -18.5t93 18.5 t77 51t52.5 76.5t19.5 95t-19.5 95.5t-52.5 77t-77 51t-93 18.5t-93 -18.5t-77 -51t-52.5 -77t-19.5 -95.5zM324 -12l933 1532l95 -58l-936 -1532zM887 328q0 74 27.5 137t75.5 111.5t111.5 76t137.5 27.5t137.5 -27.5t111.5 -76t75.5 -112t27.5 -136.5q0 -74 -27.5 -137.5 t-75.5 -111.5t-111.5 -76t-137.5 -28t-137.5 28t-111.5 76t-75.5 111.5t-27.5 137.5zM997 328q0 -51 19.5 -95.5t52.5 -77t77 -51t93 -18.5t93 18.5t77 51t52.5 76.5t19.5 96q0 51 -19.5 95t-52.5 76.5t-77 51t-93 18.5t-93 -18.5t-77 -51t-52.5 -76.5t-19.5 -95z" />
<glyph unicode="&#x26;" horiz-adv-x="1441" d="M121 385q0 84 28.5 147.5t74.5 112.5t105.5 89t123.5 79q-31 37 -63 77t-56.5 83t-41 89t-16.5 95q0 78 30 139.5t80 103.5t116.5 64.5t138.5 22.5q66 0 124 -22.5t104 -62.5t73 -96.5t27 -125.5q0 -78 -28 -135.5t-74 -102.5t-103 -80t-119 -67l352 -373l209 377h140 l-263 -463l330 -346h-182l-217 233q-88 -119 -192.5 -189.5t-258.5 -70.5q-92 0 -173 30t-140.5 85t-94 133t-34.5 174zM256 389q0 -70 25.5 -125t69.5 -95t104.5 -61.5t128.5 -21.5q115 0 201.5 67.5t146.5 155.5l-402 418q-49 -29 -97 -61.5t-88 -72.5t-64.5 -89 t-24.5 -115zM412 1159q0 -37 15 -76t38.5 -75.5t51.5 -69.5t50 -59q43 23 90.5 49t86 61t64.5 79t26 101q0 86 -57.5 140.5t-145.5 54.5q-92 0 -155.5 -56.5t-63.5 -148.5z" />
<glyph unicode="'" horiz-adv-x="532" d="M205 983v467h123v-467h-123z" />
<glyph unicode="(" horiz-adv-x="532" d="M119 590q0 244 74.5 481.5t209.5 427.5l105 -65q-68 -84 -117 -186.5t-83 -213t-50 -224.5t-16 -220q0 -240 70.5 -444.5t195.5 -403.5l-96 -61q-143 199 -218 437t-75 472z" />
<glyph unicode=")" horiz-adv-x="532" d="M25 -254q68 84 116.5 187.5t82.5 214t50.5 223t16.5 219.5q0 240 -69.5 444.5t-196.5 403.5l96 61q143 -199 218 -437.5t75 -471.5q0 -244 -75 -481.5t-210 -427.5z" />
<glyph unicode="*" horiz-adv-x="909" d="M78 1145l28 92l302 -98v311h98v-311l295 98l30 -98l-294 -97l186 -249l-76 -60l-192 256l-183 -256l-82 60l187 249z" />
<glyph unicode="+" horiz-adv-x="1363" d="M160 571v99h473v473h98v-473h473v-99h-473v-473h-98v473h-473z" />
<glyph unicode="," horiz-adv-x="532" d="M102 -283l136 467h143l-158 -467h-121z" />
<glyph unicode="-" horiz-adv-x="681" d="M88 430v111h506v-111h-506z" />
<glyph unicode="." horiz-adv-x="532" d="M168 86q0 41 28.5 69.5t69.5 28.5t70 -28.5t29 -69.5t-29 -69.5t-70 -28.5t-69.5 28.5t-28.5 69.5z" />
<glyph unicode="/" horiz-adv-x="757" d="M18 -37l623 1561l107 -37l-621 -1561z" />
<glyph unicode="0" d="M53 725q0 119 17.5 251t70 242.5t145.5 183.5t246 73q154 0 247 -73t145.5 -183.5t70 -242.5t17.5 -251t-17.5 -251t-70 -242.5t-145.5 -183.5t-247 -73t-246.5 73t-145 183.5t-70 242.5t-17.5 251zM188 725q0 -84 10.5 -194.5t46.5 -209t104.5 -167t182.5 -68.5 q115 0 183.5 68.5t104.5 167t46.5 209t10.5 194.5t-10.5 194.5t-46.5 209t-104.5 167t-183.5 68.5t-183 -68.5t-104 -167t-46.5 -209t-10.5 -194.5z" />
<glyph unicode="1" d="M195 1157l358 293h104v-1450h-122v1278h-3l-262 -215z" />
<glyph unicode="2" d="M84 0v143l545 576q37 37 73.5 79t66.5 88t48.5 98t18.5 110q0 127 -82 198.5t-207 71.5q-113 0 -190.5 -65.5t-100.5 -172.5l-143 15q35 168 153.5 251t286.5 83q84 0 159.5 -25t133 -73t91.5 -116.5t34 -156.5q0 -84 -25.5 -155.5t-67.5 -136t-96.5 -122t-109.5 -115.5 l-453 -464h762v-111h-897z" />
<glyph unicode="3" d="M84 260l133 43q41 -104 111.5 -160.5t193.5 -56.5q80 0 141.5 24.5t101.5 67.5t60.5 100.5t20.5 122.5q0 80 -34 137.5t-88 93.5t-123 52t-138 16h-53v123h61q59 0 116.5 15.5t103.5 48.5t75 85t29 126q0 117 -73 191.5t-196 74.5q-90 0 -161.5 -46t-112.5 -124l-117 66 q59 113 162.5 164t228.5 51q84 0 157 -24t128 -70t87 -115.5t32 -163.5q0 -119 -65.5 -210t-192.5 -126v-4q70 -12 126 -46t97 -83t63.5 -110.5t22.5 -131.5q0 -86 -27.5 -161.5t-84 -132t-140.5 -89.5t-197 -33q-164 0 -277.5 69t-170.5 216z" />
<glyph unicode="4" d="M47 356v146l580 948h170v-983h221v-111h-221v-356h-123v356h-627zM158 467h516v848h-4z" />
<glyph unicode="5" d="M84 221l127 64q18 -41 50 -77t73 -63.5t88 -43t96 -15.5t106.5 21.5t106.5 64.5t82 108.5t33 151.5q0 78 -27.5 146.5t-77 120t-116 81t-144.5 29.5t-151.5 -27.5t-134.5 -70.5l12 739h717v-111h-598l-7 -460q47 25 102.5 33t108.5 8q104 0 187.5 -38t142 -103.5 t90 -152.5t31.5 -186q0 -117 -42 -205t-109.5 -145t-149.5 -86t-162 -29q-160 0 -267.5 65.5t-166.5 180.5z" />
<glyph unicode="6" d="M57 426q0 57 12.5 108.5t33 97.5t44 87t43.5 78l394 653h155l-395 -639h4q37 31 99.5 46t115.5 15q96 0 178 -34.5t141.5 -95t92.5 -141.5t33 -175q0 -98 -36 -181t-99.5 -142.5t-150.5 -93.5t-190 -34q-102 0 -189 34t-150.5 93.5t-99.5 142.5t-36 181zM193 426 q0 -76 24.5 -138.5t69.5 -107.5t107.5 -69.5t137.5 -24.5q76 0 138.5 24.5t107.5 69.5t69.5 107.5t24.5 138.5q0 72 -26.5 133.5t-72.5 107.5t-107.5 72.5t-133.5 26.5q-70 0 -132 -26.5t-108 -72.5t-72.5 -107.5t-26.5 -133.5z" />
<glyph unicode="7" d="M84 1339v111h823v-111l-577 -1339h-137l587 1339h-696z" />
<glyph unicode="8" d="M84 403q0 66 18.5 126.5t54.5 110.5t88 86t122 50v4v-2q-53 14 -96.5 47t-73 77t-46 94.5t-16.5 101.5q0 84 31 153.5t84 118.5t126 77t156 28q84 0 157 -28t126 -77t84 -118.5t31 -153.5q0 -51 -16.5 -101.5t-46 -94.5t-72.5 -76.5t-97 -47.5v2v-4q70 -14 122 -50 t88 -86t54.5 -110.5t18.5 -126.5q0 -98 -34 -177t-94 -134t-142 -86t-179 -31q-96 0 -178 31t-142 86t-94 134t-34 177zM219 403q0 -66 22.5 -123t63.5 -100t98.5 -68.5t128.5 -25.5q72 0 129.5 25.5t98.5 68.5t63.5 100.5t22.5 122.5q0 72 -24.5 130.5t-66.5 100.5 t-99.5 64.5t-123.5 22.5t-123 -22.5t-99 -64.5t-66.5 -100.5t-24.5 -130.5zM270 1098q0 -55 19.5 -103.5t53.5 -84.5t83 -57.5t106 -21.5q59 0 107.5 21.5t82.5 57.5t53.5 84t19.5 104q0 121 -75 193.5t-188 72.5t-187.5 -72.5t-74.5 -193.5z" />
<glyph unicode="9" d="M57 1024q0 98 36 181t99.5 142.5t150.5 93.5t189 34t189.5 -34t151 -93.5t99.5 -142.5t36 -181q0 -57 -12.5 -108.5t-33 -97.5t-43 -87t-45.5 -78l-393 -653h-155l395 639h-4q-37 -31 -99.5 -46t-115.5 -15q-96 0 -178 34.5t-141.5 95t-92.5 141.5t-33 175zM193 1024 q0 -70 26.5 -132.5t72.5 -108.5t108 -72.5t132 -26.5q72 0 133.5 26.5t107.5 72.5t72.5 108.5t26.5 132.5q0 76 -24.5 138.5t-69.5 107.5t-107.5 69.5t-138.5 24.5t-138 -24.5t-107 -69.5t-69.5 -107.5t-24.5 -138.5z" />
<glyph unicode=":" horiz-adv-x="532" d="M168 86q0 41 28.5 69.5t69.5 28.5t70 -28.5t29 -69.5t-29 -69.5t-70 -28.5t-69.5 28.5t-28.5 69.5zM168 860q0 41 28.5 69.5t69.5 28.5t70 -28.5t29 -69.5t-29 -69.5t-70 -28.5t-69.5 28.5t-28.5 69.5z" />
<glyph unicode=";" horiz-adv-x="532" d="M102 -283l136 467h143l-158 -467h-121zM168 860q0 41 28.5 69.5t69.5 28.5t70 -28.5t29 -69.5t-29 -69.5t-70 -28.5t-69.5 28.5t-28.5 69.5z" />
<glyph unicode="&#x3c;" horiz-adv-x="1363" d="M168 571v99l1028 479v-102l-917 -426l917 -426v-103z" />
<glyph unicode="=" horiz-adv-x="1363" d="M160 424v98h1044v-98h-1044zM160 719v98h1044v-98h-1044z" />
<glyph unicode="&#x3e;" horiz-adv-x="1363" d="M168 92v103l917 426l-917 426v102l1028 -479v-99z" />
<glyph unicode="?" horiz-adv-x="948" d="M96 1155q29 158 137.5 245t262.5 87q80 0 149.5 -23.5t119.5 -68.5t78.5 -110.5t28.5 -149.5q0 -86 -24.5 -145.5t-61 -104.5t-79.5 -83t-80 -78t-61.5 -90t-24.5 -122v-131h-123v172q0 68 23.5 119t59.5 92t76.5 78t76.5 79t59.5 91t23.5 116q0 111 -63.5 179.5 t-175.5 68.5q-109 0 -177.5 -65.5t-91.5 -171.5zM383 86q0 41 28.5 69.5t69.5 28.5t70 -28.5t29 -69.5t-29 -69.5t-70 -28.5t-69.5 28.5t-28.5 69.5z" />
<glyph unicode="@" horiz-adv-x="1638" d="M90 727q0 160 59.5 298t162 241.5t240.5 162t296 58.5q150 0 277.5 -47t222 -129t147.5 -194.5t53 -244.5q0 -127 -42 -237.5t-110.5 -191.5t-154.5 -128t-172 -47q-53 0 -90 34t-37 104h-4q-41 -51 -112.5 -94.5t-151.5 -43.5q-70 0 -121 23.5t-86 65.5t-52.5 96.5 t-17.5 115.5q0 106 34 213t96.5 191t151.5 137t202 53q68 0 128 -38t89 -132h4l49 131h123l-199 -594q-10 -33 -16 -59.5t-6 -38.5q0 -16 9 -34.5t44 -18.5q53 0 111.5 45t107.5 115.5t81 158.5t32 174q0 115 -48.5 210.5t-129 163t-187 105.5t-221.5 38q-139 0 -259 -54.5 t-207 -145.5t-136 -211t-49 -251q0 -137 51 -258t140 -211t209 -143.5t255 -53.5q76 0 151.5 20.5t144.5 56.5t127 85t97 109h119q-47 -86 -116.5 -153.5t-153.5 -116t-178.5 -74t-190.5 -25.5q-166 0 -307 59.5t-242.5 163t-159 242.5t-57.5 299zM520 573q0 -86 46 -140 t126 -54q72 0 135.5 47t110.5 117.5t73.5 151.5t26.5 149q0 98 -40 153.5t-126 55.5q-78 0 -142 -47.5t-111.5 -119t-73 -155.5t-25.5 -158z" />
<glyph unicode="A" horiz-adv-x="1402" d="M10 0l633 1450h139l611 -1450h-152l-158 385h-768l-163 -385h-142zM369 508h665l-327 795z" />
<glyph unicode="B" horiz-adv-x="1290" d="M199 0v1450h417q84 0 167 -13.5t149.5 -55.5t108.5 -116.5t42 -197.5q0 -111 -65.5 -192.5t-194.5 -108.5v-4q143 -10 233.5 -106.5t90.5 -249.5q0 -125 -48 -204t-121 -124t-158 -61.5t-158 -16.5h-463zM334 123h309q119 0 191.5 28.5t111.5 71.5t52.5 91t13.5 87 q0 80 -30 137.5t-79 93.5t-111.5 52t-127.5 16h-330v-577zM334 823h280q104 0 170 25.5t103 62.5t49 80t12 76q0 76 -24.5 126t-67.5 80t-100.5 42t-122.5 12h-299v-504z" />
<glyph unicode="C" horiz-adv-x="1441" d="M104 725q0 166 55.5 306t154 241.5t236.5 158t304 56.5q147 0 275 -52.5t225 -174.5l-111 -93q-68 102 -173 149.5t-216 47.5q-141 0 -255 -49t-193.5 -135t-122.5 -203t-43 -252t43 -252t122.5 -203t193.5 -135t255 -49q55 0 114.5 13.5t116 41t107.5 70.5t90 100 l111 -84q-104 -141 -241.5 -202.5t-297.5 -61.5q-166 0 -304 57.5t-236.5 159t-154 240.5t-55.5 305z" />
<glyph unicode="D" horiz-adv-x="1517" d="M180 0v1450h449q188 0 319 -46t218 -118t137.5 -159t74 -166.5t29.5 -144t6 -91.5t-6 -91.5t-29.5 -144t-74 -166.5t-137.5 -159t-218 -118t-319 -46h-449zM315 123h279q145 0 270 36t217.5 109.5t144.5 187t52 269.5t-52 269.5t-144.5 187t-217.5 109.5t-270 36h-279 v-1204z" />
<glyph unicode="E" horiz-adv-x="1214" d="M199 0v1450h886v-123h-751v-516h704v-123h-704v-565h784v-123h-919z" />
<glyph unicode="F" horiz-adv-x="1138" d="M199 0v1450h868v-123h-733v-516h682v-123h-682v-688h-135z" />
<glyph unicode="G" horiz-adv-x="1593" d="M104 725q0 166 55.5 306t154 241.5t236.5 158t304 56.5q324 0 522 -201l-98 -102q-33 41 -81 73.5t-104.5 56t-118 37t-120.5 13.5q-141 0 -255 -49t-193.5 -135t-122.5 -203t-43 -252t43 -252t122.5 -203t193.5 -135t255 -49q117 0 219.5 18.5t186.5 67.5v487h-349v123 h484v-688q-127 -72 -263.5 -101.5t-277.5 -29.5q-166 0 -304 57.5t-236.5 159t-154 240.5t-55.5 305z" />
<glyph unicode="H" horiz-adv-x="1478" d="M199 0v1450h135v-639h811v639h135v-1450h-135v688h-811v-688h-135z" />
<glyph unicode="I" horiz-adv-x="532" d="M199 0v1450h135v-1450h-135z" />
<glyph unicode="J" horiz-adv-x="987" d="M14 260l136 25q49 -199 241 -199q72 0 122 23.5t81 64.5t45 97.5t14 121.5v1057h135v-1024q0 -66 -9 -145.5t-49 -150.5t-119 -119t-220 -48q-160 0 -253 81t-124 216z" />
<glyph unicode="K" horiz-adv-x="1251" d="M199 0v1450h135v-639h12l703 639h186l-733 -664l774 -786h-195l-735 750h-12v-750h-135z" />
<glyph unicode="L" horiz-adv-x="1024" d="M199 0v1450h135v-1327h676v-123h-811z" />
<glyph unicode="M" horiz-adv-x="1820" d="M184 0v1450h203l528 -1217l529 1217h192v-1450h-135v1278h-4l-553 -1278h-59l-561 1278h-5v-1278h-135z" />
<glyph unicode="N" horiz-adv-x="1593" d="M199 0v1450h174l882 -1270h5v1270h135v-1450h-174l-883 1270h-4v-1270h-135z" />
<glyph unicode="O" horiz-adv-x="1708" d="M104 725q0 166 55.5 306t154 241.5t236.5 158t304 56.5t304 -56.5t236.5 -158t154 -241.5t55.5 -306t-55.5 -305t-154 -240.5t-236.5 -159t-304 -57.5t-304 57.5t-236.5 159t-154 240.5t-55.5 305zM240 725q0 -135 43 -252t122.5 -203t193.5 -135t255 -49t255 49 t193.5 135t122.5 203t43 252t-43 252t-122.5 203t-193.5 135t-255 49t-255 -49t-193.5 -135t-122.5 -203t-43 -252z" />
<glyph unicode="P" horiz-adv-x="1175" d="M199 0v1450h417q78 0 160 -17.5t150.5 -60.5t112.5 -116.5t44 -188.5q0 -98 -35.5 -170t-96 -118t-139.5 -68.5t-165 -22.5h-313v-688h-135zM334 811h307q57 0 112.5 13.5t98.5 43t69.5 78.5t26.5 121q0 70 -27.5 119t-71.5 80.5t-100.5 46t-115.5 14.5h-299v-516z" />
<glyph unicode="Q" horiz-adv-x="1708" d="M104 743q0 158 52.5 294.5t147.5 235.5t231.5 156.5t304.5 57.5t304 -57.5t231 -156.5t147.5 -235.5t52.5 -294.5q0 -94 -24.5 -190t-71.5 -180t-115 -148.5t-152 -97.5v-4h453v-123h-799q-152 0 -290 53t-242.5 150.5t-167 234.5t-62.5 305zM240 743q0 -127 46 -239.5 t129 -197.5t196.5 -134t250.5 -49q139 0 247 52t181.5 138t111.5 198t38 232q0 133 -41 246t-118 197t-188.5 131t-252.5 47t-253 -47t-188.5 -131t-117.5 -197t-41 -246z" />
<glyph unicode="R" horiz-adv-x="1214" d="M199 0v1450h381q29 0 78 -2t106 -12.5t116.5 -33t106.5 -65.5t78 -108.5t31 -159.5q0 -104 -36 -172t-90.5 -110t-120 -62t-124.5 -29l422 -696h-154l-407 688h-252v-688h-135zM334 811h287q106 0 172.5 26.5t103.5 65.5t50.5 84t13.5 82t-13.5 82t-50.5 84t-103.5 65.5 t-172.5 26.5h-287v-516z" />
<glyph unicode="S" horiz-adv-x="1138" d="M109 182l129 86q53 -92 138 -137t193 -45q68 0 127.5 20.5t103.5 57.5t69.5 89t25.5 118q0 102 -55.5 156.5t-138.5 88t-180 60t-180 73t-138.5 125t-55.5 216.5q0 96 38 170.5t102.5 125t148.5 76t176 25.5q119 0 220.5 -42t175.5 -140l-117 -84q-51 72 -120 107.5 t-163 35.5q-66 0 -125 -17.5t-103 -51t-70.5 -85t-26.5 -120.5q0 -109 55 -167.5t138 -92t180.5 -59.5t180.5 -69t138 -118.5t55 -212.5q0 -98 -37 -174t-99.5 -128.5t-144 -79t-169.5 -26.5q-143 0 -264 50t-207 169z" />
<glyph unicode="T" horiz-adv-x="1175" d="M25 1327v123h1126v-123h-496v-1327h-135v1327h-495z" />
<glyph unicode="U" horiz-adv-x="1400" d="M172 555v895h135v-860q0 -78 14.5 -166t56.5 -164t118.5 -125t203.5 -49t204 49t119 125t56.5 164t14.5 166v860h135v-895q0 -117 -26.5 -223.5t-89 -188.5t-164 -131t-249.5 -49q-147 0 -248.5 49t-164 131t-89 188.5t-26.5 223.5z" />
<glyph unicode="V" horiz-adv-x="1214" d="M-6 1450h145l467 -1272l471 1272h144l-551 -1450h-135z" />
<glyph unicode="W" horiz-adv-x="1933" d="M10 1450h140l360 -1284h4l367 1284h172l366 -1284h4l361 1284h139l-422 -1450h-166l-366 1290h-4l-367 -1290h-166z" />
<glyph unicode="X" horiz-adv-x="1251" d="M2 0l545 762l-496 688h160l418 -590l411 590h162l-491 -688l538 -762h-168l-458 655l-459 -655h-162z" />
<glyph unicode="Y" horiz-adv-x="1175" d="M-12 1450h162l438 -688l448 688h152l-533 -825v-625h-135v625z" />
<glyph unicode="Z" horiz-adv-x="1138" d="M47 0v106l848 1221h-836v123h1010v-111l-854 -1216h877v-123h-1045z" />
<glyph unicode="[" horiz-adv-x="532" d="M152 -319v1818h307v-98h-185v-1622h185v-98h-307z" />
<glyph unicode="\" horiz-adv-x="757" d="M10 1487l107 37l622 -1561l-108 -37z" />
<glyph unicode="]" horiz-adv-x="532" d="M74 -221h184v1622h-184v98h307v-1818h-307v98z" />
<glyph unicode="^" horiz-adv-x="1363" d="M168 524l467 926h94l467 -926h-115l-399 815l-397 -815h-117z" />
<glyph unicode="_" horiz-adv-x="1024" d="M0 -154h1024v-102h-1024v102z" />
<glyph unicode="`" horiz-adv-x="491" d="M-12 1450h164l213 -295h-103z" />
<glyph unicode="a" horiz-adv-x="1062" d="M121 256q0 109 55 172.5t136 95t172 40.5t161 9h143v58q0 123 -75.5 176t-190.5 53q-164 0 -289 -106l-71 84q68 66 168 99.5t192 33.5q172 0 274.5 -81t102.5 -261v-232q0 -137 4 -226t15 -171h-115q-12 72 -12 154h-5q-53 -92 -132 -135.5t-199 -43.5q-61 0 -121 15.5 t-107 49.5t-76.5 87t-29.5 129zM244 262q0 -43 19.5 -76.5t50 -55t68.5 -33t77 -11.5q98 0 161.5 28.5t101.5 75t52 104.5t14 118v63h-135q-76 0 -149.5 -10t-132 -34.5t-93 -65.5t-34.5 -103z" />
<glyph unicode="b" horiz-adv-x="1251" d="M137 0v1548h123v-768h4q29 49 72 85t93 59.5t105.5 35t108.5 11.5q109 0 201 -37t157.5 -103.5t102.5 -157.5t37 -200t-37 -200t-102.5 -157.5t-157.5 -103.5t-201 -37q-53 0 -108.5 11.5t-105.5 35t-93 59.5t-72 85h-4v-166h-123zM248 473q0 -80 30.5 -150.5t84 -123 t125 -83t155.5 -30.5q86 0 155.5 30.5t119 83t75 123t25.5 150.5t-25.5 150.5t-75 123t-119 83t-155.5 30.5q-84 0 -155.5 -30.5t-125 -83t-84 -123t-30.5 -150.5z" />
<glyph unicode="c" horiz-adv-x="985" d="M111 473q0 109 36.5 200t103 157.5t158 103.5t199.5 37q104 0 193.5 -43t159.5 -121l-99 -74q-53 59 -116.5 93t-137.5 34q-86 0 -155.5 -30.5t-118.5 -83t-75 -123t-26 -150.5t26 -150.5t75 -123t118.5 -83t155.5 -30.5q78 0 142.5 36t111.5 95l94 -78 q-70 -84 -157.5 -124t-190.5 -40q-109 0 -200 37t-157.5 103.5t-103 158t-36.5 199.5z" />
<glyph unicode="d" horiz-adv-x="1251" d="M111 473q0 109 36.5 200t103 157.5t158 103.5t199.5 37q53 0 108.5 -11.5t105.5 -35t93 -59.5t72 -85h4v768h123v-1548h-123v166h-4q-29 -49 -72 -85t-93 -59.5t-105 -35t-109 -11.5q-109 0 -200 37t-157.5 103.5t-103 158t-36.5 199.5zM233 473q0 -80 26 -150.5t75 -123 t118.5 -83t155.5 -30.5q84 0 156 30.5t125 83t84 123t31 150.5t-31 150.5t-84 123t-125 83t-156 30.5q-86 0 -155.5 -30.5t-118.5 -83t-75 -123t-26 -150.5z" />
<glyph unicode="e" horiz-adv-x="1138" d="M111 475q0 106 34.5 196.5t98 157t149.5 104.5t191 38q109 0 191.5 -38t139 -100.5t85 -142.5t28.5 -162v-86h-795q0 -39 15.5 -99t56.5 -117.5t110.5 -98.5t176.5 -41q94 0 182 45t135 123l90 -76q-72 -109 -177 -156t-232 -47q-109 0 -197 37t-151.5 103.5t-97 158 t-33.5 201.5zM233 553h672q0 63 -25.5 118.5t-69.5 97.5t-104.5 66.5t-127.5 24.5q-100 0 -167 -41t-106 -94t-55.5 -103.5t-16.5 -68.5z" />
<glyph unicode="f" horiz-adv-x="606" d="M37 836v110h196v309q0 92 28 152.5t69 97.5t91 52.5t95 15.5q86 0 141 -25l-24 -106q-41 20 -111 20q-166 0 -166 -252v-264h222v-110h-222v-836h-123v836h-196z" />
<glyph unicode="g" horiz-adv-x="1251" d="M123 485q0 100 40 188.5t108.5 155t160.5 104.5t197 38q123 0 214 -49.5t144 -135.5h4v160h123v-885q0 -176 -51 -284.5t-128 -168t-165 -80t-160 -20.5q-143 0 -270 52.5t-199 146.5l97 90q66 -92 164 -135t208 -43q141 0 218 53.5t113 124t43 144t7 112.5v131h-4 q-53 -86 -144 -135t-214 -49q-104 0 -196.5 39t-161 104.5t-108.5 153.5t-40 188zM246 485q0 -78 29.5 -146.5t80 -118.5t119 -79.5t146.5 -29.5t146.5 29.5t118.5 79.5t79.5 118.5t29.5 146.5t-29.5 146.5t-79.5 119t-119 80t-146 29.5q-78 0 -146.5 -29.5t-119 -80 t-80 -119t-29.5 -146.5z" />
<glyph unicode="h" horiz-adv-x="1138" d="M164 0v1548h123v-768h4q37 78 122 134.5t201 56.5q111 0 181.5 -35t110.5 -91.5t54.5 -130t14.5 -151.5v-563h-123v557q0 57 -10.5 111.5t-36 97.5t-71.5 68.5t-120 25.5q-68 0 -128 -23.5t-104 -71.5t-69.5 -121t-25.5 -171v-473h-123z" />
<glyph unicode="i" horiz-adv-x="491" d="M154 1321q0 39 26.5 65.5t65.5 26.5t65.5 -26.5t26.5 -65.5t-26.5 -65.5t-65.5 -26.5t-65.5 26.5t-26.5 65.5zM184 0v946h123v-946h-123z" />
<glyph unicode="j" horiz-adv-x="491" d="M-61 -473l18 108q43 -16 78 -16q49 0 78.5 17.5t45 45t20.5 64.5t5 78v1122h123v-1112q0 -74 -11 -133t-42 -102t-83 -67t-134 -24q-49 0 -98 19zM154 1321q0 39 26.5 65.5t65.5 26.5t65.5 -26.5t26.5 -65.5t-26.5 -65.5t-65.5 -26.5t-65.5 26.5t-26.5 65.5z" />
<glyph unicode="k" horiz-adv-x="985" d="M164 0v1548h123v-1032l467 428h180l-488 -432l545 -512h-186l-518 500v-500h-123z" />
<glyph unicode="l" horiz-adv-x="491" d="M184 0v1548h123v-1548h-123z" />
<glyph unicode="m" horiz-adv-x="1744" d="M154 946h122q2 -53 3.5 -102t5.5 -64h6q37 78 122 134.5t201 56.5q94 0 172 -48.5t113 -156.5q45 106 134 155.5t188 49.5q111 0 181.5 -35t110 -91.5t54 -130t14.5 -151.5v-563h-123v557q0 57 -10 111.5t-36 97.5t-72 68.5t-119 25.5q-86 0 -141.5 -31.5t-87 -81 t-45 -106.5t-13.5 -109v-532h-123v569q0 131 -48 211t-149 80q-68 0 -128 -23.5t-104 -71.5t-69.5 -121t-25.5 -171v-473h-123v680q0 27 -2 64.5t-3 76.5t-3 73t-2 52z" />
<glyph unicode="n" horiz-adv-x="1138" d="M154 946h122q2 -53 3.5 -102t5.5 -64h6q37 78 122 134.5t201 56.5q111 0 181.5 -35t110.5 -91.5t54.5 -130t14.5 -151.5v-563h-123v557q0 57 -10.5 111.5t-36 97.5t-71.5 68.5t-120 25.5q-68 0 -128 -23.5t-104 -71.5t-69.5 -121t-25.5 -171v-473h-123v680q0 27 -2 64.5 t-3 76.5t-3 73t-2 52z" />
<glyph unicode="o" horiz-adv-x="1216" d="M111 473q0 109 36.5 200t103 157.5t158 103.5t199.5 37q109 0 201 -37t157.5 -103.5t102.5 -157.5t37 -200t-37 -200t-102.5 -157.5t-157.5 -103.5t-201 -37t-200 37t-157.5 103.5t-103 157.5t-36.5 200zM233 473q0 -80 26 -150.5t75 -123t118.5 -83t155.5 -30.5 t156 30.5t119 83t74.5 123t25.5 150.5t-25.5 150.5t-74.5 123t-119 83t-156 30.5t-155.5 -30.5t-118.5 -83t-75 -123t-26 -150.5z" />
<glyph unicode="p" horiz-adv-x="1251" d="M137 -467v1413h123v-166h4q29 49 72 85t93 59.5t105.5 35t108.5 11.5q109 0 201 -37t157.5 -103.5t102.5 -157.5t37 -200t-37 -200t-102.5 -157.5t-157.5 -103.5t-201 -37q-53 0 -108.5 11.5t-105.5 35t-93 59.5t-72 85h-4v-633h-123zM248 473q0 -80 30.5 -150.5t84 -123 t125 -83t155.5 -30.5q86 0 155.5 30.5t119 83t75 123t25.5 150.5t-25.5 150.5t-75 123t-119 83t-155.5 30.5q-84 0 -155.5 -30.5t-125 -83t-84 -123t-30.5 -150.5z" />
<glyph unicode="q" horiz-adv-x="1251" d="M111 473q0 109 36.5 200t103 157.5t158 103.5t199.5 37q53 0 108.5 -11.5t105.5 -35t93 -59.5t72 -85h4v166h123v-1413h-123v633h-4q-29 -49 -72 -85t-93 -59.5t-105 -35t-109 -11.5q-109 0 -200 37t-157.5 103.5t-103 158t-36.5 199.5zM233 473q0 -80 26 -150.5t75 -123 t118.5 -83t155.5 -30.5q84 0 156 30.5t125 83t84 123t31 150.5t-31 150.5t-84 123t-125 83t-156 30.5q-86 0 -155.5 -30.5t-118.5 -83t-75 -123t-26 -150.5z" />
<glyph unicode="r" horiz-adv-x="681" d="M154 946h122q2 -53 3.5 -102t5.5 -64q47 84 120.5 137.5t180.5 53.5q18 0 35.5 -3t35.5 -7l-14 -121q-25 8 -47 8q-80 0 -138.5 -25.5t-96 -70.5t-56 -105.5t-18.5 -130.5v-516h-123v680q0 27 -2 64.5t-3 76.5t-3 73t-2 52z" />
<glyph unicode="s" horiz-adv-x="872" d="M57 168l109 74q39 -76 114.5 -116t159.5 -40q41 0 80 12.5t70 35t49 54t18 72.5q0 66 -42 98.5t-103 51t-135 32t-135.5 41t-103.5 76.5t-42 139q0 70 29 121t75 85t104 50.5t116 16.5q117 0 202 -43t132 -135l-111 -66q-35 66 -87 99.5t-136 33.5q-33 0 -69 -10 t-64.5 -28.5t-48 -47.5t-19.5 -65q0 -63 42 -94t103.5 -48.5t135 -30t135 -40t103.5 -79.5t42 -149q0 -74 -27.5 -128t-75.5 -91t-109.5 -55.5t-129.5 -18.5q-123 0 -224 47.5t-157 145.5z" />
<glyph unicode="t" horiz-adv-x="681" d="M29 836v110h204v273h123v-273h271v-110h-271v-617q0 -63 35 -98t96 -35q35 0 71 9t69 24l10 -111q-35 -12 -80 -22.5t-80 -10.5q-131 0 -187.5 72t-56.5 172v617h-204z" />
<glyph unicode="u" horiz-adv-x="1138" d="M154 383v563h122v-557q0 -57 10.5 -111.5t36 -97.5t71.5 -68.5t120 -25.5q68 0 128 23.5t104.5 71.5t70 121t25.5 171v473h123v-680q0 -27 2 -64.5t3 -76.5t3 -73t2 -52h-123q-2 53 -3 102.5t-5 63.5h-6q-37 -78 -122 -134.5t-202 -56.5q-111 0 -180.5 35t-109.5 91.5 t-55 130t-15 151.5z" />
<glyph unicode="v" horiz-adv-x="948" d="M31 946h139l315 -813l308 813h125l-373 -946h-127z" />
<glyph unicode="w" horiz-adv-x="1441" d="M31 946h135l229 -792h4l265 792h116l281 -792h4l223 792h123l-278 -946h-127l-283 774h-4l-264 -774h-127z" />
<glyph unicode="x" horiz-adv-x="985" d="M12 0l394 512l-338 434h157l262 -358l261 358h153l-334 -434l406 -512h-160l-330 428l-323 -428h-148z" />
<glyph unicode="y" horiz-adv-x="948" d="M31 946h137l313 -796l305 796h132l-488 -1239q-35 -92 -96.5 -145.5t-163.5 -53.5q-31 0 -61.5 5.5t-59.5 13.5l12 115q27 -8 54.5 -15.5t56.5 -7.5q35 0 59.5 14.5t43 37t31.5 50t24 56.5l86 219z" />
<glyph unicode="z" horiz-adv-x="872" d="M55 0v74l568 762h-539v110h709v-74l-566 -761h590v-111h-762z" />
<glyph unicode="{" horiz-adv-x="681" d="M135 541v98q43 0 70.5 26.5t44 70.5t23 101.5t6.5 116.5v297q0 117 47 182.5t133 65.5h102v-98h-47q-31 0 -52.5 -17.5t-34.5 -45t-19.5 -63.5t-6.5 -75v-289q0 -80 -18 -138t-43 -97t-48.5 -59.5t-33.5 -24.5v-4q10 -6 33.5 -26.5t48.5 -58.5t43 -96.5t18 -138.5v-291 q0 -37 6.5 -72.5t19.5 -63t34.5 -45t52.5 -17.5h47v-98h-102q-86 0 -133 66.5t-47 180.5v299q0 59 -6.5 115.5t-23 100.5t-44 71t-70.5 27z" />
<glyph unicode="|" horiz-adv-x="454" d="M178 -37v1585h98v-1585h-98z" />
<glyph unicode="}" horiz-adv-x="681" d="M121 -221h47q31 0 52.5 17.5t34.5 45t19.5 63.5t6.5 75v288q0 80 18 138.5t43 97.5t48.5 59.5t33.5 24.5v4q-10 6 -33.5 26.5t-48.5 58.5t-43 96t-18 138v291q0 37 -6.5 73t-19.5 63.5t-34.5 45t-52.5 17.5h-47v98h102q86 0 133 -66.5t47 -181.5v-299q0 -59 6.5 -115.5 t23 -100.5t44 -70.5t70.5 -26.5v-98q-43 0 -70.5 -27t-44 -71t-23 -101t-6.5 -117v-297q0 -117 -47 -182t-133 -65h-102v98z" />
<glyph unicode="~" horiz-adv-x="1363" d="M211 561q16 33 39.5 65.5t54.5 59.5t71 43t91 16q57 0 117.5 -24.5t117.5 -48.5q59 -27 110.5 -46.5t90.5 -19.5q61 0 103.5 43t76.5 96l70 -65q-16 -35 -39.5 -68.5t-54.5 -59.5t-71 -41t-91 -15q-57 0 -117.5 24.5t-117.5 48.5q-59 27 -110.5 46.5t-90.5 19.5 q-61 0 -103.5 -43t-76.5 -96z" />
<glyph unicode="&#xa1;" horiz-adv-x="757" d="M281 909q0 41 28.5 70t69.5 29t69.5 -29t28.5 -70t-28.5 -69.5t-69.5 -28.5t-69.5 28.5t-28.5 69.5zM317 -455v1069h123v-1069h-123z" />
<glyph unicode="&#xa2;" d="M106 477q0 96 31 179t86.5 147.5t132 106.5t168.5 55v147h99v-145q100 -2 185 -44t150 -116l-98 -74q-47 53 -104.5 85t-132.5 38v-770q72 4 132 40t105 91l94 -78q-129 -158 -331 -164v-141h-99v148q-94 12 -171 55t-132 109.5t-85 150.5t-30 180zM229 477 q0 -68 20.5 -130t59.5 -113.5t93.5 -87t121.5 -50.5v758q-70 -10 -125 -45t-93 -86t-57.5 -114.5t-19.5 -131.5z" />
<glyph unicode="&#xa3;" d="M119 0v111h215v589h-195v111h195v240q0 70 22.5 144.5t73.5 137t133 102.5t201 40q162 0 293 -115l-82 -98q-43 43 -97.5 72.5t-119.5 29.5q-78 0 -132.5 -29.5t-89 -73.5t-51 -96.5t-16.5 -99.5v-254h338v-111h-338v-589h502v-111h-852z" />
<glyph unicode="&#xa4;" d="M23 725q0 188 122 322l-116 112l69 76l117 -115q68 53 149.5 81t167.5 28t168 -27.5t150 -81.5l117 115l69 -76l-116 -112q123 -133 122 -322q0 -188 -122 -322l116 -112l-69 -76l-117 115q-68 -53 -150 -81t-168 -28t-167.5 27.5t-149.5 81.5l-117 -115l-69 76l116 112 q-123 133 -122 322zM145 725q0 -82 31 -153.5t84 -125t123 -84t149 -30.5q80 0 150 30.5t123 84t84 125t31 153.5t-31 153.5t-84 125t-123 84t-150 30.5t-149.5 -30.5t-122.5 -84t-84 -125t-31 -153.5z" />
<glyph unicode="&#xa5;" d="M0 1450h139l393 -705l400 705h133l-391 -694h274v-99h-330l-18 -32v-158h348v-98h-348v-369h-135v369h-348v98h348v158l-19 32h-329v99h274z" />
<glyph unicode="&#xa6;" horiz-adv-x="454" d="M178 -37v592h98v-592h-98zM178 956v592h98v-592h-98z" />
<glyph unicode="&#xa7;" d="M131 -49l125 61q35 -92 102.5 -138t163.5 -46q47 0 91 12.5t79 38t56.5 62t21.5 86.5q0 70 -45 115.5t-112.5 81.5t-147.5 70t-147.5 80t-112.5 109.5t-45 157.5q0 53 17.5 93t48 73t69.5 56.5t82 41.5q-74 45 -121 106.5t-47 153.5q0 80 32.5 139.5t87 100.5t123 61.5 t138.5 20.5q102 0 195.5 -45t132.5 -148l-119 -69q-29 70 -85.5 104.5t-129.5 34.5q-45 0 -89 -12.5t-77 -37t-53.5 -62.5t-20.5 -87q0 -66 44 -109.5t109.5 -79.5t141.5 -70t141.5 -79t109.5 -105t44 -153q0 -94 -52.5 -160.5t-129.5 -109.5q68 -41 110.5 -105.5 t42.5 -146.5t-31.5 -145.5t-85 -107.5t-122 -66.5t-142.5 -22.5q-129 0 -236.5 58.5t-156.5 187.5zM295 645q0 -78 41 -114.5t98 -65.5l209 -107q27 14 54.5 35t50 45.5t37 54t14.5 62.5q0 37 -14.5 67.5t-37 56.5t-49 45t-51.5 32l-153 84q-33 -10 -68 -26.5t-64.5 -40 t-48 -55.5t-18.5 -73z" />
<glyph unicode="&#xa8;" horiz-adv-x="491" d="M-47 1335q0 41 28.5 70t69.5 29t70 -29t29 -70t-29 -69.5t-70 -28.5t-69.5 28.5t-28.5 69.5zM342 1335q0 41 28.5 70t69.5 29t70 -29t29 -70t-29 -69.5t-70 -28.5t-69.5 28.5t-28.5 69.5z" />
<glyph unicode="&#xa9;" horiz-adv-x="1638" d="M57 725q0 158 60.5 296t164 241.5t242 164t295.5 60.5q158 0 296 -60.5t241.5 -164t164 -241.5t60.5 -296t-60.5 -296t-164 -241.5t-241.5 -164t-296 -60.5t-296 60.5t-241.5 164t-164 241.5t-60.5 296zM168 725q0 -135 51 -254t139 -207t207 -139t254 -51t254 51 t207 139t139 207t51 254t-51 254t-139 207t-207 139t-254 51t-254 -51t-207 -139t-139 -207t-51 -254zM399 725q0 102 30 187t85 148.5t137 98.5t187 35q72 0 136 -20.5t115.5 -60.5t84 -97.5t43.5 -132.5h-111q-18 84 -86 147.5t-180 65.5q-78 0 -139.5 -30t-103.5 -80 t-64.5 -117.5t-22.5 -143.5t22.5 -142.5t64.5 -117.5t103.5 -81t139.5 -30q113 0 181.5 63.5t84.5 149.5h111q-10 -76 -43 -133t-84.5 -97t-116 -60.5t-135.5 -20.5q-104 0 -186.5 35t-137.5 98.5t-85 149.5t-30 186z" />
<glyph unicode="&#xaa;" horiz-adv-x="690" d="M70 1034q0 59 27.5 98t72.5 62t100.5 31t110.5 8h131v18q-4 66 -38 102t-132 36q-61 0 -105 -18.5t-87 -53.5l-54 78q98 80 269 80q123 0 184 -49.5t61 -174.5v-164q0 -53 1 -105t10 -101h-101q-6 23 -6 45t-2 49h-4q-35 -57 -88 -82t-125 -25q-43 0 -84 9.5t-73 30 t-50 51t-18 75.5zM168 1038q0 -37 46 -60.5t101 -23.5q53 0 91 17.5t62 44t34 58.5t10 59v14h-78q-43 0 -90 -4t-86 -16.5t-64.5 -33t-25.5 -55.5z" />
<glyph unicode="&#xab;" horiz-adv-x="985" d="M129 485l281 416l86 -59l-238 -357l242 -360l-90 -55zM469 485l281 416l86 -59l-238 -357l242 -360l-90 -55z" />
<glyph unicode="&#xac;" horiz-adv-x="1363" d="M160 719v98h1044v-543h-98v445h-946z" />
<glyph unicode="&#xad;" horiz-adv-x="681" d="M88 430v111h506v-111h-506z" />
<glyph unicode="&#xae;" horiz-adv-x="1638" d="M57 725q0 158 60.5 296t164 241.5t242 164t295.5 60.5q158 0 296 -60.5t241.5 -164t164 -241.5t60.5 -296t-60.5 -296t-164 -241.5t-241.5 -164t-296 -60.5t-296 60.5t-241.5 164t-164 241.5t-60.5 296zM168 725q0 -135 51 -254t139 -207t207 -139t254 -51t254 51 t207 139t139 207t51 254t-51 254t-139 207t-207 139t-254 51t-254 -51t-207 -139t-139 -207t-51 -254zM543 289v878h338q150 0 213 -62.5t63 -180.5q0 -61 -17.5 -104.5t-48 -73t-70.5 -47t-85 -25.5l262 -385h-125l-262 385h-158v-385h-110zM653 772h142q45 0 90 3 t80.5 18.5t58.5 45t23 85.5q0 43 -17.5 70.5t-45.5 44t-63.5 23.5t-70.5 7h-197v-297z" />
<glyph unicode="&#xaf;" horiz-adv-x="491" d="M-25 1241v98h541v-98h-541z" />
<glyph unicode="&#xb0;" horiz-adv-x="819" d="M115 1182q0 61 23.5 114.5t63.5 93.5t93 62.5t115 22.5q61 0 115.5 -22.5t94 -62.5t62.5 -93.5t23 -114.5t-23 -115.5t-62.5 -94.5t-94 -63.5t-115.5 -23.5t-114.5 23.5t-93.5 63.5t-63.5 94t-23.5 116zM213 1180q0 -82 57.5 -139.5t139.5 -57.5t139 57.5t57 139.5 t-57 139t-139 57t-139.5 -57t-57.5 -139z" />
<glyph unicode="&#xb1;" horiz-adv-x="1363" d="M160 670v98h467v375h98v-375h479v-98h-479v-375h-98v375h-467zM168 98v99h1028v-99h-1028z" />
<glyph unicode="&#xb2;" horiz-adv-x="692" d="M47 592v88l352 344q55 53 94 102.5t39 120.5q0 57 -45 93t-127 36q-78 0 -118.5 -36.5t-57.5 -84.5l-104 9q14 59 46 99t72 64.5t84 36t83 11.5q119 0 198.5 -58.5t79.5 -165.5q0 -49 -16.5 -92t-42 -80t-59 -71.5t-70.5 -69.5l-260 -248h450v-98h-598z" />
<glyph unicode="&#xb3;" horiz-adv-x="692" d="M55 762l97 37q23 -55 65.5 -88t122.5 -33q35 0 68.5 13.5t59.5 35t42 49t16 58.5q0 49 -19.5 80.5t-51 50t-73.5 26.5t-87 8h-35v99h47q31 0 66 8t63.5 25.5t47 47t18.5 72.5q0 53 -43 89t-115 36q-59 0 -105 -27.5t-75 -74.5l-80 51q41 66 106.5 108t153.5 42 q55 0 104.5 -15.5t86 -44.5t57 -69.5t20.5 -92.5q0 -72 -48 -126t-120 -76v-4q90 -12 141.5 -74t51.5 -146q0 -57 -22.5 -103t-62.5 -78t-94.5 -49t-117.5 -17q-100 0 -174 42t-111 140z" />
<glyph unicode="&#xb4;" horiz-adv-x="491" d="M127 1155l213 295h164l-275 -295h-102z" />
<glyph unicode="&#xb5;" horiz-adv-x="1138" d="M154 -467v1413h122v-557q0 -57 10.5 -111.5t36 -97.5t71.5 -68.5t120 -25.5q68 0 128 23.5t104.5 71.5t70 121t25.5 171v473h123v-680q0 -27 2 -64.5t3 -76.5t3 -73t2 -52h-123q-2 53 -3 102.5t-5 63.5h-6q-37 -78 -122 -134.5t-202 -56.5q-84 0 -141.5 20.5t-98.5 57.5 v-520h-120z" />
<glyph unicode="&#xb6;" horiz-adv-x="1228" d="M123 1049q0 195 119.5 298t337.5 103h464v-1708h-122v1610h-252v-1610h-123v920q-90 0 -168 30.5t-134.5 83.5t-89 123t-32.5 150z" />
<glyph unicode="&#xb7;" horiz-adv-x="532" d="M168 651q0 41 28.5 70t69.5 29t70 -29t29 -70t-29 -69.5t-70 -28.5t-69.5 28.5t-28.5 69.5z" />
<glyph unicode="&#xb8;" horiz-adv-x="491" d="M68 -399l28 65q68 -35 156 -35q20 0 42.5 5.5t42 15.5t32 26.5t12.5 40.5q0 47 -37 66.5t-78 19.5q-47 0 -90 -16l-33 31l129 180h78l-96 -131l4 -4q27 14 64 14q66 0 118 -37t52 -110q0 -47 -20.5 -80t-54.5 -53.5t-74 -30.5t-81 -10q-102 0 -194 43z" />
<glyph unicode="&#xb9;" horiz-adv-x="692" d="M137 1286l225 176h111v-870h-111v760l-174 -135z" />
<glyph unicode="&#xba;" horiz-adv-x="790" d="M70 1171q0 135 88 219.5t235 84.5q72 0 131.5 -21.5t103.5 -61.5t68.5 -95.5t24.5 -125.5q0 -68 -24.5 -123t-68.5 -95t-103.5 -62.5t-131.5 -22.5q-147 0 -235 84t-88 219zM168 1171q0 -43 16.5 -81.5t46 -69.5t71.5 -48.5t91 -17.5t91 17.5t73 47.5t48.5 68.5 t17.5 83.5q0 92 -62.5 155t-167.5 63q-49 0 -90 -17.5t-71.5 -48.5t-47 -70t-16.5 -82z" />
<glyph unicode="&#xbb;" horiz-adv-x="985" d="M145 846l91 55l280 -416l-280 -415l-86 59l237 356zM485 846l90 55l281 -416l-281 -415l-86 59l238 356z" />
<glyph unicode="&#xbc;" horiz-adv-x="1593" d="M74 1286l225 176h111v-870h-111v760l-174 -135zM236 -12l933 1532l95 -58l-936 -1532zM889 209v92l379 567h121v-561h131v-98h-131v-209h-111v209h-389zM999 307h279v414h-4z" />
<glyph unicode="&#xbd;" horiz-adv-x="1593" d="M57 1286l226 176h110v-870h-110v760l-174 -135zM217 -12l934 1532l94 -58l-936 -1532zM938 0v88l352 344q55 53 94 102.5t39 120.5q0 57 -45 93t-127 36q-78 0 -118.5 -36.5t-57.5 -83.5l-104 8q14 59 46 99t71.5 64.5t84 36t82.5 11.5q119 0 199 -58.5t80 -165.5 q0 -49 -16.5 -92t-42 -79.5t-59.5 -71.5t-70 -70l-261 -248h451v-98h-598z" />
<glyph unicode="&#xbe;" horiz-adv-x="1593" d="M41 762l98 37q23 -55 66 -88t123 -33q35 0 68.5 13.5t59 35t42 49t16.5 58.5q0 49 -19.5 80.5t-51 50t-73.5 26.5t-87 8h-35v99h47q31 2 65.5 10t63.5 25.5t47 46t18 71.5q0 53 -43 89t-114 36q-59 0 -105.5 -27.5t-74.5 -74.5l-80 51q41 66 106.5 108t153.5 42 q55 0 104 -15.5t86 -44.5t57.5 -69.5t20.5 -92.5q0 -72 -48 -126t-120 -76v-4q90 -12 141.5 -74t51.5 -146q0 -57 -22.5 -103t-62.5 -78t-94.5 -49t-117.5 -17q-100 0 -174 42t-113 140zM340 -12l934 1532l94 -58l-936 -1532zM922 209v92l378 567h121v-561h131v-98h-131 v-209h-110v209h-389zM1028 307h279v414h-4z" />
<glyph unicode="&#xbf;" horiz-adv-x="948" d="M76 -139q0 86 24.5 145.5t61.5 104.5t80 82.5t79.5 77.5t61.5 90.5t25 121.5v131h122v-172q0 -68 -23.5 -119t-59 -92t-76.5 -77.5t-77 -78.5t-59.5 -91.5t-23.5 -116.5q0 -111 63.5 -179.5t176.5 -68.5q109 0 177 65.5t91 172.5l133 -17q-29 -158 -137.5 -245 t-261.5 -87q-80 0 -150 24t-120 69t-78.5 110.5t-28.5 149.5zM369 909q0 41 28.5 70t69.5 29t69.5 -29t28.5 -70t-28.5 -69.5t-69.5 -28.5t-69.5 28.5t-28.5 69.5z" />
<glyph unicode="&#xc0;" horiz-adv-x="1402" d="M10 0l633 1450h139l611 -1450h-152l-158 385h-768l-163 -385h-142zM369 508h665l-327 795zM445 1835h164l213 -295h-103z" />
<glyph unicode="&#xc1;" horiz-adv-x="1402" d="M10 0l633 1450h139l611 -1450h-152l-158 385h-768l-163 -385h-142zM369 508h665l-327 795zM584 1540l213 295h164l-275 -295h-102z" />
<glyph unicode="&#xc2;" horiz-adv-x="1402" d="M10 0l633 1450h139l611 -1450h-152l-158 385h-768l-163 -385h-142zM369 508h665l-327 795zM410 1540l221 295h143l222 -295h-133l-166 221l-166 -221h-121z" />
<glyph unicode="&#xc3;" horiz-adv-x="1402" d="M10 0l633 1450h139l611 -1450h-152l-158 385h-768l-163 -385h-142zM369 508h665l-327 795zM383 1575q4 35 18.5 72.5t37.5 66.5q23 31 55.5 50.5t73.5 19.5t79.5 -16.5t73.5 -34.5q35 -16 68 -32t61 -16q45 0 67.5 31t31.5 68h73q-4 -37 -16 -75t-33.5 -67.5t-51.5 -48 t-71 -18.5t-79 16.5t-74 32.5q-37 16 -71 32.5t-65 16.5q-47 0 -70.5 -30.5t-33.5 -67.5h-74z" />
<glyph unicode="&#xc4;" horiz-adv-x="1402" d="M10 0l633 1450h139l611 -1450h-152l-158 385h-768l-163 -385h-142zM369 508h665l-327 795zM410 1720q0 41 28.5 70t69.5 29t70 -29t29 -70t-29 -69.5t-70 -28.5t-69.5 28.5t-28.5 69.5zM799 1720q0 41 28.5 70t69.5 29t70 -29t29 -70t-29 -69.5t-70 -28.5t-69.5 28.5 t-28.5 69.5z" />
<glyph unicode="&#xc5;" horiz-adv-x="1402" d="M10 0l633 1450h139l611 -1450h-152l-158 385h-768l-163 -385h-142zM369 508h665l-327 795zM512 1714q0 39 15.5 75t41 62.5t61.5 42t75 15.5q41 0 74.5 -16.5t59.5 -44t40 -62.5t14 -74q0 -37 -14 -71.5t-40 -61.5t-60.5 -43t-73.5 -16t-75 15t-61.5 42t-41 62.5 t-15.5 74.5zM586 1712q0 -51 34 -85t83 -34q51 0 83.5 35t32.5 86t-32.5 86t-83.5 35t-84 -36t-33 -87z" />
<glyph unicode="&#xc6;" horiz-adv-x="1896" d="M-10 0l944 1450h825v-123h-600v-516h565v-123h-565v-565h617v-123h-752v385h-639l-252 -385h-143zM465 508h559v819h-25z" />
<glyph unicode="&#xc7;" horiz-adv-x="1441" d="M104 725q0 166 55.5 306t154 241.5t236.5 158t304 56.5q147 0 275 -52.5t225 -174.5l-111 -93q-68 102 -173 149.5t-216 47.5q-141 0 -255 -49t-193.5 -135t-122.5 -203t-43 -252t43 -252t122.5 -203t193.5 -135t255 -49q55 0 114.5 13.5t116 41t107.5 70.5t90 100 l111 -84q-104 -141 -241.5 -202.5t-297.5 -61.5q-166 0 -304 57.5t-236.5 159t-154 240.5t-55.5 305zM543 -399l28 65q68 -35 156 -35q20 0 42.5 5.5t42 15.5t32 26.5t12.5 40.5q0 47 -37 66.5t-78 19.5q-47 0 -90 -16l-33 31l129 180h78l-96 -131l4 -4q27 14 64 14 q66 0 118 -37t52 -110q0 -47 -20.5 -80t-54.5 -53.5t-74 -30.5t-81 -10q-102 0 -194 43z" />
<glyph unicode="&#xc8;" horiz-adv-x="1214" d="M199 0v1450h886v-123h-751v-516h704v-123h-704v-565h784v-123h-919zM350 1835h164l213 -295h-103z" />
<glyph unicode="&#xc9;" horiz-adv-x="1214" d="M199 0v1450h886v-123h-751v-516h704v-123h-704v-565h784v-123h-919zM489 1540l213 295h164l-275 -295h-102z" />
<glyph unicode="&#xca;" horiz-adv-x="1214" d="M199 0v1450h886v-123h-751v-516h704v-123h-704v-565h784v-123h-919zM315 1540l221 295h143l222 -295h-133l-166 221l-166 -221h-121z" />
<glyph unicode="&#xcb;" horiz-adv-x="1214" d="M199 0v1450h886v-123h-751v-516h704v-123h-704v-565h784v-123h-919zM315 1720q0 41 28.5 70t69.5 29t70 -29t29 -70t-29 -69.5t-70 -28.5t-69.5 28.5t-28.5 69.5zM704 1720q0 41 28.5 70t69.5 29t70 -29t29 -70t-29 -69.5t-70 -28.5t-69.5 28.5t-28.5 69.5z" />
<glyph unicode="&#xcc;" horiz-adv-x="532" d="M8 1835h164l213 -295h-103zM199 0v1450h135v-1450h-135z" />
<glyph unicode="&#xcd;" horiz-adv-x="532" d="M147 1540l213 295h164l-275 -295h-102zM199 0v1450h135v-1450h-135z" />
<glyph unicode="&#xce;" horiz-adv-x="532" d="M-27 1540l221 295h143l222 -295h-133l-166 221l-166 -221h-121zM199 0v1450h135v-1450h-135z" />
<glyph unicode="&#xcf;" horiz-adv-x="532" d="M-27 1720q0 41 28.5 70t69.5 29t70 -29t29 -70t-29 -69.5t-70 -28.5t-69.5 28.5t-28.5 69.5zM199 0v1450h135v-1450h-135zM362 1720q0 41 28.5 70t69.5 29t70 -29t29 -70t-29 -69.5t-70 -28.5t-69.5 28.5t-28.5 69.5z" />
<glyph unicode="&#xd0;" horiz-adv-x="1517" d="M20 700v111h160v639h449q188 0 319 -46t218 -118t137.5 -159t74 -166.5t29.5 -144t6 -91.5t-6 -91.5t-29.5 -144t-74 -166.5t-137.5 -159t-218 -118t-319 -46h-449v700h-160zM315 123h279q145 0 270 36t217.5 109.5t144.5 187t52 269.5t-52 269.5t-144.5 187 t-217.5 109.5t-270 36h-279v-516h529v-111h-529v-577z" />
<glyph unicode="&#xd1;" horiz-adv-x="1593" d="M199 0v1450h174l882 -1270h5v1270h135v-1450h-174l-883 1270h-4v-1270h-135zM477 1575q4 35 18.5 72.5t37.5 66.5q23 31 55.5 50.5t73.5 19.5t79.5 -16.5t73.5 -34.5q35 -16 68 -32t61 -16q45 0 67.5 31t31.5 68h73q-4 -37 -16 -75t-33.5 -67.5t-51.5 -48t-71 -18.5 t-79 16.5t-74 32.5q-37 16 -71 32.5t-65 16.5q-47 0 -70.5 -30.5t-33.5 -67.5h-74z" />
<glyph unicode="&#xd2;" horiz-adv-x="1708" d="M104 725q0 166 55.5 306t154 241.5t236.5 158t304 56.5t304 -56.5t236.5 -158t154 -241.5t55.5 -306t-55.5 -305t-154 -240.5t-236.5 -159t-304 -57.5t-304 57.5t-236.5 159t-154 240.5t-55.5 305zM240 725q0 -135 43 -252t122.5 -203t193.5 -135t255 -49t255 49 t193.5 135t122.5 203t43 252t-43 252t-122.5 203t-193.5 135t-255 49t-255 -49t-193.5 -135t-122.5 -203t-43 -252zM596 1835h164l213 -295h-103z" />
<glyph unicode="&#xd3;" horiz-adv-x="1708" d="M104 725q0 166 55.5 306t154 241.5t236.5 158t304 56.5t304 -56.5t236.5 -158t154 -241.5t55.5 -306t-55.5 -305t-154 -240.5t-236.5 -159t-304 -57.5t-304 57.5t-236.5 159t-154 240.5t-55.5 305zM240 725q0 -135 43 -252t122.5 -203t193.5 -135t255 -49t255 49 t193.5 135t122.5 203t43 252t-43 252t-122.5 203t-193.5 135t-255 49t-255 -49t-193.5 -135t-122.5 -203t-43 -252zM735 1540l213 295h164l-275 -295h-102z" />
<glyph unicode="&#xd4;" horiz-adv-x="1708" d="M104 725q0 166 55.5 306t154 241.5t236.5 158t304 56.5t304 -56.5t236.5 -158t154 -241.5t55.5 -306t-55.5 -305t-154 -240.5t-236.5 -159t-304 -57.5t-304 57.5t-236.5 159t-154 240.5t-55.5 305zM240 725q0 -135 43 -252t122.5 -203t193.5 -135t255 -49t255 49 t193.5 135t122.5 203t43 252t-43 252t-122.5 203t-193.5 135t-255 49t-255 -49t-193.5 -135t-122.5 -203t-43 -252zM561 1540l221 295h143l222 -295h-133l-166 221l-166 -221h-121z" />
<glyph unicode="&#xd5;" horiz-adv-x="1708" d="M104 725q0 166 55.5 306t154 241.5t236.5 158t304 56.5t304 -56.5t236.5 -158t154 -241.5t55.5 -306t-55.5 -305t-154 -240.5t-236.5 -159t-304 -57.5t-304 57.5t-236.5 159t-154 240.5t-55.5 305zM240 725q0 -135 43 -252t122.5 -203t193.5 -135t255 -49t255 49 t193.5 135t122.5 203t43 252t-43 252t-122.5 203t-193.5 135t-255 49t-255 -49t-193.5 -135t-122.5 -203t-43 -252zM534 1575q4 35 18.5 72.5t37.5 66.5q23 31 55.5 50.5t73.5 19.5t79.5 -16.5t73.5 -34.5q35 -16 68 -32t61 -16q45 0 67.5 31t31.5 68h73q-4 -37 -16 -75 t-33.5 -67.5t-51.5 -48t-71 -18.5t-79 16.5t-74 32.5q-37 16 -71 32.5t-65 16.5q-47 0 -70.5 -30.5t-33.5 -67.5h-74z" />
<glyph unicode="&#xd6;" horiz-adv-x="1708" d="M104 725q0 166 55.5 306t154 241.5t236.5 158t304 56.5t304 -56.5t236.5 -158t154 -241.5t55.5 -306t-55.5 -305t-154 -240.5t-236.5 -159t-304 -57.5t-304 57.5t-236.5 159t-154 240.5t-55.5 305zM240 725q0 -135 43 -252t122.5 -203t193.5 -135t255 -49t255 49 t193.5 135t122.5 203t43 252t-43 252t-122.5 203t-193.5 135t-255 49t-255 -49t-193.5 -135t-122.5 -203t-43 -252zM561 1720q0 41 28.5 70t69.5 29t70 -29t29 -70t-29 -69.5t-70 -28.5t-69.5 28.5t-28.5 69.5zM950 1720q0 41 28.5 70t69.5 29t70 -29t29 -70t-29 -69.5 t-70 -28.5t-69.5 28.5t-28.5 69.5z" />
<glyph unicode="&#xd7;" horiz-adv-x="1363" d="M205 215l409 406l-405 405l70 70l405 -406l408 406l67 -70l-407 -405l405 -406l-70 -70l-403 408l-408 -408z" />
<glyph unicode="&#xd8;" horiz-adv-x="1708" d="M104 725q0 166 55.5 306t154 241.5t236.5 158t304 56.5q143 0 264 -42t217 -120l152 166l69 -64l-153 -165q96 -100 148.5 -236.5t52.5 -300.5q0 -166 -55.5 -305t-154 -240.5t-236.5 -159t-304 -57.5q-147 0 -270 44t-219 126l-154 -166l-72 64l156 168 q-92 100 -141.5 233t-49.5 293zM240 725q0 -129 36.5 -237.5t108.5 -192.5l862 936q-78 63 -176 98t-217 35q-141 0 -255 -49t-193.5 -135t-122.5 -203t-43 -252zM451 227q78 -68 179 -104.5t224 -36.5q141 0 255 49t193.5 135t122.5 203t43 252q0 131 -39.5 243.5 t-113.5 196.5z" />
<glyph unicode="&#xd9;" horiz-adv-x="1400" d="M172 555v895h135v-860q0 -78 14.5 -166t56.5 -164t118.5 -125t203.5 -49t204 49t119 125t56.5 164t14.5 166v860h135v-895q0 -117 -26.5 -223.5t-89 -188.5t-164 -131t-249.5 -49q-147 0 -248.5 49t-164 131t-89 188.5t-26.5 223.5zM443 1835h164l213 -295h-103z" />
<glyph unicode="&#xda;" horiz-adv-x="1400" d="M172 555v895h135v-860q0 -78 14.5 -166t56.5 -164t118.5 -125t203.5 -49t204 49t119 125t56.5 164t14.5 166v860h135v-895q0 -117 -26.5 -223.5t-89 -188.5t-164 -131t-249.5 -49q-147 0 -248.5 49t-164 131t-89 188.5t-26.5 223.5zM582 1540l213 295h164l-275 -295h-102 z" />
<glyph unicode="&#xdb;" horiz-adv-x="1400" d="M172 555v895h135v-860q0 -78 14.5 -166t56.5 -164t118.5 -125t203.5 -49t204 49t119 125t56.5 164t14.5 166v860h135v-895q0 -117 -26.5 -223.5t-89 -188.5t-164 -131t-249.5 -49q-147 0 -248.5 49t-164 131t-89 188.5t-26.5 223.5zM408 1540l221 295h143l222 -295h-133 l-166 221l-166 -221h-121z" />
<glyph unicode="&#xdc;" horiz-adv-x="1400" d="M172 555v895h135v-860q0 -78 14.5 -166t56.5 -164t118.5 -125t203.5 -49t204 49t119 125t56.5 164t14.5 166v860h135v-895q0 -117 -26.5 -223.5t-89 -188.5t-164 -131t-249.5 -49q-147 0 -248.5 49t-164 131t-89 188.5t-26.5 223.5zM408 1720q0 41 28.5 70t69.5 29 t70 -29t29 -70t-29 -69.5t-70 -28.5t-69.5 28.5t-28.5 69.5zM797 1720q0 41 28.5 70t69.5 29t70 -29t29 -70t-29 -69.5t-70 -28.5t-69.5 28.5t-28.5 69.5z" />
<glyph unicode="&#xdd;" horiz-adv-x="1175" d="M-12 1450h162l438 -688l448 688h152l-533 -825v-625h-135v625zM469 1540l213 295h164l-275 -295h-102z" />
<glyph unicode="&#xde;" horiz-adv-x="1175" d="M199 0v1450h133v-320h284q78 0 160 -17t150.5 -60t112.5 -117t44 -188q0 -98 -35.5 -170t-96 -118t-139.5 -68.5t-165 -22.5h-313v-369h-135zM334 492h307q57 0 112.5 13t98.5 43t69.5 79t26.5 121q0 70 -27.5 118.5t-71.5 80.5t-100.5 46.5t-115.5 14.5h-299v-516z" />
<glyph unicode="&#xdf;" horiz-adv-x="1214" d="M164 0v1094q0 104 27.5 192t83 151.5t136.5 99.5t185 36q80 0 149.5 -24.5t119.5 -70.5t80 -115t30 -157q0 -121 -55.5 -203.5t-147.5 -111.5v-4q57 -10 114.5 -35t104.5 -74t77 -128t30 -197q0 -111 -38 -198t-105.5 -146.5t-160 -90t-202.5 -30.5q-25 0 -48.5 2 t-47.5 8v119q27 -10 53 -14.5t55 -4.5q82 0 150.5 24.5t118 71t76 112t26.5 145.5q0 96 -32 167.5t-86 117.5t-123.5 68.5t-145.5 22.5h-43v111h30q123 0 200 70.5t77 193.5q0 129 -75 194.5t-191 65.5q-84 0 -141.5 -30.5t-92.5 -84t-50 -124t-15 -148.5v-1075h-123z" />
<glyph unicode="&#xe0;" horiz-adv-x="1062" d="M121 256q0 109 55 172.5t136 95t172 40.5t161 9h143v58q0 123 -75.5 176t-190.5 53q-164 0 -289 -106l-71 84q68 66 168 99.5t192 33.5q172 0 274.5 -81t102.5 -261v-232q0 -137 4 -226t15 -171h-115q-12 72 -12 154h-5q-53 -92 -132 -135.5t-199 -43.5q-61 0 -121 15.5 t-107 49.5t-76.5 87t-29.5 129zM244 262q0 -43 19.5 -76.5t50 -55t68.5 -33t77 -11.5q98 0 161.5 28.5t101.5 75t52 104.5t14 118v63h-135q-76 0 -149.5 -10t-132 -34.5t-93 -65.5t-34.5 -103zM275 1450h164l213 -295h-103z" />
<glyph unicode="&#xe1;" horiz-adv-x="1062" d="M121 256q0 109 55 172.5t136 95t172 40.5t161 9h143v58q0 123 -75.5 176t-190.5 53q-164 0 -289 -106l-71 84q68 66 168 99.5t192 33.5q172 0 274.5 -81t102.5 -261v-232q0 -137 4 -226t15 -171h-115q-12 72 -12 154h-5q-53 -92 -132 -135.5t-199 -43.5q-61 0 -121 15.5 t-107 49.5t-76.5 87t-29.5 129zM244 262q0 -43 19.5 -76.5t50 -55t68.5 -33t77 -11.5q98 0 161.5 28.5t101.5 75t52 104.5t14 118v63h-135q-76 0 -149.5 -10t-132 -34.5t-93 -65.5t-34.5 -103zM414 1155l213 295h164l-275 -295h-102z" />
<glyph unicode="&#xe2;" horiz-adv-x="1062" d="M121 256q0 109 55 172.5t136 95t172 40.5t161 9h143v58q0 123 -75.5 176t-190.5 53q-164 0 -289 -106l-71 84q68 66 168 99.5t192 33.5q172 0 274.5 -81t102.5 -261v-232q0 -137 4 -226t15 -171h-115q-12 72 -12 154h-5q-53 -92 -132 -135.5t-199 -43.5q-61 0 -121 15.5 t-107 49.5t-76.5 87t-29.5 129zM240 1155l221 295h143l222 -295h-133l-166 221l-166 -221h-121zM244 262q0 -43 19.5 -76.5t50 -55t68.5 -33t77 -11.5q98 0 161.5 28.5t101.5 75t52 104.5t14 118v63h-135q-76 0 -149.5 -10t-132 -34.5t-93 -65.5t-34.5 -103z" />
<glyph unicode="&#xe3;" horiz-adv-x="1062" d="M121 256q0 109 55 172.5t136 95t172 40.5t161 9h143v58q0 123 -75.5 176t-190.5 53q-164 0 -289 -106l-71 84q68 66 168 99.5t192 33.5q172 0 274.5 -81t102.5 -261v-232q0 -137 4 -226t15 -171h-115q-12 72 -12 154h-5q-53 -92 -132 -135.5t-199 -43.5q-61 0 -121 15.5 t-107 49.5t-76.5 87t-29.5 129zM213 1190q4 35 18.5 72.5t37.5 66.5q23 31 55.5 50.5t73.5 19.5t79.5 -16.5t73.5 -34.5q35 -16 68 -32t61 -16q45 0 67.5 31t31.5 68h73q-4 -37 -16 -75t-33.5 -67.5t-51.5 -48t-71 -18.5t-79 16.5t-74 32.5q-37 16 -71 32.5t-65 16.5 q-47 0 -70.5 -30.5t-33.5 -67.5h-74zM244 262q0 -43 19.5 -76.5t50 -55t68.5 -33t77 -11.5q98 0 161.5 28.5t101.5 75t52 104.5t14 118v63h-135q-76 0 -149.5 -10t-132 -34.5t-93 -65.5t-34.5 -103z" />
<glyph unicode="&#xe4;" horiz-adv-x="1062" d="M121 256q0 109 55 172.5t136 95t172 40.5t161 9h143v58q0 123 -75.5 176t-190.5 53q-164 0 -289 -106l-71 84q68 66 168 99.5t192 33.5q172 0 274.5 -81t102.5 -261v-232q0 -137 4 -226t15 -171h-115q-12 72 -12 154h-5q-53 -92 -132 -135.5t-199 -43.5q-61 0 -121 15.5 t-107 49.5t-76.5 87t-29.5 129zM240 1335q0 41 28.5 70t69.5 29t70 -29t29 -70t-29 -69.5t-70 -28.5t-69.5 28.5t-28.5 69.5zM244 262q0 -43 19.5 -76.5t50 -55t68.5 -33t77 -11.5q98 0 161.5 28.5t101.5 75t52 104.5t14 118v63h-135q-76 0 -149.5 -10t-132 -34.5t-93 -65.5 t-34.5 -103zM629 1335q0 41 28.5 70t69.5 29t70 -29t29 -70t-29 -69.5t-70 -28.5t-69.5 28.5t-28.5 69.5z" />
<glyph unicode="&#xe5;" horiz-adv-x="1062" d="M121 256q0 109 55 172.5t136 95t172 40.5t161 9h143v58q0 123 -75.5 176t-190.5 53q-164 0 -289 -106l-71 84q68 66 168 99.5t192 33.5q172 0 274.5 -81t102.5 -261v-232q0 -137 4 -226t15 -171h-115q-12 72 -12 154h-5q-53 -92 -132 -135.5t-199 -43.5q-61 0 -121 15.5 t-107 49.5t-76.5 87t-29.5 129zM244 262q0 -43 19.5 -76.5t50 -55t68.5 -33t77 -11.5q98 0 161.5 28.5t101.5 75t52 104.5t14 118v63h-135q-76 0 -149.5 -10t-132 -34.5t-93 -65.5t-34.5 -103zM342 1329q0 39 15.5 75t41 62.5t61.5 42t75 15.5q41 0 74.5 -16.5t59.5 -44 t40 -62.5t14 -74q0 -37 -14 -71.5t-40 -61.5t-60.5 -43t-73.5 -16t-75 15t-61.5 42t-41 62.5t-15.5 74.5zM416 1327q0 -51 34 -85t83 -34q51 0 83.5 35t32.5 86t-32.5 86t-83.5 35t-84 -36t-33 -87z" />
<glyph unicode="&#xe6;" horiz-adv-x="1744" d="M111 256q0 45 17 97.5t66.5 96.5t138.5 73.5t234 29.5h236v18q0 139 -68.5 214t-222.5 75q-164 0 -289 -106l-71 84q68 66 168 99.5t192 33.5q129 0 222 -42t147 -155q53 98 150 147.5t196 49.5q86 0 163.5 -25.5t136 -81t93.5 -142.5t35 -208v-72h-729q-2 -74 17.5 -138 t60 -112.5t104 -77t145.5 -28.5q88 0 158 40t115 112l96 -70q-80 -104 -169 -148.5t-220 -44.5q-125 0 -223.5 55.5t-149.5 178.5q-59 -127 -169.5 -180.5t-246.5 -53.5q-61 0 -120.5 15.5t-106.5 49.5t-76.5 87t-29.5 129zM233 262q0 -43 19.5 -76.5t50.5 -55t69 -33 t77 -11.5q96 0 162.5 28.5t109.5 77t62.5 113t19.5 137.5h-240q-109 0 -173 -20.5t-99 -48t-46.5 -58t-11.5 -53.5zM926 553h606q0 63 -18.5 119.5t-55.5 97.5t-93 65.5t-134 24.5q-70 0 -127 -24.5t-96 -66.5t-60.5 -97.5t-21.5 -118.5z" />
<glyph unicode="&#xe7;" horiz-adv-x="985" d="M111 473q0 109 36.5 200t103 157.5t158 103.5t199.5 37q104 0 193.5 -43t159.5 -121l-99 -74q-53 59 -116.5 93t-137.5 34q-86 0 -155.5 -30.5t-118.5 -83t-75 -123t-26 -150.5t26 -150.5t75 -123t118.5 -83t155.5 -30.5q78 0 142.5 36t111.5 95l94 -78 q-70 -84 -157.5 -124t-190.5 -40q-109 0 -200 37t-157.5 103.5t-103 158t-36.5 199.5zM316 -399l28 65q68 -35 156 -35q20 0 42.5 5.5t42 15.5t32 26.5t12.5 40.5q0 47 -37 66.5t-78 19.5q-47 0 -90 -16l-33 31l129 180h78l-96 -131l4 -4q27 14 64 14q66 0 118 -37t52 -110 q0 -47 -20.5 -80t-54.5 -53.5t-74 -30.5t-81 -10q-102 0 -194 43z" />
<glyph unicode="&#xe8;" horiz-adv-x="1138" d="M111 475q0 106 34.5 196.5t98 157t149.5 104.5t191 38q109 0 191.5 -38t139 -100.5t85 -142.5t28.5 -162v-86h-795q0 -39 15.5 -99t56.5 -117.5t110.5 -98.5t176.5 -41q94 0 182 45t135 123l90 -76q-72 -109 -177 -156t-232 -47q-109 0 -197 37t-151.5 103.5t-97 158 t-33.5 201.5zM233 553h672q0 63 -25.5 118.5t-69.5 97.5t-104.5 66.5t-127.5 24.5q-100 0 -167 -41t-106 -94t-55.5 -103.5t-16.5 -68.5zM312 1450h164l213 -295h-103z" />
<glyph unicode="&#xe9;" horiz-adv-x="1138" d="M111 475q0 106 34.5 196.5t98 157t149.5 104.5t191 38q109 0 191.5 -38t139 -100.5t85 -142.5t28.5 -162v-86h-795q0 -39 15.5 -99t56.5 -117.5t110.5 -98.5t176.5 -41q94 0 182 45t135 123l90 -76q-72 -109 -177 -156t-232 -47q-109 0 -197 37t-151.5 103.5t-97 158 t-33.5 201.5zM233 553h672q0 63 -25.5 118.5t-69.5 97.5t-104.5 66.5t-127.5 24.5q-100 0 -167 -41t-106 -94t-55.5 -103.5t-16.5 -68.5zM451 1155l213 295h164l-275 -295h-102z" />
<glyph unicode="&#xea;" horiz-adv-x="1138" d="M111 475q0 106 34.5 196.5t98 157t149.5 104.5t191 38q109 0 191.5 -38t139 -100.5t85 -142.5t28.5 -162v-86h-795q0 -39 15.5 -99t56.5 -117.5t110.5 -98.5t176.5 -41q94 0 182 45t135 123l90 -76q-72 -109 -177 -156t-232 -47q-109 0 -197 37t-151.5 103.5t-97 158 t-33.5 201.5zM233 553h672q0 63 -25.5 118.5t-69.5 97.5t-104.5 66.5t-127.5 24.5q-100 0 -167 -41t-106 -94t-55.5 -103.5t-16.5 -68.5zM277 1155l221 295h143l222 -295h-133l-166 221l-166 -221h-121z" />
<glyph unicode="&#xeb;" horiz-adv-x="1138" d="M111 475q0 106 34.5 196.5t98 157t149.5 104.5t191 38q109 0 191.5 -38t139 -100.5t85 -142.5t28.5 -162v-86h-795q0 -39 15.5 -99t56.5 -117.5t110.5 -98.5t176.5 -41q94 0 182 45t135 123l90 -76q-72 -109 -177 -156t-232 -47q-109 0 -197 37t-151.5 103.5t-97 158 t-33.5 201.5zM233 553h672q0 63 -25.5 118.5t-69.5 97.5t-104.5 66.5t-127.5 24.5q-100 0 -167 -41t-106 -94t-55.5 -103.5t-16.5 -68.5zM277 1335q0 41 28.5 70t69.5 29t70 -29t29 -70t-29 -69.5t-70 -28.5t-69.5 28.5t-28.5 69.5zM666 1335q0 41 28.5 70t69.5 29t70 -29 t29 -70t-29 -69.5t-70 -28.5t-69.5 28.5t-28.5 69.5z" />
<glyph unicode="&#xec;" horiz-adv-x="491" d="M-12 1450h164l213 -295h-103zM184 0v946h123v-946h-123z" />
<glyph unicode="&#xed;" horiz-adv-x="491" d="M127 1155l213 295h164l-275 -295h-102zM184 0v946h123v-946h-123z" />
<glyph unicode="&#xee;" horiz-adv-x="491" d="M-47 1155l221 295h143l222 -295h-133l-166 221l-166 -221h-121zM184 0v946h123v-946h-123z" />
<glyph unicode="&#xef;" horiz-adv-x="491" d="M-47 1335q0 41 28.5 70t69.5 29t70 -29t29 -70t-29 -69.5t-70 -28.5t-69.5 28.5t-28.5 69.5zM184 0v946h123v-946h-123zM342 1335q0 41 28.5 70t69.5 29t70 -29t29 -70t-29 -69.5t-70 -28.5t-69.5 28.5t-28.5 69.5z" />
<glyph unicode="&#xf0;" horiz-adv-x="1216" d="M111 473q0 109 36.5 200t103 157.5t158 103.5t199.5 37q86 0 163 -26.5t142 -86.5l5 4q-78 137 -166 247t-164 177l-219 -117l-64 68l213 115q-47 43 -100 87t-92 72l106 62q47 -35 100.5 -79t94.5 -85l213 115l73 -62l-217 -116q45 -41 115 -115t135.5 -177.5 t112.5 -236.5t47 -293q0 -127 -37 -229t-102.5 -173t-157.5 -109t-201 -38t-200 37t-157.5 103.5t-103 158t-36.5 199.5zM233 473q0 -80 26 -150.5t75 -123t118.5 -83t155.5 -30.5t156 30.5t119 83t74.5 123t25.5 150.5t-25.5 150.5t-74.5 123t-119 83t-156 30.5 t-155.5 -30.5t-118.5 -83t-75 -123t-26 -150.5z" />
<glyph unicode="&#xf1;" horiz-adv-x="1138" d="M154 946h122q2 -53 3.5 -102t5.5 -64h6q37 78 122 134.5t201 56.5q111 0 181.5 -35t110.5 -91.5t54.5 -130t14.5 -151.5v-563h-123v557q0 57 -10.5 111.5t-36 97.5t-71.5 68.5t-120 25.5q-68 0 -128 -23.5t-104 -71.5t-69.5 -121t-25.5 -171v-473h-123v680q0 27 -2 64.5 t-3 76.5t-3 73t-2 52zM250 1190q4 35 18.5 72.5t37.5 66.5q23 31 55.5 50.5t73.5 19.5t79.5 -16.5t73.5 -34.5q35 -16 68 -32t61 -16q45 0 67.5 31t31.5 68h73q-4 -37 -16 -75t-33.5 -67.5t-51.5 -48t-71 -18.5t-79 16.5t-74 32.5q-37 16 -71 32.5t-65 16.5 q-47 0 -70.5 -30.5t-33.5 -67.5h-74z" />
<glyph unicode="&#xf2;" horiz-adv-x="1216" d="M111 473q0 109 36.5 200t103 157.5t158 103.5t199.5 37q109 0 201 -37t157.5 -103.5t102.5 -157.5t37 -200t-37 -200t-102.5 -157.5t-157.5 -103.5t-201 -37t-200 37t-157.5 103.5t-103 157.5t-36.5 200zM233 473q0 -80 26 -150.5t75 -123t118.5 -83t155.5 -30.5 t156 30.5t119 83t74.5 123t25.5 150.5t-25.5 150.5t-74.5 123t-119 83t-156 30.5t-155.5 -30.5t-118.5 -83t-75 -123t-26 -150.5zM350 1450h164l213 -295h-103z" />
<glyph unicode="&#xf3;" horiz-adv-x="1216" d="M111 473q0 109 36.5 200t103 157.5t158 103.5t199.5 37q109 0 201 -37t157.5 -103.5t102.5 -157.5t37 -200t-37 -200t-102.5 -157.5t-157.5 -103.5t-201 -37t-200 37t-157.5 103.5t-103 157.5t-36.5 200zM233 473q0 -80 26 -150.5t75 -123t118.5 -83t155.5 -30.5 t156 30.5t119 83t74.5 123t25.5 150.5t-25.5 150.5t-74.5 123t-119 83t-156 30.5t-155.5 -30.5t-118.5 -83t-75 -123t-26 -150.5zM489 1155l213 295h164l-275 -295h-102z" />
<glyph unicode="&#xf4;" horiz-adv-x="1216" d="M111 473q0 109 36.5 200t103 157.5t158 103.5t199.5 37q109 0 201 -37t157.5 -103.5t102.5 -157.5t37 -200t-37 -200t-102.5 -157.5t-157.5 -103.5t-201 -37t-200 37t-157.5 103.5t-103 157.5t-36.5 200zM233 473q0 -80 26 -150.5t75 -123t118.5 -83t155.5 -30.5 t156 30.5t119 83t74.5 123t25.5 150.5t-25.5 150.5t-74.5 123t-119 83t-156 30.5t-155.5 -30.5t-118.5 -83t-75 -123t-26 -150.5zM315 1155l221 295h143l222 -295h-133l-166 221l-166 -221h-121z" />
<glyph unicode="&#xf5;" horiz-adv-x="1216" d="M111 473q0 109 36.5 200t103 157.5t158 103.5t199.5 37q109 0 201 -37t157.5 -103.5t102.5 -157.5t37 -200t-37 -200t-102.5 -157.5t-157.5 -103.5t-201 -37t-200 37t-157.5 103.5t-103 157.5t-36.5 200zM233 473q0 -80 26 -150.5t75 -123t118.5 -83t155.5 -30.5 t156 30.5t119 83t74.5 123t25.5 150.5t-25.5 150.5t-74.5 123t-119 83t-156 30.5t-155.5 -30.5t-118.5 -83t-75 -123t-26 -150.5zM288 1190q4 35 18.5 72.5t37.5 66.5q23 31 55.5 50.5t73.5 19.5t79.5 -16.5t73.5 -34.5q35 -16 68 -32t61 -16q45 0 67.5 31t31.5 68h73 q-4 -37 -16 -75t-33.5 -67.5t-51.5 -48t-71 -18.5t-79 16.5t-74 32.5q-37 16 -71 32.5t-65 16.5q-47 0 -70.5 -30.5t-33.5 -67.5h-74z" />
<glyph unicode="&#xf6;" horiz-adv-x="1216" d="M111 473q0 109 36.5 200t103 157.5t158 103.5t199.5 37q109 0 201 -37t157.5 -103.5t102.5 -157.5t37 -200t-37 -200t-102.5 -157.5t-157.5 -103.5t-201 -37t-200 37t-157.5 103.5t-103 157.5t-36.5 200zM233 473q0 -80 26 -150.5t75 -123t118.5 -83t155.5 -30.5 t156 30.5t119 83t74.5 123t25.5 150.5t-25.5 150.5t-74.5 123t-119 83t-156 30.5t-155.5 -30.5t-118.5 -83t-75 -123t-26 -150.5zM315 1335q0 41 28.5 70t69.5 29t70 -29t29 -70t-29 -69.5t-70 -28.5t-69.5 28.5t-28.5 69.5zM704 1335q0 41 28.5 70t69.5 29t70 -29t29 -70 t-29 -69.5t-70 -28.5t-69.5 28.5t-28.5 69.5z" />
<glyph unicode="&#xf7;" horiz-adv-x="1363" d="M160 571v99h1044v-99h-1044zM578 305q0 45 30.5 74t73.5 31q43 0 73.5 -31t30.5 -74t-30.5 -73.5t-73.5 -30.5t-73.5 30.5t-30.5 73.5zM578 936q0 43 30.5 73.5t73.5 30.5t73.5 -30.5t30.5 -73.5t-30.5 -74t-73.5 -31t-73.5 31t-30.5 74z" />
<glyph unicode="&#xf8;" horiz-adv-x="1216" d="M80 4l143 146q-113 131 -112 323q0 109 36.5 200t103 157.5t158 103.5t199.5 37q96 0 177 -29t145 -80l141 144l66 -60l-146 -145q55 -63 85 -146.5t30 -181.5q0 -109 -37 -200t-102.5 -157.5t-157.5 -103.5t-201 -37q-98 0 -180 29t-143 82l-140 -141zM233 473 q0 -68 18.5 -129t55.5 -108l539 542q-47 39 -106.5 60.5t-131.5 21.5q-86 0 -155.5 -30.5t-118.5 -83t-75 -123t-26 -150.5zM369 170q45 -41 105.5 -62.5t133.5 -21.5q86 0 156 30.5t119 83t74.5 123t25.5 150.5q0 147 -76 242z" />
<glyph unicode="&#xf9;" horiz-adv-x="1138" d="M154 383v563h122v-557q0 -57 10.5 -111.5t36 -97.5t71.5 -68.5t120 -25.5q68 0 128 23.5t104.5 71.5t70 121t25.5 171v473h123v-680q0 -27 2 -64.5t3 -76.5t3 -73t2 -52h-123q-2 53 -3 102.5t-5 63.5h-6q-37 -78 -122 -134.5t-202 -56.5q-111 0 -180.5 35t-109.5 91.5 t-55 130t-15 151.5zM312 1450h164l213 -295h-103z" />
<glyph unicode="&#xfa;" horiz-adv-x="1138" d="M154 383v563h122v-557q0 -57 10.5 -111.5t36 -97.5t71.5 -68.5t120 -25.5q68 0 128 23.5t104.5 71.5t70 121t25.5 171v473h123v-680q0 -27 2 -64.5t3 -76.5t3 -73t2 -52h-123q-2 53 -3 102.5t-5 63.5h-6q-37 -78 -122 -134.5t-202 -56.5q-111 0 -180.5 35t-109.5 91.5 t-55 130t-15 151.5zM451 1155l213 295h164l-275 -295h-102z" />
<glyph unicode="&#xfb;" horiz-adv-x="1138" d="M154 383v563h122v-557q0 -57 10.5 -111.5t36 -97.5t71.5 -68.5t120 -25.5q68 0 128 23.5t104.5 71.5t70 121t25.5 171v473h123v-680q0 -27 2 -64.5t3 -76.5t3 -73t2 -52h-123q-2 53 -3 102.5t-5 63.5h-6q-37 -78 -122 -134.5t-202 -56.5q-111 0 -180.5 35t-109.5 91.5 t-55 130t-15 151.5zM277 1155l221 295h143l222 -295h-133l-166 221l-166 -221h-121z" />
<glyph unicode="&#xfc;" horiz-adv-x="1138" d="M154 383v563h122v-557q0 -57 10.5 -111.5t36 -97.5t71.5 -68.5t120 -25.5q68 0 128 23.5t104.5 71.5t70 121t25.5 171v473h123v-680q0 -27 2 -64.5t3 -76.5t3 -73t2 -52h-123q-2 53 -3 102.5t-5 63.5h-6q-37 -78 -122 -134.5t-202 -56.5q-111 0 -180.5 35t-109.5 91.5 t-55 130t-15 151.5zM277 1335q0 41 28.5 70t69.5 29t70 -29t29 -70t-29 -69.5t-70 -28.5t-69.5 28.5t-28.5 69.5zM666 1335q0 41 28.5 70t69.5 29t70 -29t29 -70t-29 -69.5t-70 -28.5t-69.5 28.5t-28.5 69.5z" />
<glyph unicode="&#xfd;" horiz-adv-x="948" d="M31 946h137l313 -796l305 796h132l-488 -1239q-35 -92 -96.5 -145.5t-163.5 -53.5q-31 0 -61.5 5.5t-59.5 13.5l12 115q27 -8 54.5 -15.5t56.5 -7.5q35 0 59.5 14.5t43 37t31.5 50t24 56.5l86 219zM356 1155l213 295h164l-275 -295h-102z" />
<glyph unicode="&#xfe;" horiz-adv-x="1251" d="M137 -467v2015h123v-768h4q29 49 72 85t93 59.5t105.5 35t108.5 11.5q109 0 201 -37t157.5 -103.5t102.5 -157.5t37 -200t-37 -200t-102.5 -157.5t-157.5 -103.5t-201 -37q-53 0 -108.5 11.5t-105.5 35t-93 59.5t-72 85h-4v-633h-123zM248 473q0 -80 30.5 -150.5t84 -123 t125 -83t155.5 -30.5q86 0 155.5 30.5t119 83t75 123t25.5 150.5t-25.5 150.5t-75 123t-119 83t-155.5 30.5q-84 0 -155.5 -30.5t-125 -83t-84 -123t-30.5 -150.5z" />
<glyph unicode="&#xff;" horiz-adv-x="948" d="M31 946h137l313 -796l305 796h132l-488 -1239q-35 -92 -96.5 -145.5t-163.5 -53.5q-31 0 -61.5 5.5t-59.5 13.5l12 115q27 -8 54.5 -15.5t56.5 -7.5q35 0 59.5 14.5t43 37t31.5 50t24 56.5l86 219zM182 1335q0 41 28.5 70t69.5 29t70 -29t29 -70t-29 -69.5t-70 -28.5 t-69.5 28.5t-28.5 69.5zM571 1335q0 41 28.5 70t69.5 29t70 -29t29 -70t-29 -69.5t-70 -28.5t-69.5 28.5t-28.5 69.5z" />
<glyph unicode="&#x152;" horiz-adv-x="1933" d="M121 725q0 180 66.5 315.5t177 226.5t253 137t293.5 46h885v-123h-606v-516h571v-123h-571v-565h622v-123h-966q-145 0 -277.5 51t-231.5 146.5t-157.5 229.5t-58.5 298zM256 725q0 -168 64.5 -283.5t159.5 -186.5t205 -101.5t198 -30.5h172v1204h-160q-106 0 -220 -35 t-207 -108.5t-152.5 -187t-59.5 -271.5z" />
<glyph unicode="&#x153;" horiz-adv-x="1857" d="M90 473q0 109 36 200t98.5 157.5t149.5 103.5t187 37q102 0 174 -28t119 -65.5t74.5 -77.5t40.5 -65q18 41 49 83t76 76t106.5 55.5t138.5 21.5q86 0 164 -25.5t136.5 -81t93 -142.5t34.5 -208v-72h-729q-2 -74 17.5 -138t60.5 -112.5t104.5 -77t145.5 -28.5 q88 0 157.5 40t114.5 112l97 -70q-80 -104 -169 -148.5t-220 -44.5q-125 0 -223.5 55.5t-149.5 178.5h-4q-59 -115 -166 -174.5t-242 -59.5q-100 0 -187 37t-149.5 103.5t-98.5 158t-36 199.5zM213 473q0 -76 24.5 -145.5t70.5 -123.5t110.5 -86t146.5 -32t146.5 30.5 t109.5 83t69.5 123t24.5 150.5t-24.5 150.5t-69.5 123t-109.5 83t-146.5 30.5t-146.5 -31.5t-110.5 -86t-70.5 -124t-24.5 -145.5zM1038 553h607q0 63 -18.5 119.5t-55.5 97.5t-93.5 65.5t-134.5 24.5q-70 0 -127 -24.5t-96 -66.5t-60.5 -97.5t-21.5 -118.5z" />
<glyph unicode="&#x178;" horiz-adv-x="1175" d="M-12 1450h162l438 -688l448 688h152l-533 -825v-625h-135v625zM295 1720q0 41 28.5 70t69.5 29t70 -29t29 -70t-29 -69.5t-70 -28.5t-69.5 28.5t-28.5 69.5zM684 1720q0 41 28.5 70t69.5 29t70 -29t29 -70t-29 -69.5t-70 -28.5t-69.5 28.5t-28.5 69.5z" />
<glyph unicode="&#x2c6;" horiz-adv-x="491" d="M-47 1155l221 295h143l222 -295h-133l-166 221l-166 -221h-121z" />
<glyph unicode="&#x2dc;" horiz-adv-x="491" d="M-74 1190q4 35 18.5 72.5t37.5 66.5q23 31 55.5 50.5t73.5 19.5t79.5 -16.5t73.5 -34.5q35 -16 68 -32t61 -16q45 0 67.5 31t31.5 68h73q-4 -37 -16 -75t-33.5 -67.5t-51.5 -48t-71 -18.5t-79 16.5t-74 32.5q-37 16 -71 32.5t-65 16.5q-47 0 -70.5 -30.5t-33.5 -67.5h-74 z" />
<glyph unicode="&#x2000;" horiz-adv-x="954" />
<glyph unicode="&#x2001;" horiz-adv-x="1909" />
<glyph unicode="&#x2002;" horiz-adv-x="954" />
<glyph unicode="&#x2003;" horiz-adv-x="1909" />
<glyph unicode="&#x2004;" horiz-adv-x="636" />
<glyph unicode="&#x2005;" horiz-adv-x="477" />
<glyph unicode="&#x2006;" horiz-adv-x="318" />
<glyph unicode="&#x2007;" horiz-adv-x="318" />
<glyph unicode="&#x2008;" horiz-adv-x="238" />
<glyph unicode="&#x2009;" horiz-adv-x="381" />
<glyph unicode="&#x200a;" horiz-adv-x="106" />
<glyph unicode="&#x2010;" horiz-adv-x="681" d="M88 430v111h506v-111h-506z" />
<glyph unicode="&#x2011;" horiz-adv-x="681" d="M88 430v111h506v-111h-506z" />
<glyph unicode="&#x2012;" horiz-adv-x="681" d="M88 430v111h506v-111h-506z" />
<glyph unicode="&#x2013;" horiz-adv-x="1024" d="M0 430v111h1024v-111h-1024z" />
<glyph unicode="&#x2014;" horiz-adv-x="2048" d="M0 430v111h2048v-111h-2048z" />
<glyph unicode="&#x2018;" horiz-adv-x="532" d="M127 983l156 467h123l-132 -467h-147z" />
<glyph unicode="&#x2019;" horiz-adv-x="532" d="M127 983l129 467h150l-158 -467h-121z" />
<glyph unicode="&#x201a;" horiz-adv-x="532" d="M127 -283l129 467h150l-158 -467h-121z" />
<glyph unicode="&#x201c;" d="M215 983l158 467h121l-129 -467h-150zM571 983l158 467h121l-129 -467h-150z" />
<glyph unicode="&#x201d;" d="M215 983l129 467h150l-158 -467h-121zM571 983l129 467h150l-158 -467h-121z" />
<glyph unicode="&#x201e;" d="M215 -283l129 467h150l-158 -467h-121zM571 -283l129 467h150l-158 -467h-121z" />
<glyph unicode="&#x2022;" horiz-adv-x="1024" d="M150 725q0 76 28.5 141.5t77.5 114.5t114.5 77.5t141.5 28.5t141.5 -28.5t114.5 -77.5t77.5 -114.5t28.5 -141.5t-28.5 -141.5t-77.5 -114.5t-114.5 -78t-141.5 -29t-141.5 29t-114.5 78t-77.5 114.5t-28.5 141.5z" />
<glyph unicode="&#x2026;" horiz-adv-x="2048" d="M244 86q0 41 28.5 69.5t69.5 28.5t69.5 -28.5t28.5 -69.5t-28.5 -69.5t-69.5 -28.5t-69.5 28.5t-28.5 69.5zM926 86q0 41 28.5 69.5t69.5 28.5t69.5 -28.5t28.5 -69.5t-28.5 -69.5t-69.5 -28.5t-69.5 28.5t-28.5 69.5zM1608 86q0 41 28.5 69.5t69.5 28.5t69.5 -28.5 t28.5 -69.5t-28.5 -69.5t-69.5 -28.5t-69.5 28.5t-28.5 69.5z" />
<glyph unicode="&#x202f;" horiz-adv-x="381" />
<glyph unicode="&#x2039;" horiz-adv-x="645" d="M129 485l281 416l86 -59l-238 -357l242 -360l-90 -55z" />
<glyph unicode="&#x203a;" horiz-adv-x="645" d="M145 846l91 55l280 -416l-280 -415l-86 59l237 356z" />
<glyph unicode="&#x205f;" horiz-adv-x="477" />
<glyph unicode="&#x2122;" horiz-adv-x="2027" d="M172 1352v98h655v-98h-272v-746h-111v746h-272zM979 606v844h176l266 -672l265 672h169v-844h-110v740h-4l-291 -740h-66l-290 740h-4v-740h-111z" />
<glyph unicode="&#x25fc;" horiz-adv-x="942" d="M0 0v942h942v-942h-942z" />
<glyph unicode="&#xfb01;" horiz-adv-x="1062" d="M37 836v110h196v309q0 92 28 152.5t69 97.5t91 52.5t95 15.5q86 0 141 -25l-24 -106q-41 20 -111 20q-166 0 -166 -252v-264h222v-110h-222v-836h-123v836h-196zM725 1321q0 39 26.5 65.5t65.5 26.5t65.5 -26.5t26.5 -65.5t-26.5 -65.5t-65.5 -26.5t-65.5 26.5 t-26.5 65.5zM756 0v946h123v-946h-123z" />
<glyph unicode="&#xfb02;" horiz-adv-x="1062" d="M37 836v110h196v309q0 92 28 152.5t69 97.5t91 52.5t95 15.5q86 0 141 -25l-24 -106q-41 20 -111 20q-166 0 -166 -252v-264h222v-110h-222v-836h-123v836h-196zM756 0v1548h123v-1548h-123z" />
</font>
</defs>
</svg>
